  0
SECTION
  2
HEADER
  9
$ACADVER
  1
AC1027
  9
$ACADMAINTVER
 70
   105
  9
$DWGCODEPAGE
  3
ANSI_1252
  9
$REQUIREDVERSIONS
160
                 0
  9
$INSBASE
 10
0.0
 20
0.0
 30
0.0
  9
$EXTMIN
 10
-111.8953234563471
 20
0.0
 30
-60.5
  9
$EXTMAX
 10
205.1728336909396
 20
296.99999999932
 30
66.49531617744076
  9
$LIMMIN
 10
0.0
 20
0.0
  9
$LIMMAX
 10
420.0
 20
297.0
  9
$ORTHOMODE
 70
     0
  9
$REGENMODE
 70
     1
  9
$FILLMODE
 70
     1
  9
$QTEXTMODE
 70
     0
  9
$MIRRTEXT
 70
     1
  9
$LTSCALE
 40
1.0
  9
$ATTMODE
 70
     1
  9
$TEXTSIZE
 40
2.5
  9
$TRACEWID
 40
1.0
  9
$TEXTSTYLE
  7
Standard
  9
$CLAYER
  8
0
  9
$CELTYPE
  6
ByLayer
  9
$CECOLOR
 62
   256
  9
$CELTSCALE
 40
1.0
  9
$DISPSILH
 70
     0
  9
$DIMSCALE
 40
1.0
  9
$DIMASZ
 40
2.5
  9
$DIMEXO
 40
0.625
  9
$DIMDLI
 40
3.75
  9
$DIMRND
 40
0.0
  9
$DIMDLE
 40
0.0
  9
$DIMEXE
 40
1.25
  9
$DIMTP
 40
0.0
  9
$DIMTM
 40
0.0
  9
$DIMTXT
 40
2.5
  9
$DIMCEN
 40
2.5
  9
$DIMTSZ
 40
0.0
  9
$DIMTOL
 70
     0
  9
$DIMLIM
 70
     0
  9
$DIMTIH
 70
     0
  9
$DIMTOH
 70
     0
  9
$DIMSE1
 70
     0
  9
$DIMSE2
 70
     0
  9
$DIMTAD
 70
     1
  9
$DIMZIN
 70
     8
  9
$DIMBLK
  1

  9
$DIMASO
 70
     1
  9
$DIMSHO
 70
     1
  9
$DIMPOST
  1

  9
$DIMAPOST
  1

  9
$DIMALT
 70
     0
  9
$DIMALTD
 70
     3
  9
$DIMALTF
 40
0.03937007874016
  9
$DIMLFAC
 40
1.0
  9
$DIMTOFL
 70
     1
  9
$DIMTVP
 40
0.0
  9
$DIMTIX
 70
     0
  9
$DIMSOXD
 70
     0
  9
$DIMSAH
 70
     0
  9
$DIMBLK1
  1

  9
$DIMBLK2
  1

  9
$DIMSTYLE
  2
ISO-25
  9
$DIMCLRD
 70
     0
  9
$DIMCLRE
 70
     0
  9
$DIMCLRT
 70
     0
  9
$DIMTFAC
 40
1.0
  9
$DIMGAP
 40
0.625
  9
$DIMJUST
 70
     0
  9
$DIMSD1
 70
     0
  9
$DIMSD2
 70
     0
  9
$DIMTOLJ
 70
     0
  9
$DIMTZIN
 70
     8
  9
$DIMALTZ
 70
     0
  9
$DIMALTTZ
 70
     0
  9
$DIMUPT
 70
     0
  9
$DIMDEC
 70
     2
  9
$DIMTDEC
 70
     2
  9
$DIMALTU
 70
     2
  9
$DIMALTTD
 70
     3
  9
$DIMTXSTY
  7
Standard
  9
$DIMAUNIT
 70
     0
  9
$DIMADEC
 70
     0
  9
$DIMALTRND
 40
0.0
  9
$DIMAZIN
 70
     0
  9
$DIMDSEP
 70
    44
  9
$DIMATFIT
 70
     3
  9
$DIMFRAC
 70
     0
  9
$DIMLDRBLK
  1

  9
$DIMLUNIT
 70
     2
  9
$DIMLWD
 70
    -2
  9
$DIMLWE
 70
    -2
  9
$DIMTMOVE
 70
     0
  9
$DIMFXL
 40
1.0
  9
$DIMFXLON
 70
     0
  9
$DIMJOGANG
 40
0.7853981633974483
  9
$DIMTFILL
 70
     0
  9
$DIMTFILLCLR
 70
     0
  9
$DIMARCSYM
 70
     0
  9
$DIMLTYPE
  6

  9
$DIMLTEX1
  6

  9
$DIMLTEX2
  6

  9
$DIMTXTDIRECTION
 70
     0
  9
$LUNITS
 70
     2
  9
$LUPREC
 70
     4
  9
$SKETCHINC
 40
1.0
  9
$FILLETRAD
 40
10.0
  9
$AUNITS
 70
     0
  9
$AUPREC
 70
     0
  9
$MENU
  1
.
  9
$ELEVATION
 40
0.0
  9
$PELEVATION
 40
0.0
  9
$THICKNESS
 40
0.0
  9
$LIMCHECK
 70
     0
  9
$CHAMFERA
 40
0.0
  9
$CHAMFERB
 40
0.0
  9
$CHAMFERC
 40
0.0
  9
$CHAMFERD
 40
0.0
  9
$SKPOLY
 70
     0
  9
$TDCREATE
 40
2305814.683032407
  9
$TDUCREATE
 40
1800875.599699074
  9
$TDUPDATE
 40
2458312.599713739
  9
$TDUUPDATE
 40
2458312.516380405
  9
$TDINDWG
 40
0.0000000116
  9
$TDUSRTIMER
 40
0.0000000116
  9
$USRTIMER
 70
     1
  9
$ANGBASE
 50
0.0
  9
$ANGDIR
 70
     0
  9
$PDMODE
 70
     0
  9
$PDSIZE
 40
0.0
  9
$PLINEWID
 40
0.0
  9
$SPLFRAME
 70
     0
  9
$SPLINETYPE
 70
     6
  9
$SPLINESEGS
 70
     8
  9
$HANDSEED
  5
4B7
  9
$SURFTAB1
 70
     6
  9
$SURFTAB2
 70
     6
  9
$SURFTYPE
 70
     6
  9
$SURFU
 70
     6
  9
$SURFV
 70
     6
  9
$UCSBASE
  2

  9
$UCSNAME
  2

  9
$UCSORG
 10
0.0
 20
0.0
 30
0.0
  9
$UCSXDIR
 10
1.0
 20
0.0
 30
0.0
  9
$UCSYDIR
 10
0.0
 20
1.0
 30
0.0
  9
$UCSORTHOREF
  2

  9
$UCSORTHOVIEW
 70
     0
  9
$UCSORGTOP
 10
0.0
 20
0.0
 30
0.0
  9
$UCSORGBOTTOM
 10
0.0
 20
0.0
 30
0.0
  9
$UCSORGLEFT
 10
0.0
 20
0.0
 30
0.0
  9
$UCSORGRIGHT
 10
0.0
 20
0.0
 30
0.0
  9
$UCSORGFRONT
 10
0.0
 20
0.0
 30
0.0
  9
$UCSORGBACK
 10
0.0
 20
0.0
 30
0.0
  9
$PUCSBASE
  2

  9
$PUCSNAME
  2

  9
$PUCSORG
 10
0.0
 20
0.0
 30
0.0
  9
$PUCSXDIR
 10
1.0
 20
0.0
 30
0.0
  9
$PUCSYDIR
 10
0.0
 20
1.0
 30
0.0
  9
$PUCSORTHOREF
  2

  9
$PUCSORTHOVIEW
 70
     0
  9
$PUCSORGTOP
 10
0.0
 20
0.0
 30
0.0
  9
$PUCSORGBOTTOM
 10
0.0
 20
0.0
 30
0.0
  9
$PUCSORGLEFT
 10
0.0
 20
0.0
 30
0.0
  9
$PUCSORGRIGHT
 10
0.0
 20
0.0
 30
0.0
  9
$PUCSORGFRONT
 10
0.0
 20
0.0
 30
0.0
  9
$PUCSORGBACK
 10
0.0
 20
0.0
 30
0.0
  9
$USERI1
 70
     0
  9
$USERI2
 70
     0
  9
$USERI3
 70
     0
  9
$USERI4
 70
     0
  9
$USERI5
 70
     0
  9
$USERR1
 40
0.0
  9
$USERR2
 40
0.0
  9
$USERR3
 40
0.0
  9
$USERR4
 40
0.0
  9
$USERR5
 40
0.0
  9
$WORLDVIEW
 70
     1
  9
$SHADEDGE
 70
     3
  9
$SHADEDIF
 70
    70
  9
$TILEMODE
 70
     1
  9
$MAXACTVP
 70
    64
  9
$PINSBASE
 10
0.0
 20
0.0
 30
0.0
  9
$PLIMCHECK
 70
     0
  9
$PEXTMIN
 10
1.000000000000000E+20
 20
1.000000000000000E+20
 30
1.000000000000000E+20
  9
$PEXTMAX
 10
-1.000000000000000E+20
 20
-1.000000000000000E+20
 30
-1.000000000000000E+20
  9
$PLIMMIN
 10
0.0
 20
0.0
  9
$PLIMMAX
 10
420.0
 20
297.0
  9
$UNITMODE
 70
     0
  9
$VISRETAIN
 70
     1
  9
$PLINEGEN
 70
     0
  9
$PSLTSCALE
 70
     1
  9
$TREEDEPTH
 70
  3020
  9
$CMLSTYLE
  2
Standard
  9
$CMLJUST
 70
     0
  9
$CMLSCALE
 40
20.0
  9
$PROXYGRAPHICS
 70
     1
  9
$MEASUREMENT
 70
     1
  9
$CELWEIGHT
370
    -1
  9
$ENDCAPS
280
     0
  9
$JOINSTYLE
280
     0
  9
$LWDISPLAY
290
     0
  9
$INSUNITS
 70
     4
  9
$HYPERLINKBASE
  1

  9
$STYLESHEET
  1

  9
$XEDIT
290
     1
  9
$CEPSNTYPE
380
     0
  9
$PSTYLEMODE
290
     1
  9
$FINGERPRINTGUID
  2
{4E543240-EF68-4BB5-A4F0-D5531BBB0660}
  9
$VERSIONGUID
  2
{FAEB1C32-E019-11D5-929B-00C0DF256EC4}
  9
$EXTNAMES
290
     1
  9
$PSVPSCALE
 40
0.0
  9
$OLESTARTUP
290
     0
  9
$SORTENTS
280
   127
  9
$INDEXCTL
280
     0
  9
$HIDETEXT
280
     1
  9
$XCLIPFRAME
280
     2
  9
$HALOGAP
280
     0
  9
$OBSCOLOR
 70
   257
  9
$OBSLTYPE
280
     0
  9
$INTERSECTIONDISPLAY
280
     0
  9
$INTERSECTIONCOLOR
 70
   257
  9
$DIMASSOC
280
     2
  9
$PROJECTNAME
  1

  9
$CAMERADISPLAY
290
     0
  9
$LENSLENGTH
 40
50.0
  9
$CAMERAHEIGHT
 40
0.0
  9
$STEPSPERSEC
 40
2.0
  9
$STEPSIZE
 40
6.0
  9
$3DDWFPREC
 40
2.0
  9
$PSOLWIDTH
 40
5.0
  9
$PSOLHEIGHT
 40
80.0
  9
$LOFTANG1
 40
1.570796326794897
  9
$LOFTANG2
 40
1.570796326794897
  9
$LOFTMAG1
 40
0.0
  9
$LOFTMAG2
 40
0.0
  9
$LOFTPARAM
 70
     7
  9
$LOFTNORMALS
280
     1
  9
$LATITUDE
 40
37.795
  9
$LONGITUDE
 40
-122.394
  9
$NORTHDIRECTION
 40
0.0
  9
$TIMEZONE
 70
 -8000
  9
$LIGHTGLYPHDISPLAY
280
     1
  9
$TILEMODELIGHTSYNCH
280
     1
  9
$CMATERIAL
347
44
  9
$SOLIDHIST
280
     0
  9
$SHOWHIST
280
     1
  9
$DWFFRAME
280
     2
  9
$DGNFRAME
280
     2
  9
$REALWORLDSCALE
290
     1
  9
$INTERFERECOLOR
 62
   256
  9
$CSHADOW
280
     0
  9
$SHADOWPLANELOCATION
 40
0.0
  0
ENDSEC
  0
SECTION
  2
CLASSES
  0
CLASS
  1
ACDBDICTIONARYWDFLT
  2
AcDbDictionaryWithDefault
  3
ObjectDBX Classes
 90
        0
 91
        4
280
     0
281
     0
  0
CLASS
  1
VISUALSTYLE
  2
AcDbVisualStyle
  3
ObjectDBX Classes
 90
     4095
 91
        4
280
     0
281
     0
  0
CLASS
  1
MATERIAL
  2
AcDbMaterial
  3
ObjectDBX Classes
 90
     1153
 91
        4
280
     0
281
     0
  0
CLASS
  1
SCALE
  2
AcDbScale
  3
ObjectDBX Classes
 90
     1153
 91
        4
280
     0
281
     0
  0
CLASS
  1
TABLESTYLE
  2
AcDbTableStyle
  3
ObjectDBX Classes
 90
     4095
 91
        4
280
     0
281
     0
  0
CLASS
  1
MLEADERSTYLE
  2
AcDbMLeaderStyle
  3
ACDB_MLEADERSTYLE_CLASS
 90
     4095
 91
        4
280
     0
281
     0
  0
CLASS
  1
SUN
  2
AcDbSun
  3
SCENEOE
 90
     1153
 91
        4
280
     0
281
     0
  0
CLASS
  1
DICTIONARYVAR
  2
AcDbDictionaryVar
  3
ObjectDBX Classes
 90
        0
 91
        4
280
     0
281
     0
  0
CLASS
  1
CELLSTYLEMAP
  2
AcDbCellStyleMap
  3
ObjectDBX Classes
 90
     1152
 91
        4
280
     0
281
     0
  0
ENDSEC
  0
SECTION
  2
TABLES
  0
TABLE
  2
VPORT
  5
8
330
0
100
AcDbSymbolTable
 70
     1
  0
VPORT
  5
29
330
8
100
AcDbSymbolTableRecord
100
AcDbViewportTableRecord
  2
*Active
 70
     0
 10
0.0
 20
0.0
 11
1.0
 21
1.0
 12
344.1869158878504
 22
148.5
 13
0.0
 23
0.0
 14
10.0
 24
10.0
 15
10.0
 25
10.0
 16
0.0
 26
0.0
 36
1.0
 17
0.0
 27
0.0
 37
0.0
 40
297.0
 41
1.972972972850329
 42
50.0
 43
0.0
 44
0.0
 50
0.0
 51
0.0
 71
     0
 72
   100
 73
     1
 74
     3
 75
     0
 76
     0
 77
     0
 78
     0
281
     0
 65
     1
110
0.0
120
0.0
130
0.0
111
1.0
121
0.0
131
0.0
112
0.0
122
1.0
132
0.0
 79
     0
146
0.0
348
2F
 60
     3
 61
     5
292
     1
282
     1
141
0.0
142
0.0
 63
   250
361
6D
  0
ENDTAB
  0
TABLE
  2
LTYPE
  5
5
330
0
100
AcDbSymbolTable
 70
    11
  0
LTYPE
  5
14
330
5
100
AcDbSymbolTableRecord
100
AcDbLinetypeTableRecord
  2
ByBlock
 70
     0
  3

 72
    65
 73
     0
 40
0.0
  0
LTYPE
  5
15
330
5
100
AcDbSymbolTableRecord
100
AcDbLinetypeTableRecord
  2
ByLayer
 70
     0
  3

 72
    65
 73
     0
 40
0.0
  0
LTYPE
  5
16
330
5
100
AcDbSymbolTableRecord
100
AcDbLinetypeTableRecord
  2
Continuous
 70
     0
  3
Solid line
 72
    65
 73
     0
 40
0.0
  0
LTYPE
  5
78
330
5
100
AcDbSymbolTableRecord
100
AcDbLinetypeTableRecord
  2
BORDER
 70
     0
  3
__ __ . __ __ . __ 
 72
    65
 73
     6
 40
0.875
 49
0.25
 74
     0
 49
-0.125
 74
     0
 49
0.25
 74
     0
 49
-0.125
 74
     0
 49
0.0
 74
     0
 49
-0.125
 74
     0
  0
LTYPE
  5
79
330
5
100
AcDbSymbolTableRecord
100
AcDbLinetypeTableRecord
  2
CENTER
 70
     0
  3
___ _ ___ _ ___ _ _
 72
    65
 73
     4
 40
1.125
 49
0.75
 74
     0
 49
-0.125
 74
     0
 49
0.125
 74
     0
 49
-0.125
 74
     0
  0
LTYPE
  5
7A
330
5
100
AcDbSymbolTableRecord
100
AcDbLinetypeTableRecord
  2
DASHDOT
 70
     0
  3
_._._._._._._._._._
 72
    65
 73
     4
 40
0.5
 49
0.25
 74
     0
 49
-0.125
 74
     0
 49
0.0
 74
     0
 49
-0.125
 74
     0
  0
LTYPE
  5
7B
330
5
100
AcDbSymbolTableRecord
100
AcDbLinetypeTableRecord
  2
DASHED
 70
     0
  3
_ _ _ _ _ _ _ _ _ _
 72
    65
 73
     2
 40
0.375
 49
0.25
 74
     0
 49
-0.125
 74
     0
  0
LTYPE
  5
7C
330
5
100
AcDbSymbolTableRecord
100
AcDbLinetypeTableRecord
  2
DIVIDE
 70
     0
  3
__..__..__..__..__.
 72
    65
 73
     6
 40
0.625
 49
0.25
 74
     0
 49
-0.125
 74
     0
 49
0.0
 74
     0
 49
-0.125
 74
     0
 49
0.0
 74
     0
 49
-0.125
 74
     0
  0
LTYPE
  5
7D
330
5
100
AcDbSymbolTableRecord
100
AcDbLinetypeTableRecord
  2
DOT
 70
     0
  3
...................
 72
    65
 73
     2
 40
0.125
 49
0.0
 74
     0
 49
-0.125
 74
     0
  0
LTYPE
  5
7E
330
5
100
AcDbSymbolTableRecord
100
AcDbLinetypeTableRecord
  2
HIDDEN
 70
     0
  3
__ __ __ __ __ __ _
 72
    65
 73
     2
 40
0.1875
 49
0.125
 74
     0
 49
-0.0625
 74
     0
  0
LTYPE
  5
7F
330
5
100
AcDbSymbolTableRecord
100
AcDbLinetypeTableRecord
  2
PHANTOM
 70
     0
  3
___ _ _ ___ _ _ ___
 72
    65
 73
     6
 40
1.25
 49
0.625
 74
     0
 49
-0.125
 74
     0
 49
0.125
 74
     0
 49
-0.125
 74
     0
 49
0.125
 74
     0
 49
-0.125
 74
     0
  0
LTYPE
  5
80
330
5
100
AcDbSymbolTableRecord
100
AcDbLinetypeTableRecord
  2
CUTTING
 70
     0
  3
________ _ _ ______
 72
    65
 73
     6
 40
1.4675
 49
1.0
 74
     0
 49
-0.0725
 74
     0
 49
0.125
 74
     0
 49
-0.0725
 74
     0
 49
0.125
 74
     0
 49
-0.0725
 74
     0
  0
LTYPE
  5
81
330
5
100
AcDbSymbolTableRecord
100
AcDbLinetypeTableRecord
  2
STITCH
 70
     0
  3
_ _ _ _ _ _ _ _ _ _
 72
    65
 73
     2
 40
0.145
 49
0.0725
 74
     0
 49
-0.0725
 74
     0
  0
ENDTAB
  0
TABLE
  2
LAYER
  5
2
330
0
100
AcDbSymbolTable
 70
    11
  0
LAYER
  5
10
330
2
100
AcDbSymbolTableRecord
100
AcDbLayerTableRecord
  2
0
 70
     0
 62
     7
  6
Continuous
370
    -3
390
F
347
46
348
0
  0
LAYER
  5
6F
330
2
100
AcDbSymbolTableRecord
100
AcDbLayerTableRecord
  2
Layer1
 70
     0
 62
    -7
420
 16777215
  6
Continuous
370
    -3
390
F
347
46
348
0
  0
LAYER
  5
70
330
2
100
AcDbSymbolTableRecord
100
AcDbLayerTableRecord
  2
4410_onderbak
 70
     0
 62
    -7
420
 16777215
  6
Continuous
370
    -3
390
F
347
46
348
0
  0
LAYER
  5
71
330
2
100
AcDbSymbolTableRecord
100
AcDbLayerTableRecord
  2
4410_onderbak_Construction
 70
     0
 62
    -7
420
 16777215
  6
Continuous
370
    -3
390
F
347
46
348
0
  0
LAYER
  5
72
330
2
100
AcDbSymbolTableRecord
100
AcDbLayerTableRecord
  2
4410_manchet0
 70
     0
 62
    -7
420
 16777215
  6
Continuous
370
    -3
390
F
347
46
348
0
  0
LAYER
  5
73
330
2
100
AcDbSymbolTableRecord
100
AcDbLayerTableRecord
  2
4410_manchet0_Layer1
 70
     0
 62
    -7
420
 16777215
  6
Continuous
370
    -3
390
F
347
46
348
0
  0
LAYER
  5
74
330
2
100
AcDbSymbolTableRecord
100
AcDbLayerTableRecord
  2
Sheet_View_1
 70
     0
 62
     7
420
 16777215
  6
Continuous
370
    -3
390
F
347
46
348
0
  0
LAYER
  5
75
330
2
100
AcDbSymbolTableRecord
100
AcDbLayerTableRecord
  2
Sheet_View_1_Title_Block_1
 70
     0
 62
     7
420
 16777215
  6
Continuous
370
    -3
390
F
347
46
348
0
  0
LAYER
  5
76
330
2
100
AcDbSymbolTableRecord
100
AcDbLayerTableRecord
  2
Sheet_View_1_Dimension_1
 70
     0
 62
     7
420
 16777215
  6
Continuous
370
    -3
390
F
347
46
348
0
  0
LAYER
  5
77
330
2
100
AcDbSymbolTableRecord
100
AcDbLayerTableRecord
  2
Sheet_View_1_Drawing_1
 70
     0
 62
     7
420
 16777215
  6
Continuous
370
    -3
390
F
347
46
348
0
  0
LAYER
  5
1D0
330
2
100
AcDbSymbolTableRecord
100
AcDbLayerTableRecord
  2
Defpoints
 70
     0
 62
     7
  6
Continuous
290
     0
370
    -3
390
F
347
46
348
0
  0
ENDTAB
  0
TABLE
  2
STYLE
  5
3
330
0
100
AcDbSymbolTable
 70
    50
  0
STYLE
  5
11
330
3
100
AcDbSymbolTableRecord
100
AcDbTextStyleTableRecord
  2
Standard
 70
     0
 40
0.0
 41
1.0
 50
0.0
 71
     0
 42
2.5
  3
txt
  4

  0
STYLE
  5
92
330
3
100
AcDbSymbolTableRecord
100
AcDbTextStyleTableRecord
  2
text347741
 70
     0
 40
0.2
 41
1.0
 50
0.0
 71
     0
 42
2.5
  3
arialbd.ttf
  4

1001
ACAD
1000
Arial
1071
 33554432
  0
STYLE
  5
94
330
3
100
AcDbSymbolTableRecord
100
AcDbTextStyleTableRecord
  2
text347744
 70
     0
 40
0.2
 41
1.0
 50
0.0
 71
     0
 42
2.5
  3

  4

1001
ACAD
1000
Arial
1071
 33554432
  0
STYLE
  5
96
330
3
100
AcDbSymbolTableRecord
100
AcDbTextStyleTableRecord
  2
text347747
 70
     0
 40
0.2
 41
1.0
 50
0.0
 71
     0
 42
2.5
  3

  4

1001
ACAD
1000
Arial
1071
 33554432
  0
STYLE
  5
98
330
3
100
AcDbSymbolTableRecord
100
AcDbTextStyleTableRecord
  2
text347750
 70
     0
 40
0.2
 41
1.0
 50
0.0
 71
     0
 42
2.5
  3

  4

1001
ACAD
1000
Arial
1071
 33554432
  0
STYLE
  5
9A
330
3
100
AcDbSymbolTableRecord
100
AcDbTextStyleTableRecord
  2
text347753
 70
     0
 40
0.2
 41
1.0
 50
0.0
 71
     0
 42
2.5
  3

  4

1001
ACAD
1000
Arial
1071
 33554432
  0
STYLE
  5
9C
330
3
100
AcDbSymbolTableRecord
100
AcDbTextStyleTableRecord
  2
text347756
 70
     0
 40
0.2
 41
1.0
 50
0.0
 71
     0
 42
2.5
  3

  4

1001
ACAD
1000
Arial
1071
 33554432
  0
STYLE
  5
9E
330
3
100
AcDbSymbolTableRecord
100
AcDbTextStyleTableRecord
  2
text347759
 70
     0
 40
0.2
 41
1.0
 50
0.0
 71
     0
 42
2.5
  3

  4

1001
ACAD
1000
Arial
1071
 33554432
  0
STYLE
  5
A0
330
3
100
AcDbSymbolTableRecord
100
AcDbTextStyleTableRecord
  2
text347762
 70
     0
 40
0.2
 41
1.0
 50
0.0
 71
     0
 42
2.5
  3

  4

1001
ACAD
1000
Arial
1071
 33554432
  0
STYLE
  5
A2
330
3
100
AcDbSymbolTableRecord
100
AcDbTextStyleTableRecord
  2
text347765
 70
     0
 40
0.2
 41
1.0
 50
0.0
 71
     0
 42
2.5
  3

  4

1001
ACAD
1000
Arial
1071
 33554432
  0
STYLE
  5
A4
330
3
100
AcDbSymbolTableRecord
100
AcDbTextStyleTableRecord
  2
text347768
 70
     0
 40
0.2
 41
1.0
 50
0.0
 71
     0
 42
2.5
  3

  4

1001
ACAD
1000
Arial
1071
 33554432
  0
STYLE
  5
1B9
330
3
100
AcDbSymbolTableRecord
100
AcDbTextStyleTableRecord
  2
text348753
 70
     0
 40
0.2
 41
1.0
 50
0.0
 71
     0
 42
2.5
  3
arial.ttf
  4

1001
ACAD
1000
Arial
1071
        0
  0
STYLE
  5
1BB
330
3
100
AcDbSymbolTableRecord
100
AcDbTextStyleTableRecord
  2
text348755
 70
     0
 40
0.2
 41
1.0
 50
0.0
 71
     0
 42
2.5
  3

  4

1001
ACAD
1000
Arial
1071
        0
  0
STYLE
  5
1ED
330
3
100
AcDbSymbolTableRecord
100
AcDbTextStyleTableRecord
  2
text348806
 70
     0
 40
0.2
 41
1.0
 50
0.0
 71
     0
 42
2.5
  3

  4

1001
ACAD
1000
Arial
1071
 33554432
  0
STYLE
  5
1F3
330
3
100
AcDbSymbolTableRecord
100
AcDbTextStyleTableRecord
  2
text348817
 70
     0
 40
0.2
 41
1.0
 50
0.0
 71
     0
 42
2.5
  3

  4

1001
ACAD
1000
Arial
1071
 33554432
  0
STYLE
  5
1F5
330
3
100
AcDbSymbolTableRecord
100
AcDbTextStyleTableRecord
  2
text348820
 70
     0
 40
0.2
 41
1.0
 50
0.0
 71
     0
 42
2.5
  3

  4

1001
ACAD
1000
Arial
1071
 33554432
  0
STYLE
  5
1F7
330
3
100
AcDbSymbolTableRecord
100
AcDbTextStyleTableRecord
  2
text348823
 70
     0
 40
0.2
 41
1.0
 50
0.0
 71
     0
 42
2.5
  3

  4

1001
ACAD
1000
Arial
1071
 33554432
  0
STYLE
  5
1F9
330
3
100
AcDbSymbolTableRecord
100
AcDbTextStyleTableRecord
  2
text348826
 70
     0
 40
0.2
 41
1.0
 50
0.0
 71
     0
 42
2.5
  3

  4

1001
ACAD
1000
Arial
1071
 33554432
  0
STYLE
  5
1FB
330
3
100
AcDbSymbolTableRecord
100
AcDbTextStyleTableRecord
  2
text348829
 70
     0
 40
0.2
 41
1.0
 50
0.0
 71
     0
 42
2.5
  3

  4

1001
ACAD
1000
Arial
1071
 33554432
  0
STYLE
  5
1FD
330
3
100
AcDbSymbolTableRecord
100
AcDbTextStyleTableRecord
  2
text348832
 70
     0
 40
0.2
 41
1.0
 50
0.0
 71
     0
 42
2.5
  3

  4

1001
ACAD
1000
Arial
1071
 33554432
  0
STYLE
  5
1FF
330
3
100
AcDbSymbolTableRecord
100
AcDbTextStyleTableRecord
  2
text348835
 70
     0
 40
0.2
 41
1.0
 50
0.0
 71
     0
 42
2.5
  3

  4

1001
ACAD
1000
Arial
1071
 33554432
  0
STYLE
  5
201
330
3
100
AcDbSymbolTableRecord
100
AcDbTextStyleTableRecord
  2
text348838
 70
     0
 40
0.2
 41
1.0
 50
0.0
 71
     0
 42
2.5
  3

  4

1001
ACAD
1000
Arial
1071
 33554432
  0
STYLE
  5
203
330
3
100
AcDbSymbolTableRecord
100
AcDbTextStyleTableRecord
  2
text348841
 70
     0
 40
0.2
 41
1.0
 50
0.0
 71
     0
 42
2.5
  3

  4

1001
ACAD
1000
Arial
1071
 33554432
  0
STYLE
  5
205
330
3
100
AcDbSymbolTableRecord
100
AcDbTextStyleTableRecord
  2
text348844
 70
     0
 40
0.2
 41
1.0
 50
0.0
 71
     0
 42
2.5
  3

  4

1001
ACAD
1000
Arial
1071
 33554432
  0
STYLE
  5
207
330
3
100
AcDbSymbolTableRecord
100
AcDbTextStyleTableRecord
  2
text348847
 70
     0
 40
0.2
 41
1.0
 50
0.0
 71
     0
 42
2.5
  3

  4

1001
ACAD
1000
Arial
1071
 33554432
  0
STYLE
  5
209
330
3
100
AcDbSymbolTableRecord
100
AcDbTextStyleTableRecord
  2
text348850
 70
     0
 40
0.2
 41
1.0
 50
0.0
 71
     0
 42
2.5
  3

  4

1001
ACAD
1000
Arial
1071
 33554432
  0
STYLE
  5
20B
330
3
100
AcDbSymbolTableRecord
100
AcDbTextStyleTableRecord
  2
text348853
 70
     0
 40
0.2
 41
1.0
 50
0.0
 71
     0
 42
2.5
  3

  4

1001
ACAD
1000
Arial
1071
        0
  0
STYLE
  5
215
330
3
100
AcDbSymbolTableRecord
100
AcDbTextStyleTableRecord
  2
text348872
 70
     0
 40
0.2
 41
1.0
 50
0.0
 71
     0
 42
2.5
  3

  4

1001
ACAD
1000
Arial
1071
 33554432
  0
STYLE
  5
217
330
3
100
AcDbSymbolTableRecord
100
AcDbTextStyleTableRecord
  2
text348875
 70
     0
 40
0.2
 41
1.0
 50
0.0
 71
     0
 42
2.5
  3

  4

1001
ACAD
1000
Arial
1071
 33554432
  0
STYLE
  5
219
330
3
100
AcDbSymbolTableRecord
100
AcDbTextStyleTableRecord
  2
text348878
 70
     0
 40
0.2
 41
1.0
 50
0.0
 71
     0
 42
2.5
  3

  4

1001
ACAD
1000
Arial
1071
 33554432
  0
STYLE
  5
21B
330
3
100
AcDbSymbolTableRecord
100
AcDbTextStyleTableRecord
  2
text348881
 70
     0
 40
0.2
 41
1.0
 50
0.0
 71
     0
 42
2.5
  3

  4

1001
ACAD
1000
Arial
1071
 33554432
  0
STYLE
  5
21D
330
3
100
AcDbSymbolTableRecord
100
AcDbTextStyleTableRecord
  2
text348884
 70
     0
 40
0.2
 41
1.0
 50
0.0
 71
     0
 42
2.5
  3

  4

1001
ACAD
1000
Arial
1071
 33554432
  0
STYLE
  5
21F
330
3
100
AcDbSymbolTableRecord
100
AcDbTextStyleTableRecord
  2
text348887
 70
     0
 40
0.2
 41
1.0
 50
0.0
 71
     0
 42
2.5
  3

  4

1001
ACAD
1000
Arial
1071
 33554432
  0
STYLE
  5
221
330
3
100
AcDbSymbolTableRecord
100
AcDbTextStyleTableRecord
  2
text348890
 70
     0
 40
0.2
 41
1.0
 50
0.0
 71
     0
 42
2.5
  3

  4

1001
ACAD
1000
Arial
1071
 33554432
  0
STYLE
  5
223
330
3
100
AcDbSymbolTableRecord
100
AcDbTextStyleTableRecord
  2
text348893
 70
     0
 40
0.2
 41
1.0
 50
0.0
 71
     0
 42
2.5
  3

  4

1001
ACAD
1000
Arial
1071
 33554432
  0
STYLE
  5
225
330
3
100
AcDbSymbolTableRecord
100
AcDbTextStyleTableRecord
  2
text348896
 70
     0
 40
0.2
 41
1.0
 50
0.0
 71
     0
 42
2.5
  3

  4

1001
ACAD
1000
Arial
1071
        0
  0
STYLE
  5
227
330
3
100
AcDbSymbolTableRecord
100
AcDbTextStyleTableRecord
  2
text348899
 70
     0
 40
0.2
 41
1.0
 50
0.0
 71
     0
 42
2.5
  3

  4

1001
ACAD
1000
Arial
1071
 33554432
  0
STYLE
  5
229
330
3
100
AcDbSymbolTableRecord
100
AcDbTextStyleTableRecord
  2
text348902
 70
     0
 40
0.2
 41
1.0
 50
0.0
 71
     0
 42
2.5
  3

  4

1001
ACAD
1000
Arial
1071
 33554432
  0
STYLE
  5
22B
330
3
100
AcDbSymbolTableRecord
100
AcDbTextStyleTableRecord
  2
text348905
 70
     0
 40
0.2
 41
1.0
 50
0.0
 71
     0
 42
2.5
  3

  4

1001
ACAD
1000
Arial
1071
        0
  0
STYLE
  5
22D
330
3
100
AcDbSymbolTableRecord
100
AcDbTextStyleTableRecord
  2
text348908
 70
     0
 40
0.2
 41
1.0
 50
0.0
 71
     0
 42
2.5
  3

  4

1001
ACAD
1000
Arial
1071
 33554432
  0
STYLE
  5
22F
330
3
100
AcDbSymbolTableRecord
100
AcDbTextStyleTableRecord
  2
text348911
 70
     0
 40
0.2
 41
1.0
 50
0.0
 71
     0
 42
2.5
  3

  4

1001
ACAD
1000
Arial
1071
        0
  0
STYLE
  5
231
330
3
100
AcDbSymbolTableRecord
100
AcDbTextStyleTableRecord
  2
text348914
 70
     0
 40
0.2
 41
1.0
 50
0.0
 71
     0
 42
2.5
  3

  4

1001
ACAD
1000
Arial
1071
        0
  0
STYLE
  5
235
330
3
100
AcDbSymbolTableRecord
100
AcDbTextStyleTableRecord
  2
text348921
 70
     0
 40
0.2
 41
1.0
 50
0.0
 71
     0
 42
2.5
  3

  4

1001
ACAD
1000
Arial
1071
        0
  0
STYLE
  5
237
330
3
100
AcDbSymbolTableRecord
100
AcDbTextStyleTableRecord
  2
text348924
 70
     0
 40
0.2
 41
1.0
 50
0.0
 71
     0
 42
2.5
  3

  4

1001
ACAD
1000
Arial
1071
        0
  0
STYLE
  5
239
330
3
100
AcDbSymbolTableRecord
100
AcDbTextStyleTableRecord
  2
text348927
 70
     0
 40
0.2
 41
1.0
 50
0.0
 71
     0
 42
2.5
  3

  4

1001
ACAD
1000
Arial
1071
        0
  0
STYLE
  5
23B
330
3
100
AcDbSymbolTableRecord
100
AcDbTextStyleTableRecord
  2
text348930
 70
     0
 40
0.2
 41
1.0
 50
0.0
 71
     0
 42
2.5
  3

  4

1001
ACAD
1000
Arial
1071
        0
  0
STYLE
  5
23D
330
3
100
AcDbSymbolTableRecord
100
AcDbTextStyleTableRecord
  2
text348933
 70
     0
 40
0.2
 41
1.0
 50
0.0
 71
     0
 42
2.5
  3

  4

1001
ACAD
1000
Arial
1071
        0
  0
STYLE
  5
23F
330
3
100
AcDbSymbolTableRecord
100
AcDbTextStyleTableRecord
  2
text348938
 70
     0
 40
0.2
 41
1.0
 50
0.0
 71
     0
 42
2.5
  3

  4

1001
ACAD
1000
Arial
1071
 33554432
  0
STYLE
  5
241
330
3
100
AcDbSymbolTableRecord
100
AcDbTextStyleTableRecord
  2
text348941
 70
     0
 40
0.2
 41
1.0
 50
0.0
 71
     0
 42
2.5
  3

  4

1001
ACAD
1000
Arial
1071
        0
  0
STYLE
  5
243
330
3
100
AcDbSymbolTableRecord
100
AcDbTextStyleTableRecord
  2
text349744
 70
     0
 40
0.2
 41
1.0
 50
0.0
 71
     0
 42
2.5
  3

  4

1001
ACAD
1000
Arial
1071
 33554432
  0
ENDTAB
  0
TABLE
  2
VIEW
  5
6
330
0
100
AcDbSymbolTable
 70
     0
  0
ENDTAB
  0
TABLE
  2
UCS
  5
7
330
0
100
AcDbSymbolTable
 70
     0
  0
ENDTAB
  0
TABLE
  2
APPID
  5
9
330
0
100
AcDbSymbolTable
 70
     2
  0
APPID
  5
12
330
9
100
AcDbSymbolTableRecord
100
AcDbRegAppTableRecord
  2
ACAD
 70
     0
  0
APPID
  5
6E
330
9
100
AcDbSymbolTableRecord
100
AcDbRegAppTableRecord
  2
Encore Software ViaCAD
 70
     0
  0
ENDTAB
  0
TABLE
  2
DIMSTYLE
  5
A
330
0
100
AcDbSymbolTable
 70
    10
100
AcDbDimStyleTable
  0
DIMSTYLE
105
27
330
A
100
AcDbSymbolTableRecord
100
AcDbDimStyleTableRecord
  2
ISO-25
 70
     0
 41
2.5
 42
0.625
 43
3.75
 44
1.25
 73
     0
 74
     0
 77
     1
 78
     8
140
2.5
141
2.5
143
0.03937007874016
147
0.625
171
     3
172
     1
178
     0
271
     2
272
     2
274
     3
278
    44
283
     0
284
     8
340
11
  0
DIMSTYLE
105
1CE
102
{ACAD_REACTORS
330
1CF
102
}
330
A
100
AcDbSymbolTableRecord
100
AcDbDimStyleTableRecord
  2
RotatedDim27
 70
     0
 41
2.837078299470983
 42
0.9093199677791612
 43
3.75
 44
2.273299919447903
 73
     0
 74
     0
 78
     8
140
2.525888919830322
141
2.5
143
0.03937007874016
147
0.625
171
     3
172
     1
178
     0
271
     0
272
     1
274
     3
278
    44
283
     0
340
11
  0
DIMSTYLE
105
432
102
{ACAD_REACTORS
330
433
102
}
330
A
100
AcDbSymbolTableRecord
100
AcDbDimStyleTableRecord
  2
RotatedDim28
 70
     0
 41
2.837078299470983
 42
0.9093199677791612
 43
3.75
 44
2.273299919447903
 73
     0
 74
     0
 78
     8
140
2.525888919830322
141
2.5
143
0.03937007874016
147
0.625
171
     3
172
     1
178
     0
271
     0
272
     1
274
     3
278
    44
283
     0
340
11
  0
DIMSTYLE
105
441
102
{ACAD_REACTORS
330
442
102
}
330
A
100
AcDbSymbolTableRecord
100
AcDbDimStyleTableRecord
  2
RotatedDim29
 70
     0
 41
2.837078299470983
 42
0.9093199677791612
 43
3.75
 44
2.273299919447903
 73
     0
 74
     0
 78
     8
140
2.525888919830322
141
2.5
143
0.03937007874016
147
0.625
171
     3
172
     1
178
     0
271
     0
272
     1
274
     3
278
    44
283
     0
340
11
  0
DIMSTYLE
105
452
102
{ACAD_REACTORS
330
453
102
}
330
A
100
AcDbSymbolTableRecord
100
AcDbDimStyleTableRecord
  2
RotatedDim30
 70
     0
 41
2.837078299470983
 42
0.9093199677791612
 43
3.75
 44
2.273299919447903
 73
     0
 74
     0
 78
     8
140
2.525888919830322
141
2.5
143
0.03937007874016
147
0.625
171
     3
172
     1
178
     0
271
     0
272
     1
274
     3
278
    44
283
     0
340
11
  0
DIMSTYLE
105
461
102
{ACAD_REACTORS
330
462
102
}
330
A
100
AcDbSymbolTableRecord
100
AcDbDimStyleTableRecord
  2
RotatedDim31
 70
     0
 41
2.837078299470983
 42
0.9093199677791612
 43
3.75
 44
2.273299919447903
 73
     0
 74
     0
 78
     8
140
2.525888919830322
141
2.5
143
0.03937007874016
147
0.625
171
     3
172
     1
178
     0
271
     1
272
     1
274
     3
278
    44
283
     0
340
11
  0
DIMSTYLE
105
470
102
{ACAD_REACTORS
330
471
102
}
330
A
100
AcDbSymbolTableRecord
100
AcDbDimStyleTableRecord
  2
RotatedDim32
 70
     0
 41
2.837078299470983
 42
0.9093199677791612
 43
3.75
 44
2.273299919447903
 73
     0
 74
     0
 78
     8
140
2.525888919830322
141
2.5
143
0.03937007874016
147
0.625
171
     3
172
     1
178
     0
271
     1
272
     1
274
     3
278
    44
283
     0
340
11
  0
DIMSTYLE
105
47F
102
{ACAD_REACTORS
330
480
102
}
330
A
100
AcDbSymbolTableRecord
100
AcDbDimStyleTableRecord
  2
RotatedDim33
 70
     0
 41
2.837078299470983
 42
0.9093199677791612
 43
3.75
 44
2.273299919447903
 73
     0
 74
     0
 78
     8
140
2.525888919830322
141
2.5
143
0.03937007874016
147
0.625
171
     3
172
     1
178
     0
271
     0
272
     1
274
     3
278
    44
283
     0
340
11
  0
DIMSTYLE
105
48E
102
{ACAD_REACTORS
330
48F
102
}
330
A
100
AcDbSymbolTableRecord
100
AcDbDimStyleTableRecord
  2
RotatedDim34
 70
     0
 41
2.837078299470983
 42
0.9093199677791612
 43
3.75
 44
2.273299919447903
 73
     0
 74
     0
 78
     8
140
2.525888919830322
141
2.5
143
0.03937007874016
147
0.625
171
     3
172
     1
178
     0
271
     1
272
     1
274
     3
278
    44
283
     0
340
11
  0
DIMSTYLE
105
49D
102
{ACAD_REACTORS
330
49E
102
}
330
A
100
AcDbSymbolTableRecord
100
AcDbDimStyleTableRecord
  2
RotatedDim35
 70
     0
 41
2.837078299470983
 42
0.9093199677791612
 43
3.75
 44
2.273299919447903
 73
     0
 74
     0
 78
     8
140
2.525888919830322
141
2.5
143
0.03937007874016
147
0.625
171
     3
172
     1
178
     0
271
     1
272
     1
274
     3
278
    44
283
     0
340
11
  0
ENDTAB
  0
TABLE
  2
BLOCK_RECORD
  5
1
330
0
100
AcDbSymbolTable
 70
    10
  0
BLOCK_RECORD
  5
1F
330
1
100
AcDbSymbolTableRecord
100
AcDbBlockTableRecord
  2
*Model_Space
340
22
 70
     0
280
     1
281
     0
  0
BLOCK_RECORD
  5
1B
330
1
100
AcDbSymbolTableRecord
100
AcDbBlockTableRecord
  2
*Paper_Space
340
1E
 70
     0
280
     1
281
     0
  0
BLOCK_RECORD
  5
23
330
1
100
AcDbSymbolTableRecord
100
AcDbBlockTableRecord
  2
*Paper_Space0
340
26
 70
     0
280
     1
281
     0
  0
BLOCK_RECORD
  5
1D1
330
1
100
AcDbSymbolTableRecord
100
AcDbBlockTableRecord
  2
*D1
340
0
 70
     0
280
     1
281
     0
  0
BLOCK_RECORD
  5
434
330
1
100
AcDbSymbolTableRecord
100
AcDbBlockTableRecord
  2
*D2
340
0
 70
     0
280
     1
281
     0
  0
BLOCK_RECORD
  5
443
330
1
100
AcDbSymbolTableRecord
100
AcDbBlockTableRecord
  2
*D3
340
0
 70
     0
280
     1
281
     0
  0
BLOCK_RECORD
  5
454
330
1
100
AcDbSymbolTableRecord
100
AcDbBlockTableRecord
  2
*D4
340
0
 70
     0
280
     1
281
     0
  0
BLOCK_RECORD
  5
463
330
1
100
AcDbSymbolTableRecord
100
AcDbBlockTableRecord
  2
*D5
340
0
 70
     0
280
     1
281
     0
  0
BLOCK_RECORD
  5
472
330
1
100
AcDbSymbolTableRecord
100
AcDbBlockTableRecord
  2
*D6
340
0
 70
     0
280
     1
281
     0
  0
BLOCK_RECORD
  5
481
330
1
100
AcDbSymbolTableRecord
100
AcDbBlockTableRecord
  2
*D7
340
0
 70
     0
280
     1
281
     0
  0
BLOCK_RECORD
  5
490
330
1
100
AcDbSymbolTableRecord
100
AcDbBlockTableRecord
  2
*D8
340
0
 70
     0
280
     1
281
     0
  0
BLOCK_RECORD
  5
49F
330
1
100
AcDbSymbolTableRecord
100
AcDbBlockTableRecord
  2
*D9
340
0
 70
     0
280
     1
281
     0
  0
ENDTAB
  0
ENDSEC
  0
SECTION
  2
BLOCKS
  0
BLOCK
  5
20
330
1F
100
AcDbEntity
  8
0
100
AcDbBlockBegin
  2
*Model_Space
 70
     0
 10
0.0
 20
0.0
 30
0.0
  3
*Model_Space
  1

  0
ENDBLK
  5
21
330
1F
100
AcDbEntity
  8
0
100
AcDbBlockEnd
  0
BLOCK
  5
1C
330
1B
100
AcDbEntity
 67
     1
  8
0
100
AcDbBlockBegin
  2
*Paper_Space
 70
     0
 10
0.0
 20
0.0
 30
0.0
  3
*Paper_Space
  1

  0
ENDBLK
  5
1D
330
1B
100
AcDbEntity
 67
     1
  8
0
100
AcDbBlockEnd
  0
BLOCK
  5
24
330
23
100
AcDbEntity
  8
0
100
AcDbBlockBegin
  2
*Paper_Space0
 70
     0
 10
0.0
 20
0.0
 30
0.0
  3
*Paper_Space0
  1

  0
ENDBLK
  5
25
330
23
100
AcDbEntity
  8
0
100
AcDbBlockEnd
  0
BLOCK
  5
1D2
330
1D1
100
AcDbEntity
  8
0
100
AcDbBlockBegin
  2
*D1
 70
     1
 10
0.0
 20
0.0
 30
0.0
  3
*D1
  1

  0
LINE
  5
1D4
330
1D1
100
AcDbEntity
  8
Sheet_View_1_Drawing_1
 62
     0
 48
12.69999980926514
370
    -2
100
AcDbLine
 10
86.86766140100688
 20
259.2858338035637
 30
0.0
 11
68.04857746033811
 21
259.2858338035637
 31
0.0
  0
LINE
  5
1D5
330
1D1
100
AcDbEntity
  8
Sheet_View_1_Drawing_1
 62
     0
 48
12.69999980926514
370
    -2
100
AcDbLine
 10
86.86766140100688
 20
209.2858338035635
 30
0.0
 11
68.04857746033811
 21
209.2858338035635
 31
0.0
  0
LINE
  5
1D6
330
1D1
100
AcDbEntity
  8
Sheet_View_1_Drawing_1
 62
     0
 48
12.69999980926514
370
    -2
100
AcDbLine
 10
70.32187737978602
 20
256.4487555040927
 30
0.0
 11
70.32187737978602
 21
237.9779846347862
 31
0.0
  0
LINE
  5
1D7
330
1D1
100
AcDbEntity
  8
Sheet_View_1_Drawing_1
 62
     0
 48
12.69999980926514
370
    -2
100
AcDbLine
 10
70.32187737978602
 20
212.1229121030345
 30
0.0
 11
70.32187737978602
 21
230.5936829723412
 31
0.0
  0
SOLID
  5
1D8
330
1D1
100
AcDbEntity
  8
Sheet_View_1_Drawing_1
 62
     0
100
AcDbTrace
 10
70.79472376303119
 20
256.4487555040927
 30
0.0
 11
69.84903099654085
 21
256.4487555040927
 31
0.0
 12
70.32187737978602
 22
259.2858338035637
 32
0.0
 13
70.32187737978602
 23
259.2858338035637
 33
0.0
  0
SOLID
  5
1D9
330
1D1
100
AcDbEntity
  8
Sheet_View_1_Drawing_1
 62
     0
100
AcDbTrace
 10
69.84903099654085
 20
212.1229121030345
 30
0.0
 11
70.79472376303119
 21
212.1229121030345
 31
0.0
 12
70.32187737978602
 22
209.2858338035635
 32
0.0
 13
70.32187737978602
 23
209.2858338035635
 33
0.0
  0
MTEXT
  5
1DA
330
1D1
100
AcDbEntity
  8
Sheet_View_1_Drawing_1
 62
     0
100
AcDbMText
 10
70.32187737978602
 20
234.2858338035637
 30
0.0
 40
2.525888919830322
 41
0.0
 46
0.0
 71
     5
 72
     1
  1
100
 11
0.0
 21
1.0
 31
0.0
 73
     1
 44
1.0
  0
POINT
  5
1DB
330
1D1
100
AcDbEntity
  8
Defpoints
 62
     0
100
AcDbPoint
 10
87.77698136878604
 20
259.2858338035637
 30
0.0
  0
POINT
  5
1DC
330
1D1
100
AcDbEntity
  8
Defpoints
 62
     0
100
AcDbPoint
 10
87.77698136878604
 20
209.2858338035635
 30
0.0
  0
POINT
  5
1DD
330
1D1
100
AcDbEntity
  8
Defpoints
 62
     0
100
AcDbPoint
 10
70.32187737978602
 20
209.2858338035635
 30
0.0
  0
ENDBLK
  5
1D3
330
1D1
100
AcDbEntity
  8
0
100
AcDbBlockEnd
  0
BLOCK
  5
435
330
434
100
AcDbEntity
  8
0
100
AcDbBlockBegin
  2
*D2
 70
     1
 10
0.0
 20
0.0
 30
0.0
  3
*D2
  1

  0
LINE
  5
437
330
434
100
AcDbEntity
  8
Sheet_View_1_Drawing_1
 62
     0
 48
12.69999980926514
370
    -2
100
AcDbLine
 10
85.15931231636168
 20
156.0394623199658
 30
0.0
 11
85.15931231636168
 21
167.4034422716346
 31
0.0
  0
LINE
  5
438
330
434
100
AcDbEntity
  8
Sheet_View_1_Drawing_1
 62
     0
 48
12.69999980926514
370
    -2
100
AcDbLine
 10
135.1593123163617
 20
156.0394623199658
 30
0.0
 11
135.1593123163617
 21
167.4034422716346
 31
0.0
  0
LINE
  5
439
330
434
100
AcDbEntity
  8
Sheet_View_1_Drawing_1
 62
     0
 48
12.69999980926514
370
    -2
100
AcDbLine
 10
87.99639061583267
 20
165.1301423521867
 30
0.0
 11
106.4671614851391
 21
165.1301423521867
 31
0.0
  0
LINE
  5
43A
330
434
100
AcDbEntity
  8
Sheet_View_1_Drawing_1
 62
     0
 48
12.69999980926514
370
    -2
100
AcDbLine
 10
132.3222340168907
 20
165.1301423521867
 30
0.0
 11
113.8514631475842
 21
165.1301423521867
 31
0.0
  0
SOLID
  5
43B
330
434
100
AcDbEntity
  8
Sheet_View_1_Drawing_1
 62
     0
100
AcDbTrace
 10
87.99639061583267
 20
165.6029887354318
 30
0.0
 11
87.99639061583267
 21
164.6572959689415
 31
0.0
 12
85.15931231636168
 22
165.1301423521867
 32
0.0
 13
85.15931231636168
 23
165.1301423521867
 33
0.0
  0
SOLID
  5
43C
330
434
100
AcDbEntity
  8
Sheet_View_1_Drawing_1
 62
     0
100
AcDbTrace
 10
132.3222340168907
 20
164.6572959689415
 30
0.0
 11
132.3222340168907
 21
165.6029887354318
 31
0.0
 12
135.1593123163617
 22
165.1301423521867
 32
0.0
 13
135.1593123163617
 23
165.1301423521867
 33
0.0
  0
MTEXT
  5
43D
330
434
100
AcDbEntity
  8
Sheet_View_1_Drawing_1
 62
     0
100
AcDbMText
 10
110.1593123163617
 20
165.1301423521867
 30
0.0
 40
2.525888919830322
 41
0.0
 46
0.0
 71
     5
 72
     1
  1
100
 73
     1
 44
1.0
  0
POINT
  5
43E
330
434
100
AcDbEntity
  8
Defpoints
 62
     0
100
AcDbPoint
 10
85.15931231636168
 20
155.1301423521867
 30
0.0
  0
POINT
  5
43F
330
434
100
AcDbEntity
  8
Defpoints
 62
     0
100
AcDbPoint
 10
135.1593123163617
 20
155.1301423521867
 30
0.0
  0
POINT
  5
440
330
434
100
AcDbEntity
  8
Defpoints
 62
     0
100
AcDbPoint
 10
135.1593123163617
 20
165.1301423521867
 30
0.0
  0
ENDBLK
  5
436
330
434
100
AcDbEntity
  8
0
100
AcDbBlockEnd
  0
BLOCK
  5
444
330
443
100
AcDbEntity
  8
0
100
AcDbBlockBegin
  2
*D3
 70
     1
 10
0.0
 20
0.0
 30
0.0
  3
*D3
  1

  0
LINE
  5
446
330
443
100
AcDbEntity
  8
Sheet_View_1_Drawing_1
 62
     0
 48
12.69999980926514
370
    -2
100
AcDbLine
 10
135.8186322841408
 20
155.3801423521867
 30
0.0
 11
144.8702110364487
 21
155.3801423521867
 31
0.0
  0
LINE
  5
447
330
443
100
AcDbEntity
  8
Sheet_View_1_Drawing_1
 62
     0
 48
12.69999980926514
370
    -2
100
AcDbLine
 10
136.0686322841408
 20
152.8801423521867
 30
0.0
 11
144.8702110364487
 21
152.8801423521867
 31
0.0
  0
LINE
  5
448
330
443
100
AcDbEntity
  8
Sheet_View_1_Drawing_1
 62
     0
 48
12.69999980926514
370
    -2
100
AcDbLine
 10
142.5969111170008
 20
155.3801423521867
 30
0.0
 11
142.5969111170008
 21
161.0542989511287
 31
0.0
  0
LINE
  5
449
330
443
100
AcDbEntity
  8
Sheet_View_1_Drawing_1
 62
     0
 48
12.69999980926514
370
    -2
100
AcDbLine
 10
142.5969111170008
 20
155.3801423521867
 30
0.0
 11
142.5969111170008
 21
152.8801423521867
 31
0.0
  0
LINE
  5
44A
330
443
100
AcDbEntity
  8
Sheet_View_1_Drawing_1
 62
     0
 48
12.69999980926514
370
    -2
100
AcDbLine
 10
142.5969111170008
 20
158.2172206516577
 30
0.0
 11
142.5969111170008
 21
161.0542989511287
 31
0.0
  0
LINE
  5
44B
330
443
100
AcDbEntity
  8
Sheet_View_1_Drawing_1
 62
     0
 48
12.69999980926514
370
    -2
100
AcDbLine
 10
142.5969111170008
 20
150.0430640527157
 30
0.0
 11
142.5969111170008
 21
147.2059857532447
 31
0.0
  0
SOLID
  5
44C
330
443
100
AcDbEntity
  8
Sheet_View_1_Drawing_1
 62
     0
100
AcDbTrace
 10
142.1240647337556
 20
158.2172206516577
 30
0.0
 11
143.0697575002459
 21
158.2172206516577
 31
0.0
 12
142.5969111170008
 22
155.3801423521867
 32
0.0
 13
142.5969111170008
 23
155.3801423521867
 33
0.0
  0
SOLID
  5
44D
330
443
100
AcDbEntity
  8
Sheet_View_1_Drawing_1
 62
     0
100
AcDbTrace
 10
143.0697575002459
 20
150.0430640527157
 30
0.0
 11
142.1240647337556
 21
150.0430640527157
 31
0.0
 12
142.5969111170008
 22
152.8801423521867
 32
0.0
 13
142.5969111170008
 23
152.8801423521867
 33
0.0
  0
MTEXT
  5
44E
330
443
100
AcDbEntity
  8
Sheet_View_1_Drawing_1
 62
     0
100
AcDbMText
 10
142.5969111170008
 20
162.5212619244054
 30
0.0
 40
2.525888919830322
 41
0.0
 46
0.0
 71
     5
 72
     1
  1
5
 11
0.0
 21
1.0
 31
0.0
 73
     1
 44
1.0
  0
POINT
  5
44F
330
443
100
AcDbEntity
  8
Defpoints
 62
     0
100
AcDbPoint
 10
134.9093123163617
 20
155.3801423521867
 30
0.0
  0
POINT
  5
450
330
443
100
AcDbEntity
  8
Defpoints
 62
     0
100
AcDbPoint
 10
135.1593123163617
 20
152.8801423521867
 30
0.0
  0
POINT
  5
451
330
443
100
AcDbEntity
  8
Defpoints
 62
     0
100
AcDbPoint
 10
142.5969111170008
 20
152.8801423521867
 30
0.0
  0
ENDBLK
  5
445
330
443
100
AcDbEntity
  8
0
100
AcDbBlockEnd
  0
BLOCK
  5
455
330
454
100
AcDbEntity
  8
0
100
AcDbBlockBegin
  2
*D4
 70
     1
 10
0.0
 20
0.0
 30
0.0
  3
*D4
  1

  0
LINE
  5
457
330
454
100
AcDbEntity
  8
Sheet_View_1_Drawing_1
 62
     0
 48
12.69999980926514
370
    -2
100
AcDbLine
 10
84.49999234858252
 20
155.3801423521867
 30
0.0
 11
75.24272123688914
 21
155.3801423521867
 31
0.0
  0
LINE
  5
458
330
454
100
AcDbEntity
  8
Sheet_View_1_Drawing_1
 62
     0
 48
12.69999980926514
370
    -2
100
AcDbLine
 10
82.24999234858252
 20
138.7852922637159
 30
0.0
 11
75.24272123688914
 21
138.7852922637159
 31
0.0
  0
LINE
  5
459
330
454
100
AcDbEntity
  8
Sheet_View_1_Drawing_1
 62
     0
 48
12.69999980926514
370
    -2
100
AcDbLine
 10
77.51602115633705
 20
152.5430640527157
 30
0.0
 11
77.51602115633705
 21
149.7524845287663
 31
0.0
  0
LINE
  5
45A
330
454
100
AcDbEntity
  8
Sheet_View_1_Drawing_1
 62
     0
 48
12.69999980926514
370
    -2
100
AcDbLine
 10
77.51602115633705
 20
141.6223705631869
 30
0.0
 11
77.51602115633705
 21
144.4129500871363
 31
0.0
  0
SOLID
  5
45B
330
454
100
AcDbEntity
  8
Sheet_View_1_Drawing_1
 62
     0
100
AcDbTrace
 10
77.98886753958222
 20
152.5430640527157
 30
0.0
 11
77.04317477309188
 21
152.5430640527157
 31
0.0
 12
77.51602115633705
 22
155.3801423521867
 32
0.0
 13
77.51602115633705
 23
155.3801423521867
 33
0.0
  0
SOLID
  5
45C
330
454
100
AcDbEntity
  8
Sheet_View_1_Drawing_1
 62
     0
100
AcDbTrace
 10
77.04317477309188
 20
141.6223705631869
 30
0.0
 11
77.98886753958222
 21
141.6223705631869
 31
0.0
 12
77.51602115633705
 22
138.7852922637159
 32
0.0
 13
77.51602115633705
 23
138.7852922637159
 33
0.0
  0
MTEXT
  5
45D
330
454
100
AcDbEntity
  8
Sheet_View_1_Drawing_1
 62
     0
100
AcDbMText
 10
77.51602115633705
 20
147.0827173079513
 30
0.0
 40
2.525888919830322
 41
0.0
 46
0.0
 71
     5
 72
     1
  1
30
 11
0.0
 21
1.0
 31
0.0
 73
     1
 44
1.0
  0
POINT
  5
45E
330
454
100
AcDbEntity
  8
Defpoints
 62
     0
100
AcDbPoint
 10
85.40931231636168
 20
155.3801423521867
 30
0.0
  0
POINT
  5
45F
330
454
100
AcDbEntity
  8
Defpoints
 62
     0
100
AcDbPoint
 10
83.15931231636168
 20
138.7852922637159
 30
0.0
  0
POINT
  5
460
330
454
100
AcDbEntity
  8
Defpoints
 62
     0
100
AcDbPoint
 10
77.51602115633705
 20
138.7852922637159
 30
0.0
  0
ENDBLK
  5
456
330
454
100
AcDbEntity
  8
0
100
AcDbBlockEnd
  0
BLOCK
  5
464
330
463
100
AcDbEntity
  8
0
100
AcDbBlockBegin
  2
*D5
 70
     1
 10
0.0
 20
0.0
 30
0.0
  3
*D5
  1

  0
LINE
  5
466
330
463
100
AcDbEntity
  8
Sheet_View_1_Drawing_1
 62
     0
 48
12.69999980926514
370
    -2
100
AcDbLine
 10
84.49999234858252
 20
155.3801423521867
 30
0.0
 11
55.1133506687402
 21
155.3801423521867
 31
0.0
  0
LINE
  5
467
330
463
100
AcDbEntity
  8
Sheet_View_1_Drawing_1
 62
     0
 48
12.69999980926514
370
    -2
100
AcDbLine
 10
87.49999234858252
 20
122.6301423521867
 30
0.0
 11
55.1133506687402
 21
122.6301423521867
 31
0.0
  0
LINE
  5
468
330
463
100
AcDbEntity
  8
Sheet_View_1_Drawing_1
 62
     0
 48
12.69999980926514
370
    -2
100
AcDbLine
 10
57.3866505881881
 20
152.5430640527157
 30
0.0
 11
57.3866505881881
 21
142.9165460559214
 31
0.0
  0
LINE
  5
469
330
463
100
AcDbEntity
  8
Sheet_View_1_Drawing_1
 62
     0
 48
12.69999980926514
370
    -2
100
AcDbLine
 10
57.3866505881881
 20
125.4672206516577
 30
0.0
 11
57.3866505881881
 21
137.6972920390452
 31
0.0
  0
SOLID
  5
46A
330
463
100
AcDbEntity
  8
Sheet_View_1_Drawing_1
 62
     0
100
AcDbTrace
 10
57.85949697143327
 20
152.5430640527157
 30
0.0
 11
56.91380420494294
 21
152.5430640527157
 31
0.0
 12
57.3866505881881
 22
155.3801423521867
 32
0.0
 13
57.3866505881881
 23
155.3801423521867
 33
0.0
  0
SOLID
  5
46B
330
463
100
AcDbEntity
  8
Sheet_View_1_Drawing_1
 62
     0
100
AcDbTrace
 10
56.91380420494294
 20
125.4672206516577
 30
0.0
 11
57.85949697143327
 21
125.4672206516577
 31
0.0
 12
57.3866505881881
 22
122.6301423521867
 32
0.0
 13
57.3866505881881
 23
122.6301423521867
 33
0.0
  0
MTEXT
  5
46C
330
463
100
AcDbEntity
  8
Sheet_View_1_Drawing_1
 62
     0
100
AcDbMText
 10
57.3866505881881
 20
140.3069190474833
 30
0.0
 40
2.525888919830322
 41
0.0
 46
0.0
 71
     5
 72
     1
  1
63
 11
0.0
 21
1.0
 31
0.0
 73
     1
 44
1.0
  0
POINT
  5
46D
330
463
100
AcDbEntity
  8
Defpoints
 62
     0
100
AcDbPoint
 10
85.40931231636168
 20
155.3801423521867
 30
0.0
  0
POINT
  5
46E
330
463
100
AcDbEntity
  8
Defpoints
 62
     0
100
AcDbPoint
 10
88.40931231636168
 20
122.6301423521867
 30
0.0
  0
POINT
  5
46F
330
463
100
AcDbEntity
  8
Defpoints
 62
     0
100
AcDbPoint
 10
57.3866505881881
 20
122.6301423521867
 30
0.0
  0
ENDBLK
  5
465
330
463
100
AcDbEntity
  8
0
100
AcDbBlockEnd
  0
BLOCK
  5
473
330
472
100
AcDbEntity
  8
0
100
AcDbBlockBegin
  2
*D6
 70
     1
 10
0.0
 20
0.0
 30
0.0
  3
*D6
  1

  0
LINE
  5
475
330
472
100
AcDbEntity
  8
Sheet_View_1_Drawing_1
 62
     0
 48
12.69999980926514
370
    -2
100
AcDbLine
 10
90.24999234858252
 20
128.4709289232806
 30
0.0
 11
65.73172495493536
 21
128.4709289232806
 31
0.0
  0
LINE
  5
476
330
472
100
AcDbEntity
  8
Sheet_View_1_Drawing_1
 62
     0
 48
12.69999980926514
370
    -2
100
AcDbLine
 10
97.99999234858252
 20
144.3801423521867
 30
0.0
 11
65.73172495493536
 21
144.3801423521867
 31
0.0
  0
LINE
  5
477
330
472
100
AcDbEntity
  8
Sheet_View_1_Drawing_1
 62
     0
 48
12.69999980926514
370
    -2
100
AcDbLine
 10
68.00502487438327
 20
131.3080072227516
 30
0.0
 11
68.00502487438327
 21
133.7557684169186
 31
0.0
  0
LINE
  5
478
330
472
100
AcDbEntity
  8
Sheet_View_1_Drawing_1
 62
     0
 48
12.69999980926514
370
    -2
100
AcDbLine
 10
68.00502487438327
 20
141.5430640527157
 30
0.0
 11
68.00502487438327
 21
139.0953028585486
 31
0.0
  0
SOLID
  5
479
330
472
100
AcDbEntity
  8
Sheet_View_1_Drawing_1
 62
     0
100
AcDbTrace
 10
67.5321784911381
 20
131.3080072227516
 30
0.0
 11
68.47787125762844
 21
131.3080072227516
 31
0.0
 12
68.00502487438327
 22
128.4709289232806
 32
0.0
 13
68.00502487438327
 23
128.4709289232806
 33
0.0
  0
SOLID
  5
47A
330
472
100
AcDbEntity
  8
Sheet_View_1_Drawing_1
 62
     0
100
AcDbTrace
 10
68.47787125762844
 20
141.5430640527157
 30
0.0
 11
67.5321784911381
 21
141.5430640527157
 31
0.0
 12
68.00502487438327
 22
144.3801423521867
 32
0.0
 13
68.00502487438327
 23
144.3801423521867
 33
0.0
  0
MTEXT
  5
47B
330
472
100
AcDbEntity
  8
Sheet_View_1_Drawing_1
 62
     0
100
AcDbMText
 10
68.00502487438327
 20
136.4255356377336
 30
0.0
 40
2.525888919830322
 41
0.0
 46
0.0
 71
     5
 72
     1
  1
37
 11
0.0
 21
1.0
 31
0.0
 73
     1
 44
1.0
  0
POINT
  5
47C
330
472
100
AcDbEntity
  8
Defpoints
 62
     0
100
AcDbPoint
 10
91.15931231636168
 20
128.4709289232806
 30
0.0
  0
POINT
  5
47D
330
472
100
AcDbEntity
  8
Defpoints
 62
     0
100
AcDbPoint
 10
98.90931231636168
 20
144.3801423521867
 30
0.0
  0
POINT
  5
47E
330
472
100
AcDbEntity
  8
Defpoints
 62
     0
100
AcDbPoint
 10
68.00502487438327
 20
144.3801423521867
 30
0.0
  0
ENDBLK
  5
474
330
472
100
AcDbEntity
  8
0
100
AcDbBlockEnd
  0
BLOCK
  5
482
330
481
100
AcDbEntity
  8
0
100
AcDbBlockBegin
  2
*D7
 70
     1
 10
0.0
 20
0.0
 30
0.0
  3
*D7
  1

  0
LINE
  5
484
330
481
100
AcDbEntity
  8
Sheet_View_1_Drawing_1
 62
     0
 48
12.69999980926514
370
    -2
100
AcDbLine
 10
97.90931231636168
 20
124.7208223844075
 30
0.0
 11
97.90931231636168
 21
112.9964537942905
 31
0.0
  0
LINE
  5
485
330
481
100
AcDbEntity
  8
Sheet_View_1_Drawing_1
 62
     0
 48
12.69999980926514
370
    -2
100
AcDbLine
 10
122.4093123163617
 20
124.7208223844075
 30
0.0
 11
122.4093123163617
 21
112.9964537942905
 31
0.0
  0
LINE
  5
486
330
481
100
AcDbEntity
  8
Sheet_View_1_Drawing_1
 62
     0
 48
12.69999980926514
370
    -2
100
AcDbLine
 10
100.7463906158327
 20
115.2697537137385
 30
0.0
 11
106.3468810603853
 21
115.2697537137385
 31
0.0
  0
LINE
  5
487
330
481
100
AcDbEntity
  8
Sheet_View_1_Drawing_1
 62
     0
 48
12.69999980926514
370
    -2
100
AcDbLine
 10
119.5722340168907
 20
115.2697537137385
 30
0.0
 11
113.971743572338
 21
115.2697537137385
 31
0.0
  0
SOLID
  5
488
330
481
100
AcDbEntity
  8
Sheet_View_1_Drawing_1
 62
     0
100
AcDbTrace
 10
100.7463906158327
 20
115.7426000969836
 30
0.0
 11
100.7463906158327
 21
114.7969073304933
 31
0.0
 12
97.90931231636168
 22
115.2697537137385
 32
0.0
 13
97.90931231636168
 23
115.2697537137385
 33
0.0
  0
SOLID
  5
489
330
481
100
AcDbEntity
  8
Sheet_View_1_Drawing_1
 62
     0
100
AcDbTrace
 10
119.5722340168907
 20
114.7969073304933
 30
0.0
 11
119.5722340168907
 21
115.7426000969836
 31
0.0
 12
122.4093123163617
 22
115.2697537137385
 32
0.0
 13
122.4093123163617
 23
115.2697537137385
 33
0.0
  0
MTEXT
  5
48A
330
481
100
AcDbEntity
  8
Sheet_View_1_Drawing_1
 62
     0
100
AcDbMText
 10
110.1593123163617
 20
115.2697537137385
 30
0.0
 40
2.525888919830322
 41
0.0
 46
0.0
 71
     5
 72
     1
  1
%%c50
 73
     1
 44
1.0
  0
POINT
  5
48B
330
481
100
AcDbEntity
  8
Defpoints
 62
     0
100
AcDbPoint
 10
97.90931231636168
 20
125.6301423521867
 30
0.0
  0
POINT
  5
48C
330
481
100
AcDbEntity
  8
Defpoints
 62
     0
100
AcDbPoint
 10
122.4093123163617
 20
125.6301423521867
 30
0.0
  0
POINT
  5
48D
330
481
100
AcDbEntity
  8
Defpoints
 62
     0
100
AcDbPoint
 10
122.4093123163617
 20
115.2697537137385
 30
0.0
  0
ENDBLK
  5
483
330
481
100
AcDbEntity
  8
0
100
AcDbBlockEnd
  0
BLOCK
  5
491
330
490
100
AcDbEntity
  8
0
100
AcDbBlockBegin
  2
*D8
 70
     1
 10
0.0
 20
0.0
 30
0.0
  3
*D8
  1

  0
LINE
  5
493
330
490
100
AcDbEntity
  8
Sheet_View_1_Drawing_1
 62
     0
 48
12.69999980926514
370
    -2
100
AcDbLine
 10
86.40931231636168
 20
123.7208223844075
 30
0.0
 11
86.40931231636168
 21
106.562688488548
 31
0.0
  0
LINE
  5
494
330
490
100
AcDbEntity
  8
Sheet_View_1_Drawing_1
 62
     0
 48
12.69999980926514
370
    -2
100
AcDbLine
 10
133.9093123163617
 20
123.7208223844075
 30
0.0
 11
133.9093123163617
 21
106.562688488548
 31
0.0
  0
LINE
  5
495
330
490
100
AcDbEntity
  8
Sheet_View_1_Drawing_1
 62
     0
 48
12.69999980926514
370
    -2
100
AcDbLine
 10
89.24639061583267
 20
108.8359884079959
 30
0.0
 11
106.3027628369647
 21
108.8359884079959
 31
0.0
  0
LINE
  5
496
330
490
100
AcDbEntity
  8
Sheet_View_1_Drawing_1
 62
     0
 48
12.69999980926514
370
    -2
100
AcDbLine
 10
131.0722340168907
 20
108.8359884079959
 30
0.0
 11
113.9276253489174
 21
108.8359884079959
 31
0.0
  0
SOLID
  5
497
330
490
100
AcDbEntity
  8
Sheet_View_1_Drawing_1
 62
     0
100
AcDbTrace
 10
89.24639061583267
 20
109.3088347912411
 30
0.0
 11
89.24639061583267
 21
108.3631420247507
 31
0.0
 12
86.40931231636168
 22
108.8359884079959
 32
0.0
 13
86.40931231636168
 23
108.8359884079959
 33
0.0
  0
SOLID
  5
498
330
490
100
AcDbEntity
  8
Sheet_View_1_Drawing_1
 62
     0
100
AcDbTrace
 10
131.0722340168907
 20
108.3631420247507
 30
0.0
 11
131.0722340168907
 21
109.3088347912411
 31
0.0
 12
133.9093123163617
 22
108.8359884079959
 32
0.0
 13
133.9093123163617
 23
108.8359884079959
 33
0.0
  0
MTEXT
  5
499
330
490
100
AcDbEntity
  8
Sheet_View_1_Drawing_1
 62
     0
100
AcDbMText
 10
110.1151940929411
 20
108.8359884079959
 30
0.0
 40
2.525888919830322
 41
0.0
 46
0.0
 71
     5
 72
     1
  1
%%c95
 73
     1
 44
1.0
  0
POINT
  5
49A
330
490
100
AcDbEntity
  8
Defpoints
 62
     0
100
AcDbPoint
 10
86.40931231636168
 20
124.6301423521867
 30
0.0
  0
POINT
  5
49B
330
490
100
AcDbEntity
  8
Defpoints
 62
     0
100
AcDbPoint
 10
133.9093123163617
 20
124.6301423521867
 30
0.0
  0
POINT
  5
49C
330
490
100
AcDbEntity
  8
Defpoints
 62
     0
100
AcDbPoint
 10
133.9093123163617
 20
108.8359884079959
 30
0.0
  0
ENDBLK
  5
492
330
490
100
AcDbEntity
  8
0
100
AcDbBlockEnd
  0
BLOCK
  5
4A0
330
49F
100
AcDbEntity
  8
0
100
AcDbBlockBegin
  2
*D9
 70
     1
 10
0.0
 20
0.0
 30
0.0
  3
*D9
  1

  0
LINE
  5
4A2
330
49F
100
AcDbEntity
  8
Sheet_View_1_Drawing_1
 62
     0
 48
12.69999980926514
370
    -2
100
AcDbLine
 10
83.15931231636168
 20
137.8759722959367
 30
0.0
 11
83.15931231636168
 21
98.64652903703826
 31
0.0
  0
LINE
  5
4A3
330
49F
100
AcDbEntity
  8
Sheet_View_1_Drawing_1
 62
     0
 48
12.69999980926514
370
    -2
100
AcDbLine
 10
137.1593123163617
 20
137.8759722959367
 30
0.0
 11
137.1593123163617
 21
98.64652903703826
 31
0.0
  0
LINE
  5
4A4
330
49F
100
AcDbEntity
  8
Sheet_View_1_Drawing_1
 62
     0
 48
12.69999980926514
370
    -2
100
AcDbLine
 10
85.99639061583267
 20
100.9198289564862
 30
0.0
 11
105.144076812847
 21
100.9198289564862
 31
0.0
  0
LINE
  5
4A5
330
49F
100
AcDbEntity
  8
Sheet_View_1_Drawing_1
 62
     0
 48
12.69999980926514
370
    -2
100
AcDbLine
 10
134.3222340168907
 20
100.9198289564862
 30
0.0
 11
115.1745478198763
 21
100.9198289564862
 31
0.0
  0
SOLID
  5
4A6
330
49F
100
AcDbEntity
  8
Sheet_View_1_Drawing_1
 62
     0
100
AcDbTrace
 10
85.99639061583267
 20
101.3926753397313
 30
0.0
 11
85.99639061583267
 21
100.446982573241
 31
0.0
 12
83.15931231636168
 22
100.9198289564862
 32
0.0
 13
83.15931231636168
 23
100.9198289564862
 33
0.0
  0
SOLID
  5
4A7
330
49F
100
AcDbEntity
  8
Sheet_View_1_Drawing_1
 62
     0
100
AcDbTrace
 10
134.3222340168907
 20
100.446982573241
 30
0.0
 11
134.3222340168907
 21
101.3926753397313
 31
0.0
 12
137.1593123163617
 22
100.9198289564862
 32
0.0
 13
137.1593123163617
 23
100.9198289564862
 33
0.0
  0
MTEXT
  5
4A8
330
49F
100
AcDbEntity
  8
Sheet_View_1_Drawing_1
 62
     0
100
AcDbMText
 10
110.1593123163616
 20
100.9198289564862
 30
0.0
 40
2.525888919830322
 41
0.0
 46
0.0
 71
     5
 72
     1
  1
%%c108
 73
     1
 44
1.0
  0
POINT
  5
4A9
330
49F
100
AcDbEntity
  8
Defpoints
 62
     0
100
AcDbPoint
 10
83.15931231636168
 20
138.7852922637159
 30
0.0
  0
POINT
  5
4AA
330
49F
100
AcDbEntity
  8
Defpoints
 62
     0
100
AcDbPoint
 10
137.1593123163617
 20
138.7852922637159
 30
0.0
  0
POINT
  5
4AB
330
49F
100
AcDbEntity
  8
Defpoints
 62
     0
100
AcDbPoint
 10
137.1593123163617
 20
100.9198289564862
 30
0.0
  0
ENDBLK
  5
4A1
330
49F
100
AcDbEntity
  8
0
100
AcDbBlockEnd
  0
ENDSEC
  0
SECTION
  2
ENTITIES
  0
LINE
  5
82
330
1F
100
AcDbEntity
  8
Sheet_View_1_Title_Block_1
 62
    18
420
        0
 48
25.39999961853027
100
AcDbLine
 10
12.80000000066
 20
291.99999999934
 30
0.0
 11
12.80000000066
 21
4.999999999979999
 31
0.0
  0
LINE
  5
83
330
1F
100
AcDbEntity
  8
Sheet_View_1_Title_Block_1
 62
    18
420
        0
 48
25.39999961853027
100
AcDbLine
 10
17.80000000064
 20
48.50000000006
 30
0.0
 11
12.80000000066
 21
48.50000000006
 31
0.0
  0
LINE
  5
84
330
1F
100
AcDbEntity
  8
Sheet_View_1_Title_Block_1
 62
    18
420
        0
 48
25.39999961853027
100
AcDbLine
 10
12.80000000066
 20
4.999999999979999
 30
0.0
 11
17.80000000064
 21
4.999999999979999
 31
0.0
  0
LINE
  5
85
330
1F
100
AcDbEntity
  8
Sheet_View_1_Title_Block_1
 62
    18
420
        0
 48
25.39999961853027
370
    30
100
AcDbLine
 10
17.80000000064
 20
291.99999999934
 30
0.0
 11
17.80000000064
 21
4.999999999979999
 31
0.0
  0
LINE
  5
86
330
1F
100
AcDbEntity
  8
Sheet_View_1_Title_Block_1
 62
    18
420
        0
 48
25.39999961853027
370
    30
100
AcDbLine
 10
204.99999999918
 20
4.999999999979999
 30
0.0
 11
204.99999999918
 21
291.99999999934
 31
0.0
  0
LINE
  5
87
330
1F
100
AcDbEntity
  8
Sheet_View_1_Title_Block_1
 62
    18
420
        0
 48
25.39999961853027
370
    30
100
AcDbLine
 10
204.99999999918
 20
291.99999999934
 30
0.0
 11
17.80000000064
 21
291.99999999934
 31
0.0
  0
LINE
  5
88
330
1F
100
AcDbEntity
  8
Sheet_View_1_Title_Block_1
 62
    18
420
        0
 48
25.39999961853027
100
AcDbLine
 10
12.80000000066
 20
98.49999999986
 30
0.0
 11
17.80000000064
 21
98.49999999986
 31
0.0
  0
LINE
  5
89
330
1F
100
AcDbEntity
  8
Sheet_View_1_Title_Block_1
 62
    18
420
        0
 48
25.39999961853027
100
AcDbLine
 10
12.80000000066
 20
198.49999999946
 30
0.0
 11
17.80000000064
 21
198.49999999946
 31
0.0
  0
LINE
  5
8A
330
1F
100
AcDbEntity
  8
Sheet_View_1_Title_Block_1
 62
    18
420
        0
 48
25.39999961853027
100
AcDbLine
 10
17.80000000064
 20
248.49999999926
 30
0.0
 11
12.80000000066
 21
248.49999999926
 31
0.0
  0
LINE
  5
8B
330
1F
100
AcDbEntity
  8
Sheet_View_1_Title_Block_1
 62
    18
420
        0
 48
25.39999961853027
100
AcDbLine
 10
58.90000000012
 20
291.99999999934
 30
0.0
 11
58.90000000012
 21
296.99999999932
 31
0.0
  0
LINE
  5
8C
330
1F
100
AcDbEntity
  8
Sheet_View_1_Title_Block_1
 62
    18
420
        0
 48
25.39999961853027
100
AcDbLine
 10
158.89999999972
 20
291.99999999934
 30
0.0
 11
158.89999999972
 21
296.99999999932
 31
0.0
  0
LINE
  5
8D
330
1F
100
AcDbEntity
  8
Sheet_View_1_Title_Block_1
 62
    18
420
        0
 48
25.39999961853027
100
AcDbLine
 10
17.80000000064
 20
291.99999999934
 30
0.0
 11
12.80000000066
 21
291.99999999934
 31
0.0
  0
LINE
  5
8E
330
1F
100
AcDbEntity
  8
Sheet_View_1_Title_Block_1
 62
    18
420
        0
 48
25.39999961853027
100
AcDbLine
 10
17.80000000064
 20
291.99999999934
 30
0.0
 11
17.80000000064
 21
296.99999999932
 31
0.0
  0
LINE
  5
8F
330
1F
100
AcDbEntity
  8
Sheet_View_1_Title_Block_1
 62
    18
420
        0
 48
25.39999961853027
100
AcDbLine
 10
204.99999999918
 20
291.99999999934
 30
0.0
 11
204.99999999918
 21
296.99999999932
 31
0.0
  0
LINE
  5
90
330
1F
100
AcDbEntity
  8
Sheet_View_1_Title_Block_1
 62
    18
420
        0
 48
25.39999961853027
100
AcDbLine
 10
108.89999999992
 20
296.99999999932
 30
0.0
 11
108.89999999992
 21
286.99999999936
 31
0.0
  0
LINE
  5
91
330
1F
100
AcDbEntity
  8
Sheet_View_1_Title_Block_1
 62
    18
420
        0
 48
25.39999961853027
100
AcDbLine
 10
12.80000000066
 20
148.49999999966
 30
0.0
 11
22.80000000062
 21
148.49999999966
 31
0.0
  0
TEXT
  5
93
330
1F
100
AcDbEntity
  8
Sheet_View_1_Title_Block_1
 62
    18
420
        0
 48
25.39999961853027
100
AcDbText
 10
14.46666666732
 20
172.89792066524
 30
0.0
 40
1.326091647148132
  1
C
  7
text347741
100
AcDbText
  0
TEXT
  5
95
330
1F
100
AcDbEntity
  8
Sheet_View_1_Title_Block_1
 62
    18
420
        0
 48
25.39999961853027
100
AcDbText
 10
83.0666696677
 20
293.89792466678
 30
0.0
 40
1.326091647148132
  1
2
  7
text347744
100
AcDbText
  0
TEXT
  5
97
330
1F
100
AcDbEntity
  8
Sheet_View_1_Title_Block_1
 62
    18
420
        0
 48
25.39999961853027
100
AcDbText
 10
133.0666696675
 20
293.89792466678
 30
0.0
 40
1.326091647148132
  1
3
  7
text347747
100
AcDbText
  0
TEXT
  5
99
330
1F
100
AcDbEntity
  8
Sheet_View_1_Title_Block_1
 62
    18
420
        0
 48
25.39999961853027
100
AcDbText
 10
33.48333633266
 20
293.89792466678
 30
0.0
 40
1.326091647148132
  1
1
  7
text347750
100
AcDbText
  0
TEXT
  5
9B
330
1F
100
AcDbEntity
  8
Sheet_View_1_Title_Block_1
 62
    18
420
        0
 48
25.39999961853027
100
AcDbText
 10
183.06666066554
 20
293.89792466678
 30
0.0
 40
1.326091647148132
  1
4
  7
text347753
100
AcDbText
  0
TEXT
  5
9D
330
1F
100
AcDbEntity
  8
Sheet_View_1_Title_Block_1
 62
    18
420
        0
 48
25.39999961853027
100
AcDbText
 10
14.46666666732
 20
222.89792066504
 30
0.0
 40
1.326091647148132
  1
B
  7
text347756
100
AcDbText
  0
TEXT
  5
9F
330
1F
100
AcDbEntity
  8
Sheet_View_1_Title_Block_1
 62
    18
420
        0
 48
25.39999961853027
100
AcDbText
 10
14.46666666732
 20
272.89792066484
 30
0.0
 40
1.326091647148132
  1
A
  7
text347759
100
AcDbText
  0
TEXT
  5
A1
330
1F
100
AcDbEntity
  8
Sheet_View_1_Title_Block_1
 62
    18
420
        0
 48
25.39999961853027
100
AcDbText
 10
14.46666666732
 20
122.89792066544
 30
0.0
 40
1.326091647148132
  1
D
  7
text347762
100
AcDbText
  0
TEXT
  5
A3
330
1F
100
AcDbEntity
  8
Sheet_View_1_Title_Block_1
 62
    18
420
        0
 48
25.39999961853027
100
AcDbText
 10
14.46666666732
 20
72.89792066564
 30
0.0
 40
1.326091647148132
  1
E
  7
text347765
100
AcDbText
  0
TEXT
  5
A5
330
1F
100
AcDbEntity
  8
Sheet_View_1_Title_Block_1
 62
    18
420
        0
 48
25.39999961853027
100
AcDbText
 10
14.46666666732
 20
22.89792066584
 30
0.0
 40
1.326091647148132
  1
F
  7
text347768
100
AcDbText
  0
ARC
  5
A6
330
1F
100
AcDbEntity
  8
Sheet_View_1_Drawing_1
 62
    18
420
        0
 48
25.39999961853027
370
    50
100
AcDbCircle
 10
112.5269859481098
 20
234.2858332334754
 30
0.0
 40
23.74999538538176
100
AcDbArc
 50
351.6803393784202
 51
353.1621102293838
  0
ARC
  5
A7
330
1F
100
AcDbEntity
  8
Sheet_View_1_Drawing_1
 62
    18
420
        0
 48
25.39999961853027
370
    50
100
AcDbCircle
 10
112.5269812209851
 20
234.2858324827313
 30
0.0
 40
23.74999867097472
100
AcDbArc
 50
263.1621101538093
 51
264.1162286923842
  0
ARC
  5
A8
330
1F
100
AcDbEntity
  8
Sheet_View_1_Drawing_1
 62
    18
420
        0
 48
25.39999961853027
370
    50
100
AcDbCircle
 10
112.5269813687847
 20
234.2858338038504
 30
0.0
 40
23.75000000028676
100
AcDbArc
 50
266.2159931130306
 51
273.7840068869696
  0
ARC
  5
A9
330
1F
100
AcDbEntity
  8
Sheet_View_1_Drawing_1
 62
    18
420
        0
 48
25.39999961853027
370
    50
100
AcDbCircle
 10
112.526979819907
 20
234.2858338547193
 30
0.0
 40
23.75000154887769
100
AcDbArc
 50
356.2159932364412
 51
359.9999998765892
  0
ARC
  5
AA
330
1F
100
AcDbEntity
  8
Sheet_View_1_Drawing_1
 62
    18
420
        0
 48
25.39999961853027
370
    50
100
AcDbCircle
 10
112.5269829176557
 20
234.2858337524079
 30
0.0
 40
23.75000154887098
100
AcDbArc
 50
176.2159932364404
 51
179.9999998765894
  0
ARC
  5
AB
330
1F
100
AcDbEntity
  8
Sheet_View_1_Drawing_1
 62
    18
420
        0
 48
25.39999961853027
370
    50
100
AcDbCircle
 10
112.5269857613005
 20
234.285834348798
 30
0.0
 40
23.74999557382132
100
AcDbArc
 50
6.837889776491444
 51
8.319657133596891
  0
ARC
  5
AC
330
1F
100
AcDbEntity
  8
Sheet_View_1_Drawing_1
 62
    18
420
        0
 48
25.39999961853027
370
    50
100
AcDbCircle
 10
112.5269819388584
 20
234.2858383827721
 30
0.0
 40
23.74999538549916
100
AcDbArc
 50
81.68034270012227
 51
83.16211022938263
  0
ARC
  5
AD
330
1F
100
AcDbEntity
  8
Sheet_View_1_Drawing_1
 62
    18
420
        0
 48
25.39999961853027
370
    50
100
AcDbCircle
 10
112.5269807986476
 20
234.2858292238279
 30
0.0
 40
23.74999538496817
100
AcDbArc
 50
261.6803165358764
 51
263.1621102293831
  0
ARC
  5
AE
330
1F
100
AcDbEntity
  8
Sheet_View_1_Drawing_1
 62
    18
420
        0
 48
25.39999961853027
370
    50
100
AcDbCircle
 10
96.50551139877261
 20
243.5358338035637
 30
0.0
 40
1.5
100
AcDbArc
 50
60.00000000000055
 51
179.9999999999994
  0
LINE
  5
AF
330
1F
100
AcDbEntity
  8
Sheet_View_1_Drawing_1
 62
    18
420
        0
 48
25.39999961853027
370
    50
100
AcDbLine
 10
137.2769813687848
 20
209.5358338035636
 30
0.0
 11
87.77698136878473
 21
209.5358338035636
 31
0.0
  0
ARC
  5
B0
330
1F
100
AcDbEntity
  8
Sheet_View_1_Drawing_1
 62
    18
420
        0
 48
25.39999961853027
370
    50
100
AcDbCircle
 10
112.5269813687847
 20
234.2858338035636
 30
0.0
 40
27.00000000000001
100
AcDbArc
 50
247.808330026594
 51
292.191669973406
  0
ARC
  5
B1
330
1F
100
AcDbEntity
  8
Sheet_View_1_Drawing_1
 62
    18
420
        0
 48
25.39999961853027
370
    50
100
AcDbCircle
 10
128.5484513387968
 20
225.0358338035637
 30
0.0
 40
1.5
100
AcDbArc
 50
240.0
 51
0.000000000000573
  0
ARC
  5
B2
330
1F
100
AcDbEntity
  8
Sheet_View_1_Drawing_1
 62
    18
420
        0
 48
25.39999961853027
370
    50
100
AcDbCircle
 10
112.5269813687847
 20
234.2858338035636
 30
0.0
 40
25.45760497571902
100
AcDbArc
 50
0.000000000000573
 51
10.87981595113884
  0
ARC
  5
B3
330
1F
100
AcDbEntity
  8
Sheet_View_1_Drawing_1
 62
    18
420
        0
 48
25.39999961853027
370
    50
100
AcDbCircle
 10
105.0269813687847
 20
234.2858338035637
 30
0.0
 40
1.499999999999972
100
AcDbArc
 50
0.0000000000010856
 51
90.0
  0
ARC
  5
B4
330
1F
100
AcDbEntity
  8
Sheet_View_1_Drawing_1
 62
    18
420
        0
 48
25.39999961853027
370
    50
100
AcDbCircle
 10
112.5269813687847
 20
234.2858338035636
 30
0.0
 40
26.74999999999998
100
AcDbArc
 50
339.1603743496466
 51
0.000000000000573
  0
ARC
  5
B5
330
1F
100
AcDbEntity
  8
Sheet_View_1_Drawing_1
 62
    18
420
        0
 48
25.39999961853027
370
    50
100
AcDbCircle
 10
106.7769813687847
 20
224.3265416600426
 30
0.0
 40
1.5
100
AcDbArc
 50
329.9999999999994
 51
0.000000000000573
  0
ARC
  5
B6
330
1F
100
AcDbEntity
  8
Sheet_View_1_Drawing_1
 62
    18
420
        0
 48
25.39999961853027
370
    50
100
AcDbCircle
 10
112.5269813687847
 20
234.2858338035636
 30
0.0
 40
26.75
100
AcDbArc
 50
249.1602394419963
 51
290.8397605580038
  0
ARC
  5
B7
330
1F
100
AcDbEntity
  8
Sheet_View_1_Drawing_1
 62
    18
420
        0
 48
25.39999961853027
370
    50
100
AcDbCircle
 10
118.2769813687847
 20
224.3265416600426
 30
0.0
 40
1.500000000000014
100
AcDbArc
 50
179.9999999999994
 51
210.0000000000009
  0
ARC
  5
B8
330
1F
100
AcDbEntity
  8
Sheet_View_1_Drawing_1
 62
    18
420
        0
 48
25.39999961853027
370
    50
100
AcDbCircle
 10
112.5269813687847
 20
234.2858338035636
 30
0.0
 40
26.75
100
AcDbArc
 50
0.000000000000573
 51
20.83962565035323
  0
ARC
  5
B9
330
1F
100
AcDbEntity
  8
Sheet_View_1_Drawing_1
 62
    18
420
        0
 48
25.39999961853027
370
    50
100
AcDbCircle
 10
105.0269813687847
 20
234.2858338035637
 30
0.0
 40
1.5
100
AcDbArc
 50
270.0
 51
0.000000000000573
  0
LINE
  5
BA
330
1F
100
AcDbEntity
  8
Sheet_View_1_Drawing_1
 62
    18
420
        0
 48
25.39999961853027
370
    50
100
AcDbLine
 10
139.2769813687847
 20
234.2858338035636
 30
0.0
 11
137.9845863445038
 21
234.2858338035636
 31
0.0
  0
ARC
  5
BB
330
1F
100
AcDbEntity
  8
Sheet_View_1_Drawing_1
 62
    18
420
        0
 48
25.39999961853027
370
    50
100
AcDbCircle
 10
122.4862735123058
 20
228.5358338035637
 30
0.0
 40
1.500000000000007
100
AcDbArc
 50
179.9999999999994
 51
239.9999999999996
  0
ARC
  5
BC
330
1F
100
AcDbEntity
  8
Sheet_View_1_Drawing_1
 62
    18
420
        0
 48
25.39999961853027
370
    50
100
AcDbCircle
 10
112.5269813687847
 20
234.2858338035637
 30
0.0
 40
19.00000000000002
100
AcDbArc
 50
355.6770840769628
 51
359.9999999999994
  0
ARC
  5
BD
330
1F
100
AcDbEntity
  8
Sheet_View_1_Drawing_1
 62
    18
420
        0
 48
25.39999961853027
370
    50
100
AcDbCircle
 10
112.5269813687847
 20
241.7858338035636
 30
0.0
 40
1.500000000000014
100
AcDbArc
 50
179.9999999999994
 51
0.000000000000573
  0
ARC
  5
BE
330
1F
100
AcDbEntity
  8
Sheet_View_1_Drawing_1
 62
    18
420
        0
 48
25.39999961853027
370
    50
100
AcDbCircle
 10
112.5269813687847
 20
234.2858338035637
 30
0.0
 40
18.99999999999998
100
AcDbArc
 50
175.6770603365057
 51
179.9999999999994
  0
ARC
  5
BF
330
1F
100
AcDbEntity
  8
Sheet_View_1_Drawing_1
 62
    18
420
        0
 48
25.39999961853027
370
    50
100
AcDbCircle
 10
94.02698136878473
 20
234.2858338035637
 30
0.0
 40
1.5
100
AcDbArc
 50
90.0
 51
179.9999999999994
  0
ARC
  5
C0
330
1F
100
AcDbEntity
  8
Sheet_View_1_Drawing_1
 62
    18
420
        0
 48
25.39999961853027
370
    50
100
AcDbCircle
 10
112.5269813687847
 20
234.2858338035637
 30
0.0
 40
18.99999999999998
100
AcDbArc
 50
25.67707095233434
 51
34.32294147171943
  0
ARC
  5
C1
330
1F
100
AcDbEntity
  8
Sheet_View_1_Drawing_1
 62
    18
420
        0
 48
25.39999961853027
370
    50
100
AcDbCircle
 10
120.0269813687847
 20
234.2858338035637
 30
0.0
 40
1.499999999999986
100
AcDbArc
 50
90.0
 51
179.9999999999994
  0
ARC
  5
C2
330
1F
100
AcDbEntity
  8
Sheet_View_1_Drawing_1
 62
    18
420
        0
 48
25.39999961853027
370
    50
100
AcDbCircle
 10
112.5269813687847
 20
234.2858338035637
 30
0.0
 40
18.99999999999997
100
AcDbArc
 50
85.67704913803001
 51
94.3229155412888
  0
ARC
  5
C3
330
1F
100
AcDbEntity
  8
Sheet_View_1_Drawing_1
 62
    18
420
        0
 48
25.39999961853027
370
    50
100
AcDbCircle
 10
131.0269813687847
 20
234.2858338035637
 30
0.0
 40
1.499999999999972
100
AcDbArc
 50
0.0000000000010856
 51
90.0
  0
ARC
  5
C4
330
1F
100
AcDbEntity
  8
Sheet_View_1_Drawing_1
 62
    18
420
        0
 48
25.39999961853027
370
    50
100
AcDbCircle
 10
112.5269813687847
 20
234.2858338035637
 30
0.0
 40
19.00000000000003
100
AcDbArc
 50
0.000000000000573
 51
4.322950661505704
  0
LINE
  5
C5
330
1F
100
AcDbEntity
  8
Sheet_View_1_Drawing_1
 62
    18
420
        0
 48
25.39999961853027
370
    50
100
AcDbLine
 10
105.0269813687847
 20
232.7858338035637
 30
0.0
 11
94.02698136878473
 21
232.7858338035637
 31
0.0
  0
ARC
  5
C6
330
1F
100
AcDbEntity
  8
Sheet_View_1_Drawing_1
 62
    18
420
        0
 48
25.39999961853027
370
    50
100
AcDbCircle
 10
112.5269813687847
 20
234.2858338035637
 30
0.0
 40
18.99999999999996
100
AcDbArc
 50
115.6770462935002
 51
124.322905748649
  0
LINE
  5
C7
330
1F
100
AcDbEntity
  8
Sheet_View_1_Drawing_1
 62
    18
420
        0
 48
25.39999961853027
370
    50
100
AcDbLine
 10
95.75551139877261
 20
226.3348719092403
 30
0.0
 11
101.8176892252637
 21
229.8348719092403
 31
0.0
  0
ARC
  5
C8
330
1F
100
AcDbEntity
  8
Sheet_View_1_Drawing_1
 62
    18
420
        0
 48
25.39999961853027
370
    50
100
AcDbCircle
 10
112.5269813687847
 20
234.2858338035637
 30
0.0
 40
19.00000000000003
100
AcDbArc
 50
295.6770981199126
 51
304.322949837949
  0
LINE
  5
C9
330
1F
100
AcDbEntity
  8
Sheet_View_1_Drawing_1
 62
    18
420
        0
 48
25.39999961853027
370
    50
100
AcDbLine
 10
94.02698136878473
 20
235.7858338035637
 30
0.0
 11
105.0269813687847
 21
235.7858338035637
 31
0.0
  0
ARC
  5
CA
330
1F
100
AcDbEntity
  8
Sheet_View_1_Drawing_1
 62
    18
420
        0
 48
25.39999961853027
370
    50
100
AcDbCircle
 10
112.5269813687847
 20
234.2858338035637
 30
0.0
 40
14.99999999999994
100
AcDbArc
 50
84.26081857999104
 51
95.7391595345248
  0
LINE
  5
CB
330
1F
100
AcDbEntity
  8
Sheet_View_1_Drawing_1
 62
    18
420
        0
 48
25.39999961853027
370
    50
100
AcDbLine
 10
104.5760194744614
 20
251.0573037735758
 30
0.0
 11
108.0760194744614
 21
244.9951259470847
 31
0.0
  0
ARC
  5
CC
330
1F
100
AcDbEntity
  8
Sheet_View_1_Drawing_1
 62
    18
420
        0
 48
25.39999961853027
370
    50
100
AcDbCircle
 10
112.5269813687847
 20
234.2858338035637
 30
0.0
 40
15.00000000000002
100
AcDbArc
 50
204.2608256736217
 51
215.7391666281554
  0
LINE
  5
CD
330
1F
100
AcDbEntity
  8
Sheet_View_1_Drawing_1
 62
    18
420
        0
 48
25.39999961853027
370
    50
100
AcDbLine
 10
111.0269813687847
 20
241.7858338035636
 30
0.0
 11
111.0269813687847
 21
252.7858338035637
 31
0.0
  0
ARC
  5
CE
330
1F
100
AcDbEntity
  8
Sheet_View_1_Drawing_1
 62
    18
420
        0
 48
25.39999961853027
370
    50
100
AcDbCircle
 10
112.5269813687847
 20
234.2858338035637
 30
0.0
 40
14.99999999999999
100
AcDbArc
 50
180.0000000000006
 51
185.7391597149007
  0
LINE
  5
CF
330
1F
100
AcDbEntity
  8
Sheet_View_1_Drawing_1
 62
    18
420
        0
 48
25.39999961853027
370
    50
100
AcDbLine
 10
114.0269813687847
 20
252.7858338035637
 30
0.0
 11
114.0269813687847
 21
241.7858338035636
 31
0.0
  0
ARC
  5
D0
330
1F
100
AcDbEntity
  8
Sheet_View_1_Drawing_1
 62
    18
420
        0
 48
25.39999961853027
370
    50
100
AcDbCircle
 10
112.5269813687847
 20
234.2858338035637
 30
0.0
 40
9.372983346207434
100
AcDbArc
 50
0.000000000000573
 51
9.208911735111887
  0
LINE
  5
D1
330
1F
100
AcDbEntity
  8
Sheet_View_1_Drawing_1
 62
    18
420
        0
 48
25.39999961853027
370
    50
100
AcDbLine
 10
120.0269813687847
 20
235.7858338035637
 30
0.0
 11
131.0269813687847
 21
235.7858338035637
 31
0.0
  0
ARC
  5
D2
330
1F
100
AcDbEntity
  8
Sheet_View_1_Drawing_1
 62
    18
420
        0
 48
25.39999961853027
370
    50
100
AcDbCircle
 10
112.5269813687847
 20
234.2858338035637
 30
0.0
 40
9.372983346207421
100
AcDbArc
 50
350.7911229867167
 51
0.000000000000573
  0
LINE
  5
D3
330
1F
100
AcDbEntity
  8
Sheet_View_1_Drawing_1
 62
    18
420
        0
 48
25.39999961853027
370
    50
100
AcDbLine
 10
123.0760194744614
 20
249.5573037735758
 30
0.0
 11
119.5760194744614
 21
243.4951259470847
 31
0.0
  0
ARC
  5
D4
330
1F
100
AcDbEntity
  8
Sheet_View_1_Drawing_1
 62
    18
420
        0
 48
25.39999961853027
370
    50
100
AcDbCircle
 10
112.5269813687847
 20
234.2858338035637
 30
0.0
 40
9.37298334620745
100
AcDbArc
 50
260.7911232776838
 51
279.208912026079
  0
LINE
  5
D5
330
1F
100
AcDbEntity
  8
Sheet_View_1_Drawing_1
 62
    18
420
        0
 48
25.39999961853027
370
    50
100
AcDbLine
 10
121.7362735123058
 20
241.3348719092403
 30
0.0
 11
127.7984513387968
 21
244.8348719092403
 31
0.0
  0
ARC
  5
D6
330
1F
100
AcDbEntity
  8
Sheet_View_1_Drawing_1
 62
    18
420
        0
 48
25.39999961853027
370
    50
100
AcDbCircle
 10
112.5269813687847
 20
234.2858338035637
 30
0.0
 40
9.37298334620742
100
AcDbArc
 50
179.9999999999994
 51
189.2088770132832
  0
LINE
  5
D7
330
1F
100
AcDbEntity
  8
Sheet_View_1_Drawing_1
 62
    18
420
        0
 48
25.39999961853027
370
    50
100
AcDbLine
 10
123.2362735123058
 20
229.8348719092403
 30
0.0
 11
129.2984513387968
 21
226.3348719092403
 31
0.0
  0
ARC
  5
D8
330
1F
100
AcDbEntity
  8
Sheet_View_1_Drawing_1
 62
    18
420
        0
 48
25.39999961853027
370
    50
100
AcDbCircle
 10
112.5269813687847
 20
234.2858338035637
 30
0.0
 40
15.0
100
AcDbArc
 50
0.000000000000573
 51
5.739181239632907
  0
LINE
  5
D9
330
1F
100
AcDbEntity
  8
Sheet_View_1_Drawing_1
 62
    18
420
        0
 48
25.39999961853027
370
    50
100
AcDbLine
 10
131.0269813687847
 20
232.7858338035637
 30
0.0
 11
120.0269813687847
 21
232.7858338035637
 31
0.0
  0
ARC
  5
DA
330
1F
100
AcDbEntity
  8
Sheet_View_1_Drawing_1
 62
    18
420
        0
 48
25.39999961853027
370
    50
100
AcDbCircle
 10
112.5269813687847
 20
234.2858338035637
 30
0.0
 40
14.99999999999998
100
AcDbArc
 50
114.2608146648572
 51
125.7391556193912
  0
LINE
  5
DB
330
1F
100
AcDbEntity
  8
Sheet_View_1_Drawing_1
 62
    18
420
        0
 48
25.39999961853027
370
    50
100
AcDbLine
 10
129.2984513387968
 20
242.236795697887
 30
0.0
 11
123.2362735123058
 21
238.736795697887
 31
0.0
  0
ARC
  5
DC
330
1F
100
AcDbEntity
  8
Sheet_View_1_Drawing_1
 62
    18
420
        0
 48
25.39999961853027
370
    50
100
AcDbCircle
 10
112.5269813687847
 20
234.2858338035637
 30
0.0
 40
15.00000000000002
100
AcDbArc
 50
294.2608443806089
 51
305.7391853351428
  0
LINE
  5
DD
330
1F
100
AcDbEntity
  8
Sheet_View_1_Drawing_1
 62
    18
420
        0
 48
25.39999961853027
370
    50
100
AcDbLine
 10
116.9779432631081
 20
244.9951259470847
 30
0.0
 11
120.4779432631081
 21
251.0573037735758
 31
0.0
  0
ARC
  5
DE
330
1F
100
AcDbEntity
  8
Sheet_View_1_Drawing_1
 62
    18
420
        0
 48
25.39999961853027
370
    50
100
AcDbCircle
 10
112.5269813687847
 20
234.2858338035637
 30
0.0
 40
7.436491673103703
100
AcDbArc
 50
168.4829410789394
 51
179.9999999999994
  0
LINE
  5
DF
330
1F
100
AcDbEntity
  8
Sheet_View_1_Drawing_1
 62
    18
420
        0
 48
25.39999961853027
370
    50
100
AcDbLine
 10
111.0269813687847
 20
215.7858338035636
 30
0.0
 11
111.0269813687847
 21
226.7858338035637
 31
0.0
  0
ARC
  5
E0
330
1F
100
AcDbEntity
  8
Sheet_View_1_Drawing_1
 62
    18
420
        0
 48
25.39999961853027
370
    50
100
AcDbCircle
 10
112.5269813687847
 20
234.2858338035637
 30
0.0
 40
7.436491673103717
100
AcDbArc
 50
348.482971750257
 51
0.000000000000573
  0
LINE
  5
E1
330
1F
100
AcDbEntity
  8
Sheet_View_1_Drawing_1
 62
    18
420
        0
 48
25.39999961853027
370
    50
100
AcDbLine
 10
114.0269813687847
 20
226.7858338035636
 30
0.0
 11
114.0269813687847
 21
215.7858338035636
 31
0.0
  0
ARC
  5
E2
330
1F
100
AcDbEntity
  8
Sheet_View_1_Drawing_1
 62
    18
420
        0
 48
25.39999961853027
370
    50
100
AcDbCircle
 10
112.5269813687847
 20
234.2858338035637
 30
0.0
 40
7.436491673103678
100
AcDbArc
 50
78.48294473056703
 51
101.5170280576791
  0
LINE
  5
E3
330
1F
100
AcDbEntity
  8
Sheet_View_1_Drawing_1
 62
    18
420
        0
 48
25.39999961853027
370
    50
100
AcDbLine
 10
119.5760194744614
 20
225.0765416600426
 30
0.0
 11
123.0760194744614
 21
219.0143638335516
 31
0.0
  0
ARC
  5
E4
330
1F
100
AcDbEntity
  8
Sheet_View_1_Drawing_1
 62
    18
420
        0
 48
25.39999961853027
370
    50
100
AcDbCircle
 10
112.5269813687847
 20
234.2858338035636
 30
0.0
 40
23.50000000000002
100
AcDbArc
 50
269.9844212154463
 51
270.0155787845677
  0
LINE
  5
E5
330
1F
100
AcDbEntity
  8
Sheet_View_1_Drawing_1
 62
    18
420
        0
 48
25.39999961853027
370
    50
100
AcDbLine
 10
105.4779432631081
 20
243.4951259470847
 30
0.0
 11
101.9779432631081
 21
249.5573037735758
 31
0.0
  0
ARC
  5
E6
330
1F
100
AcDbEntity
  8
Sheet_View_1_Drawing_1
 62
    18
420
        0
 48
25.39999961853027
370
    50
100
AcDbCircle
 10
112.5269813687847
 20
234.2858338035636
 30
0.0
 40
23.5
100
AcDbArc
 50
179.9999999999994
 51
180.0157087905972
  0
LINE
  5
E7
330
1F
100
AcDbEntity
  8
Sheet_View_1_Drawing_1
 62
    18
420
        0
 48
25.39999961853027
370
    50
100
AcDbLine
 10
97.25551139877263
 20
244.8348719092403
 30
0.0
 11
103.3176892252637
 21
241.3348719092403
 31
0.0
  0
ARC
  5
E8
330
1F
100
AcDbEntity
  8
Sheet_View_1_Drawing_1
 62
    18
420
        0
 48
25.39999961853027
370
    50
100
AcDbCircle
 10
135.1519813687847
 20
256.9108338035636
 30
0.0
 40
0.8499999999999943
100
AcDbArc
 50
0.000000000000573
 51
90.0
  0
LINE
  5
E9
330
1F
100
AcDbEntity
  8
Sheet_View_1_Drawing_1
 62
    18
420
        0
 48
25.39999961853027
370
    50
100
AcDbLine
 10
101.8176892252637
 20
238.736795697887
 30
0.0
 11
95.75551139877261
 21
242.236795697887
 31
0.0
  0
ARC
  5
EA
330
1F
100
AcDbEntity
  8
Sheet_View_1_Drawing_1
 62
    18
420
        0
 48
25.39999961853027
370
    50
100
AcDbCircle
 10
89.90198136878475
 20
211.6608338035636
 30
0.0
 40
0.8500000000000085
100
AcDbArc
 50
179.9999999999994
 51
270.000000000001
  0
LINE
  5
EB
330
1F
100
AcDbEntity
  8
Sheet_View_1_Drawing_1
 62
    18
420
        0
 48
25.39999961853027
370
    50
100
AcDbLine
 10
108.0760194744614
 20
223.5765416600426
 30
0.0
 11
104.5760194744614
 21
217.5143638335515
 31
0.0
  0
LINE
  5
EC
330
1F
100
AcDbEntity
  8
Sheet_View_1_Drawing_1
 62
    18
420
        0
 48
25.39999961853027
370
    50
100
AcDbLine
 10
89.90198136878475
 20
210.8108338035636
 30
0.0
 11
90.2542680210953
 21
210.8108338035636
 31
0.0
  0
LINE
  5
ED
330
1F
100
AcDbEntity
  8
Sheet_View_1_Drawing_1
 62
    18
420
        0
 48
25.39999961853027
370
    50
100
AcDbLine
 10
103.3176892252637
 20
227.236795697887
 30
0.0
 11
97.25551139877261
 21
223.736795697887
 31
0.0
  0
LINE
  5
EE
330
1F
100
AcDbEntity
  8
Sheet_View_1_Drawing_1
 62
    18
420
        0
 48
25.39999961853027
370
    50
100
AcDbLine
 10
135.1519813687847
 20
257.7608338035636
 30
0.0
 11
134.7997036267743
 21
257.7608338035636
 31
0.0
  0
LINE
  5
EF
330
1F
100
AcDbEntity
  8
Sheet_View_1_Drawing_1
 62
    18
420
        0
 48
25.39999961853027
370
    50
100
AcDbLine
 10
120.4779432631081
 20
217.5143638335515
 30
0.0
 11
116.9779432631081
 21
223.5765416600426
 31
0.0
  0
LINE
  5
F0
330
1F
100
AcDbEntity
  8
Sheet_View_1_Drawing_1
 62
    18
420
        0
 48
25.39999961853027
370
    50
100
AcDbLine
 10
89.05198136878474
 20
212.0131205071062
 30
0.0
 11
89.05198136878474
 21
211.6608338035636
 31
0.0
  0
LINE
  5
F1
330
1F
100
AcDbEntity
  8
Sheet_View_1_Drawing_1
 62
    18
420
        0
 48
25.39999961853027
370
    50
100
AcDbLine
 10
127.7984513387968
 20
223.736795697887
 30
0.0
 11
121.7362735123058
 21
227.236795697887
 31
0.0
  0
LINE
  5
F2
330
1F
100
AcDbEntity
  8
Sheet_View_1_Drawing_1
 62
    18
420
        0
 48
25.39999961853027
370
    50
100
AcDbLine
 10
136.0019813687848
 20
211.6608338035636
 30
0.0
 11
136.0019813687848
 21
212.0131128811007
 31
0.0
  0
LINE
  5
F3
330
1F
100
AcDbEntity
  8
Sheet_View_1_Drawing_1
 62
    18
420
        0
 48
25.39999961853027
370
    50
100
AcDbLine
 10
101.9779432631081
 20
219.0143638335516
 30
0.0
 11
105.4779432631081
 21
225.0765416600426
 31
0.0
  0
LINE
  5
F4
330
1F
100
AcDbEntity
  8
Sheet_View_1_Drawing_1
 62
    18
420
        0
 48
25.39999961853027
370
    50
100
AcDbLine
 10
89.90198136878483
 20
210.704767786387
 30
0.0
 11
89.90198136878483
 21
210.8108338035624
 31
0.0
  0
ARC
  5
F5
330
1F
100
AcDbEntity
  8
Sheet_View_1_Drawing_1
 62
    18
420
        0
 48
25.39999961853027
370
    50
100
AcDbCircle
 10
90.52698136878473
 20
212.2858338035637
 30
0.0
 40
1.5
100
AcDbArc
 50
225.0
 51
270.0
  0
LINE
  5
F6
330
1F
100
AcDbEntity
  8
Sheet_View_1_Drawing_1
 62
    18
420
        0
 48
25.39999961853027
370
    50
100
AcDbLine
 10
136.1080473859614
 20
211.6608338035637
 30
0.0
 11
136.0019813687859
 21
211.6608338035637
 31
0.0
  0
ARC
  5
F7
330
1F
100
AcDbEntity
  8
Sheet_View_1_Drawing_1
 62
    18
420
        0
 48
25.39999961853027
370
    50
100
AcDbCircle
 10
90.52698136878473
 20
212.2858338035637
 30
0.0
 40
1.500000000000012
100
AcDbArc
 50
179.9999999999994
 51
225.0
  0
LINE
  5
F8
330
1F
100
AcDbEntity
  8
Sheet_View_1_Drawing_1
 62
    18
420
        0
 48
25.39999961853027
370
    50
100
AcDbLine
 10
89.90198136878483
 20
257.7608338035648
 30
0.0
 11
89.90198136878483
 21
257.8668998207402
 31
0.0
  0
ARC
  5
F9
330
1F
100
AcDbEntity
  8
Sheet_View_1_Drawing_1
 62
    18
420
        0
 48
25.39999961853027
370
    50
100
AcDbCircle
 10
90.52698136878472
 20
256.2858338035637
 30
0.0
 40
1.5
100
AcDbArc
 50
134.9999999999989
 51
179.9999999999994
  0
LINE
  5
FA
330
1F
100
AcDbEntity
  8
Sheet_View_1_Drawing_1
 62
    18
420
        0
 48
25.39999961853027
370
    50
100
AcDbLine
 10
89.05198136878357
 20
256.9108338035635
 30
0.0
 11
88.94591535160812
 21
256.9108338035635
 31
0.0
  0
ARC
  5
FB
330
1F
100
AcDbEntity
  8
Sheet_View_1_Drawing_1
 62
    18
420
        0
 48
25.39999961853027
370
    50
100
AcDbCircle
 10
134.5269813687847
 20
212.2858338035637
 30
0.0
 40
1.499999999999972
100
AcDbArc
 50
314.9999999999992
 51
0.000000000000573
  0
LINE
  5
FC
330
1F
100
AcDbEntity
  8
Sheet_View_1_Drawing_1
 62
    18
420
        0
 48
25.39999961853027
370
    50
100
AcDbLine
 10
87.77698136878473
 20
259.0358338035636
 30
0.0
 11
137.2769813687848
 21
259.0358338035636
 31
0.0
  0
ARC
  5
FD
330
1F
100
AcDbEntity
  8
Sheet_View_1_Drawing_1
 62
    18
420
        0
 48
25.39999961853027
370
    50
100
AcDbCircle
 10
112.5269813687847
 20
234.2858338035636
 30
0.0
 40
25.45760497571902
100
AcDbArc
 50
349.1201840488612
 51
0.000000000000573
  0
ARC
  5
FE
330
1F
100
AcDbEntity
  8
Sheet_View_1_Drawing_1
 62
    18
420
        0
 48
25.39999961853027
370
    50
100
AcDbCircle
 10
134.5269813687847
 20
256.2858338035637
 30
0.0
 40
1.5
100
AcDbArc
 50
45.0
 51
90.0
  0
LINE
  5
FF
330
1F
100
AcDbEntity
  8
Sheet_View_1_Drawing_1
 62
    18
420
        0
 48
25.39999961853027
370
    50
100
AcDbLine
 10
135.1519813687847
 20
258.1608338035635
 30
0.0
 11
89.90198136878475
 21
258.1608338035635
 31
0.0
  0
LINE
  5
100
330
1F
100
AcDbEntity
  8
Sheet_View_1_Drawing_1
 62
    18
420
        0
 48
25.39999961853027
370
    50
100
AcDbLine
 10
89.90198136878475
 20
210.4108338035636
 30
0.0
 11
135.1519813687847
 21
210.4108338035636
 31
0.0
  0
ARC
  5
101
330
1F
100
AcDbEntity
  8
Sheet_View_1_Drawing_1
 62
    18
420
        0
 48
25.39999961853027
370
    50
100
AcDbCircle
 10
112.5269813687847
 20
234.2858338035636
 30
0.0
 40
25.45760497571901
100
AcDbArc
 50
179.9999999999994
 51
190.8800853503959
  0
ARC
  5
102
330
1F
100
AcDbEntity
  8
Sheet_View_1_Drawing_1
 62
    18
420
        0
 48
25.39999961853027
370
    50
100
AcDbCircle
 10
90.52698136878472
 20
256.2858338035637
 30
0.0
 40
1.500000000000002
100
AcDbArc
 50
89.99999999999837
 51
134.9999999999996
  0
LINE
  5
103
330
1F
100
AcDbEntity
  8
Sheet_View_1_Drawing_1
 62
    18
420
        0
 48
25.39999961853027
370
    50
100
AcDbLine
 10
87.77698136878473
 20
209.5358338035636
 30
0.0
 11
87.77698136878473
 21
259.0358338035636
 31
0.0
  0
CIRCLE
  5
104
330
1F
100
AcDbEntity
  8
Sheet_View_1_Drawing_1
 62
    18
420
        0
 48
25.39999961853027
370
    50
100
AcDbCircle
 10
112.5269813687847
 20
234.2858338035637
 30
0.0
 40
23.0
  0
LINE
  5
105
330
1F
100
AcDbEntity
  8
Sheet_View_1_Drawing_1
 62
    18
420
        0
 48
25.39999961853027
370
    50
100
AcDbLine
 10
136.4019813687847
 20
211.6608338035636
 30
0.0
 11
136.4019813687847
 21
256.9108338035636
 31
0.0
  0
ARC
  5
106
330
1F
100
AcDbEntity
  8
Sheet_View_1_Drawing_1
 62
    18
420
        0
 48
25.39999961853027
370
    50
100
AcDbCircle
 10
134.5269813687847
 20
256.2858338035637
 30
0.0
 40
1.499999999999992
100
AcDbArc
 50
0.000000000000573
 51
45.00000000000077
  0
ARC
  5
107
330
1F
100
AcDbEntity
  8
Sheet_View_1_Drawing_1
 62
    18
420
        0
 48
25.39999961853027
370
    50
100
AcDbCircle
 10
112.5269758338798
 20
234.2858834649507
 30
0.0
 40
23.74995003286693
100
AcDbArc
 50
95.88100325150316
 51
96.83789082589023
  0
ARC
  5
108
330
1F
100
AcDbEntity
  8
Sheet_View_1_Drawing_1
 62
    18
420
        0
 48
25.39999961853027
370
    50
100
AcDbCircle
 10
134.5269813687847
 20
212.2858338035637
 30
0.0
 40
1.499999999999992
100
AcDbArc
 50
269.9999999999989
 51
314.9999999999992
  0
ARC
  5
109
330
1F
100
AcDbEntity
  8
Sheet_View_1_Drawing_1
 62
    18
420
        0
 48
25.39999961853027
370
    50
100
AcDbCircle
 10
112.5269315909268
 20
234.2858282556778
 30
0.0
 40
23.74994991567903
100
AcDbArc
 50
185.8810032491423
 51
186.8378908282509
  0
LINE
  5
10A
330
1F
100
AcDbEntity
  8
Sheet_View_1_Drawing_1
 62
    18
420
        0
 48
25.39999961853027
370
    50
100
AcDbLine
 10
134.5269813687847
 20
257.7858338035637
 30
0.0
 11
90.52698136878472
 21
257.7858338035637
 31
0.0
  0
LINE
  5
10B
330
1F
100
AcDbEntity
  8
Sheet_View_1_Drawing_1
 62
    18
420
        0
 48
25.39999961853027
370
    50
100
AcDbLine
 10
135.1519813687846
 20
257.8668998207402
 30
0.0
 11
135.1519813687846
 21
257.9108338035633
 31
0.0
  0
LINE
  5
10C
330
1F
100
AcDbEntity
  8
Sheet_View_1_Drawing_1
 62
    18
420
        0
 48
25.39999961853027
370
    50
100
AcDbLine
 10
89.02698136878472
 20
256.2858338035637
 30
0.0
 11
89.02698136878472
 21
212.2858338035637
 31
0.0
  0
LINE
  5
10D
330
1F
100
AcDbEntity
  8
Sheet_View_1_Drawing_1
 62
    18
420
        0
 48
25.39999961853027
370
    50
100
AcDbLine
 10
135.1519813687846
 20
210.6608338035639
 30
0.0
 11
135.1519813687846
 21
210.704767786387
 31
0.0
  0
LINE
  5
10E
330
1F
100
AcDbEntity
  8
Sheet_View_1_Drawing_1
 62
    18
420
        0
 48
25.39999961853027
370
    50
100
AcDbLine
 10
136.0269813687847
 20
212.2858338035637
 30
0.0
 11
136.0269813687847
 21
256.2858338035637
 31
0.0
  0
ARC
  5
10F
330
1F
100
AcDbEntity
  8
Sheet_View_1_Drawing_1
 62
    18
420
        0
 48
25.39999961853027
370
    50
100
AcDbCircle
 10
112.5269869025721
 20
234.2857841522045
 30
0.0
 40
23.74995004295675
100
AcDbArc
 50
275.8810032517064
 51
276.8378908256869
  0
LINE
  5
110
330
1F
100
AcDbEntity
  8
Sheet_View_1_Drawing_1
 62
    18
420
        0
 48
25.39999961853027
370
    50
100
AcDbLine
 10
90.52698136878473
 20
210.7858338035637
 30
0.0
 11
134.5269813687847
 21
210.7858338035637
 31
0.0
  0
ARC
  5
111
330
1F
100
AcDbEntity
  8
Sheet_View_1_Drawing_1
 62
    18
420
        0
 48
25.39999961853027
370
    50
100
AcDbCircle
 10
112.5270311652782
 20
234.2858393535263
 30
0.0
 40
23.74994989692879
100
AcDbArc
 50
5.881003248764634
 51
6.837890828628785
  0
LINE
  5
112
330
1F
100
AcDbEntity
  8
Sheet_View_1_Drawing_1
 62
    18
420
        0
 48
25.39999961853027
370
    50
100
AcDbLine
 10
87.77698136878473
 20
209.2858338035636
 30
0.0
 11
137.2769813687848
 21
209.2858338035636
 31
0.0
  0
ARC
  5
113
330
1F
100
AcDbEntity
  8
Sheet_View_1_Drawing_1
 62
    18
420
        0
 48
25.39999961853027
370
    50
100
AcDbCircle
 10
96.5055113987726
 20
225.0358338035637
 30
0.0
 40
1.500000000000032
100
AcDbArc
 50
179.9999999999994
 51
300.0
  0
LINE
  5
114
330
1F
100
AcDbEntity
  8
Sheet_View_1_Drawing_1
 62
    18
420
        0
 48
25.39999961853027
370
    50
100
AcDbLine
 10
136.1519813687847
 20
231.8523435118221
 30
0.0
 11
136.1519813687847
 21
211.6608338035636
 31
0.0
  0
ARC
  5
115
330
1F
100
AcDbEntity
  8
Sheet_View_1_Drawing_1
 62
    18
420
        0
 48
25.39999961853027
370
    50
100
AcDbCircle
 10
94.02698136878473
 20
234.2858338035637
 30
0.0
 40
1.500000000000028
100
AcDbArc
 50
179.9999999999989
 51
270.0
  0
LINE
  5
116
330
1F
100
AcDbEntity
  8
Sheet_View_1_Drawing_1
 62
    18
420
        0
 48
25.39999961853027
370
    50
100
AcDbLine
 10
88.90198136878475
 20
236.7193240953051
 30
0.0
 11
88.90198136878475
 21
256.9108338035636
 31
0.0
  0
ARC
  5
117
330
1F
100
AcDbEntity
  8
Sheet_View_1_Drawing_1
 62
    18
420
        0
 48
25.39999961853027
370
    50
100
AcDbCircle
 10
122.4862735123058
 20
240.0358338035637
 30
0.0
 40
1.500000000000018
100
AcDbArc
 50
179.9999999999978
 51
299.999999999999
  0
LINE
  5
118
330
1F
100
AcDbEntity
  8
Sheet_View_1_Drawing_1
 62
    18
420
        0
 48
25.39999961853027
370
    50
100
AcDbLine
 10
110.0934910770433
 20
210.6608338035636
 30
0.0
 11
89.90198136878475
 21
210.6608338035636
 31
0.0
  0
ARC
  5
119
330
1F
100
AcDbEntity
  8
Sheet_View_1_Drawing_1
 62
    18
420
        0
 48
25.39999961853027
370
    50
100
AcDbCircle
 10
106.7769813687847
 20
244.2451259470847
 30
0.0
 40
1.500000000000012
100
AcDbArc
 50
0.0000000000010856
 51
29.99999999999973
  0
LINE
  5
11A
330
1F
100
AcDbEntity
  8
Sheet_View_1_Drawing_1
 62
    18
420
        0
 48
25.39999961853027
370
    50
100
AcDbLine
 10
135.1519813687847
 20
210.6608338035636
 30
0.0
 11
114.9604716605262
 21
210.6608338035636
 31
0.0
  0
ARC
  5
11B
330
1F
100
AcDbEntity
  8
Sheet_View_1_Drawing_1
 62
    18
420
        0
 48
25.39999961853027
370
    50
100
AcDbCircle
 10
121.7769813687847
 20
250.3073037735758
 30
0.0
 40
1.5
100
AcDbArc
 50
330.0000000000006
 51
0.000000000000573
  0
LINE
  5
11C
330
1F
100
AcDbEntity
  8
Sheet_View_1_Drawing_1
 62
    18
420
        0
 48
25.39999961853027
370
    50
100
AcDbLine
 10
114.9604716605262
 20
257.9108338035636
 30
0.0
 11
135.1519813687847
 21
257.9108338035636
 31
0.0
  0
ARC
  5
11D
330
1F
100
AcDbEntity
  8
Sheet_View_1_Drawing_1
 62
    18
420
        0
 48
25.39999961853027
370
    50
100
AcDbCircle
 10
102.5676892252637
 20
240.0358338035637
 30
0.0
 40
1.5
100
AcDbArc
 50
239.9999999999994
 51
0.000000000000573
  0
LINE
  5
11E
330
1F
100
AcDbEntity
  8
Sheet_View_1_Drawing_1
 62
    18
420
        0
 48
25.39999961853027
370
    50
100
AcDbLine
 10
137.2769813687848
 20
259.2858338035636
 30
0.0
 11
87.77698136878473
 21
259.2858338035636
 31
0.0
  0
ARC
  5
11F
330
1F
100
AcDbEntity
  8
Sheet_View_1_Drawing_1
 62
    18
420
        0
 48
25.39999961853027
370
    50
100
AcDbCircle
 10
128.5484513387968
 20
243.5358338035637
 30
0.0
 40
1.5
100
AcDbArc
 50
299.9999999999994
 51
0.000000000000573
  0
LINE
  5
120
330
1F
100
AcDbEntity
  8
Sheet_View_1_Drawing_1
 62
    18
420
        0
 48
25.39999961853027
370
    50
100
AcDbLine
 10
87.52698136878473
 20
259.0358338035636
 30
0.0
 11
87.52698136878473
 21
209.5358338035636
 31
0.0
  0
ARC
  5
121
330
1F
100
AcDbEntity
  8
Sheet_View_1_Drawing_1
 62
    18
420
        0
 48
25.39999961853027
370
    50
100
AcDbCircle
 10
128.5484513387968
 20
243.5358338035637
 30
0.0
 40
1.5
100
AcDbArc
 50
0.0000000000010856
 51
120.0
  0
LINE
  5
122
330
1F
100
AcDbEntity
  8
Sheet_View_1_Drawing_1
 62
    18
420
        0
 48
25.39999961853027
370
    50
100
AcDbLine
 10
88.90198136878475
 20
211.6608338035636
 30
0.0
 11
88.90198136878475
 21
231.8523435118221
 31
0.0
  0
ARC
  5
123
330
1F
100
AcDbEntity
  8
Sheet_View_1_Drawing_1
 62
    18
420
        0
 48
25.39999961853027
370
    50
100
AcDbCircle
 10
122.4862735123058
 20
240.0358338035637
 30
0.0
 40
1.5
100
AcDbArc
 50
119.9999999999995
 51
179.9999999999994
  0
LINE
  5
124
330
1F
100
AcDbEntity
  8
Sheet_View_1_Drawing_1
 62
    18
420
        0
 48
25.39999961853027
370
    50
100
AcDbLine
 10
137.5269813687847
 20
209.5358338035636
 30
0.0
 11
137.5269813687847
 21
259.0358338035636
 31
0.0
  0
ARC
  5
125
330
1F
100
AcDbEntity
  8
Sheet_View_1_Drawing_1
 62
    18
420
        0
 48
25.39999961853027
370
    50
100
AcDbCircle
 10
112.5269813687847
 20
226.7858338035637
 30
0.0
 40
1.5
100
AcDbArc
 50
359.9999999999989
 51
179.9999999999994
  0
LINE
  5
126
330
1F
100
AcDbEntity
  8
Sheet_View_1_Drawing_1
 62
    18
420
        0
 48
25.39999961853027
370
    50
100
AcDbLine
 10
136.1519813687847
 20
256.9108338035636
 30
0.0
 11
136.1519813687847
 21
236.7193240953051
 31
0.0
  0
ARC
  5
127
330
1F
100
AcDbEntity
  8
Sheet_View_1_Drawing_1
 62
    18
420
        0
 48
25.39999961853027
370
    50
100
AcDbCircle
 10
103.2769813687847
 20
250.3073037735758
 30
0.0
 40
1.5
100
AcDbArc
 50
29.99999999999812
 51
179.9999999999994
  0
LINE
  5
128
330
1F
100
AcDbEntity
  8
Sheet_View_1_Drawing_1
 62
    18
420
        0
 48
25.39999961853027
370
    50
100
AcDbLine
 10
89.90198136878475
 20
257.9108338035636
 30
0.0
 11
110.0934910770433
 21
257.9108338035636
 31
0.0
  0
ARC
  5
129
330
1F
100
AcDbEntity
  8
Sheet_View_1_Drawing_1
 62
    18
420
        0
 48
25.39999961853027
370
    50
100
AcDbCircle
 10
121.7769813687847
 20
218.2643638335516
 30
0.0
 40
1.5
100
AcDbArc
 50
210.0
 51
0.000000000000573
  0
ARC
  5
12A
330
1F
100
AcDbEntity
  8
Sheet_View_1_Drawing_1
 62
    18
420
        0
 48
25.39999961853027
370
    50
100
AcDbCircle
 10
137.2769813687848
 20
259.0358338035636
 30
0.0
 40
0.25
100
AcDbArc
 50
45.0
 51
90.0
  0
ARC
  5
12B
330
1F
100
AcDbEntity
  8
Sheet_View_1_Drawing_1
 62
    18
420
        0
 48
25.39999961853027
370
    50
100
AcDbCircle
 10
102.5676892252637
 20
228.5358338035637
 30
0.0
 40
1.5
100
AcDbArc
 50
300.0000000000009
 51
0.000000000000573
  0
ARC
  5
12C
330
1F
100
AcDbEntity
  8
Sheet_View_1_Drawing_1
 62
    18
420
        0
 48
25.39999961853027
370
    50
100
AcDbCircle
 10
89.90198136878475
 20
211.6608338035636
 30
0.0
 40
1.0
100
AcDbArc
 50
224.9999999999989
 51
270.0
  0
ARC
  5
12D
330
1F
100
AcDbEntity
  8
Sheet_View_1_Drawing_1
 62
    18
420
        0
 48
25.39999961853027
370
    50
100
AcDbCircle
 10
96.50551139877261
 20
243.5358338035637
 30
0.0
 40
1.499999999999975
100
AcDbArc
 50
179.9999999999989
 51
239.9999999999994
  0
ARC
  5
12E
330
1F
100
AcDbEntity
  8
Sheet_View_1_Drawing_1
 62
    18
420
        0
 48
25.39999961853027
370
    50
100
AcDbCircle
 10
135.1519813687847
 20
256.9108338035636
 30
0.0
 40
1.0
100
AcDbArc
 50
45.0
 51
90.0
  0
ARC
  5
12F
330
1F
100
AcDbEntity
  8
Sheet_View_1_Drawing_1
 62
    18
420
        0
 48
25.39999961853027
370
    50
100
AcDbCircle
 10
103.2769813687847
 20
218.2643638335516
 30
0.0
 40
1.500000000000014
100
AcDbArc
 50
179.9999999999989
 51
329.9999999999991
  0
ARC
  5
130
330
1F
100
AcDbEntity
  8
Sheet_View_1_Drawing_1
 62
    18
420
        0
 48
25.39999961853027
370
    50
100
AcDbCircle
 10
87.77698136878473
 20
259.0358338035636
 30
0.0
 40
0.2499999999999819
100
AcDbArc
 50
90.00000000001303
 51
135.0000000000046
  0
ARC
  5
131
330
1F
100
AcDbEntity
  8
Sheet_View_1_Drawing_1
 62
    18
420
        0
 48
25.39999961853027
370
    50
100
AcDbCircle
 10
112.5269813687847
 20
252.7858338035637
 30
0.0
 40
1.5
100
AcDbArc
 50
0.000000000000573
 51
179.9999999999994
  0
ARC
  5
132
330
1F
100
AcDbEntity
  8
Sheet_View_1_Drawing_1
 62
    18
420
        0
 48
25.39999961853027
370
    50
100
AcDbCircle
 10
87.77698136878473
 20
259.0358338035636
 30
0.0
 40
0.25
100
AcDbArc
 50
134.9999999999954
 51
179.9999999999994
  0
ARC
  5
133
330
1F
100
AcDbEntity
  8
Sheet_View_1_Drawing_1
 62
    18
420
        0
 48
25.39999961853027
370
    50
100
AcDbCircle
 10
112.5269813687847
 20
215.7858338035636
 30
0.0
 40
1.5
100
AcDbArc
 50
180.0000000000022
 51
0.000000000000573
  0
ARC
  5
134
330
1F
100
AcDbEntity
  8
Sheet_View_1_Drawing_1
 62
    18
420
        0
 48
25.39999961853027
370
    50
100
AcDbCircle
 10
87.77698136878473
 20
209.5358338035636
 30
0.0
 40
0.25
100
AcDbArc
 50
225.0000000000046
 51
270.0
  0
ARC
  5
135
330
1F
100
AcDbEntity
  8
Sheet_View_1_Drawing_1
 62
    18
420
        0
 48
25.39999961853027
370
    50
100
AcDbCircle
 10
112.5269813687847
 20
234.2858338035636
 30
0.0
 40
25.45760497571903
100
AcDbArc
 50
79.12018182849684
 51
100.879818171503
  0
ARC
  5
136
330
1F
100
AcDbEntity
  8
Sheet_View_1_Drawing_1
 62
    18
420
        0
 48
25.39999961853027
370
    50
100
AcDbCircle
 10
135.1519813687847
 20
211.6608338035636
 30
0.0
 40
1.0
100
AcDbArc
 50
315.0
 51
0.000000000000573
  0
ARC
  5
137
330
1F
100
AcDbEntity
  8
Sheet_View_1_Drawing_1
 62
    18
420
        0
 48
25.39999961853027
370
    50
100
AcDbCircle
 10
112.5269813687847
 20
234.2858338035636
 30
0.0
 40
26.75
100
AcDbArc
 50
179.9999999999994
 51
200.8397616791235
  0
ARC
  5
138
330
1F
100
AcDbEntity
  8
Sheet_View_1_Drawing_1
 62
    18
420
        0
 48
25.39999961853027
370
    50
100
AcDbCircle
 10
89.90198136878475
 20
256.9108338035636
 30
0.0
 40
1.0
100
AcDbArc
 50
135.0000000000006
 51
179.9999999999994
  0
LINE
  5
139
330
1F
100
AcDbEntity
  8
Sheet_View_1_Drawing_1
 62
    18
420
        0
 48
25.39999961853027
370
    50
100
AcDbLine
 10
137.526928781416
 20
234.2858338035636
 30
0.0
 11
137.9845863445024
 21
234.2858338035636
 31
0.0
  0
ARC
  5
13A
330
1F
100
AcDbEntity
  8
Sheet_View_1_Drawing_1
 62
    18
420
        0
 48
25.39999961853027
370
    50
100
AcDbCircle
 10
135.1519813687847
 20
211.6608338035636
 30
0.0
 40
0.999999999999988
100
AcDbArc
 50
270.0
 51
315.0000000000011
  0
ARC
  5
13B
330
1F
100
AcDbEntity
  8
Sheet_View_1_Drawing_1
 62
    18
420
        0
 48
25.39999961853027
370
    50
100
AcDbCircle
 10
112.5269813687847
 20
234.2858338035637
 30
0.0
 40
19.00000000000001
100
AcDbArc
 50
235.6770862497544
 51
244.3229269696282
  0
ARC
  5
13C
330
1F
100
AcDbEntity
  8
Sheet_View_1_Drawing_1
 62
    18
420
        0
 48
25.39999961853027
370
    50
100
AcDbCircle
 10
87.77698136878473
 20
209.5358338035636
 30
0.0
 40
0.2499999999999819
100
AcDbArc
 50
179.9999999999935
 51
224.9999999999954
  0
ARC
  5
13D
330
1F
100
AcDbEntity
  8
Sheet_View_1_Drawing_1
 62
    18
420
        0
 48
25.39999961853027
370
    50
100
AcDbCircle
 10
112.5269813687847
 20
234.2858338035637
 30
0.0
 40
18.99999999999998
100
AcDbArc
 50
145.6770503924253
 51
154.3229018628175
  0
ARC
  5
13E
330
1F
100
AcDbEntity
  8
Sheet_View_1_Drawing_1
 62
    18
420
        0
 48
25.39999961853027
370
    50
100
AcDbCircle
 10
137.2769813687848
 20
259.0358338035636
 30
0.0
 40
0.2499999999999618
100
AcDbArc
 50
0.000000000000573
 51
45.0
  0
ARC
  5
13F
330
1F
100
AcDbEntity
  8
Sheet_View_1_Drawing_1
 62
    18
420
        0
 48
25.39999961853027
370
    50
100
AcDbCircle
 10
112.5269813687847
 20
234.2858338035637
 30
0.0
 40
19.00000000000002
100
AcDbArc
 50
325.6770940209777
 51
334.3229537237683
  0
ARC
  5
140
330
1F
100
AcDbEntity
  8
Sheet_View_1_Drawing_1
 62
    18
420
        0
 48
25.39999961853027
370
    50
100
AcDbCircle
 10
137.2769813687848
 20
209.5358338035636
 30
0.0
 40
0.2499999999999618
100
AcDbArc
 50
270.0
 51
315.0
  0
ARC
  5
141
330
1F
100
AcDbEntity
  8
Sheet_View_1_Drawing_1
 62
    18
420
        0
 48
25.39999961853027
370
    50
100
AcDbCircle
 10
112.5269813687847
 20
234.2858338035637
 30
0.0
 40
9.372983346207391
100
AcDbArc
 50
80.79108797392126
 51
99.20887672231629
  0
ARC
  5
142
330
1F
100
AcDbEntity
  8
Sheet_View_1_Drawing_1
 62
    18
420
        0
 48
25.39999961853027
370
    50
100
AcDbCircle
 10
135.1519813687847
 20
256.9108338035636
 30
0.0
 40
1.000000000000008
100
AcDbArc
 50
0.000000000000573
 51
45.0
  0
ARC
  5
143
330
1F
100
AcDbEntity
  8
Sheet_View_1_Drawing_1
 62
    18
420
        0
 48
25.39999961853027
370
    50
100
AcDbCircle
 10
112.5269813687847
 20
234.2858338035637
 30
0.0
 40
14.99999999999999
100
AcDbArc
 50
24.26083337184454
 51
35.73917432637811
  0
ARC
  5
144
330
1F
100
AcDbEntity
  8
Sheet_View_1_Drawing_1
 62
    18
420
        0
 48
25.39999961853027
370
    50
100
AcDbCircle
 10
137.2769813687848
 20
209.5358338035636
 30
0.0
 40
0.2499999999999716
100
AcDbArc
 50
315.0
 51
0.000000000000573
  0
ARC
  5
145
330
1F
100
AcDbEntity
  8
Sheet_View_1_Drawing_1
 62
    18
420
        0
 48
25.39999961853027
370
    50
100
AcDbCircle
 10
112.5269813687847
 20
234.2858338035637
 30
0.0
 40
14.99999999999999
100
AcDbArc
 50
144.2608147308793
 51
155.7391556854133
  0
ARC
  5
146
330
1F
100
AcDbEntity
  8
Sheet_View_1_Drawing_1
 62
    18
420
        0
 48
25.39999961853027
370
    50
100
AcDbCircle
 10
89.90198136878475
 20
211.6608338035636
 30
0.0
 40
0.999999999999988
100
AcDbArc
 50
179.9999999999984
 51
224.9999999999989
  0
ARC
  5
147
330
1F
100
AcDbEntity
  8
Sheet_View_1_Drawing_1
 62
    18
420
        0
 48
25.39999961853027
370
    50
100
AcDbCircle
 10
112.5269813687847
 20
234.2858338035637
 30
0.0
 40
15.00000000000001
100
AcDbArc
 50
264.2608404654755
 51
275.7391814200092
  0
ARC
  5
148
330
1F
100
AcDbEntity
  8
Sheet_View_1_Drawing_1
 62
    18
420
        0
 48
25.39999961853027
370
    50
100
AcDbCircle
 10
89.90198136878475
 20
256.9108338035636
 30
0.0
 40
1.000000000000008
100
AcDbArc
 50
90.00000000000082
 51
135.0
  0
ARC
  5
149
330
1F
100
AcDbEntity
  8
Sheet_View_1_Drawing_1
 62
    18
420
        0
 48
25.39999961853027
370
    50
100
AcDbCircle
 10
112.5269813687847
 20
234.2858338035637
 30
0.0
 40
14.99999999999999
100
AcDbArc
 50
174.2608187603667
 51
179.9999999999994
  0
ARC
  5
14A
330
1F
100
AcDbEntity
  8
Sheet_View_1_Drawing_1
 62
    18
420
        0
 48
25.39999961853027
370
    50
100
AcDbCircle
 10
112.5269825089034
 20
234.2858203175291
 30
0.0
 40
23.75001353187496
100
AcDbArc
 50
93.7840074857831
 51
95.88100366073863
  0
ARC
  5
14B
330
1F
100
AcDbEntity
  8
Sheet_View_1_Drawing_1
 62
    18
420
        0
 48
25.39999961853027
370
    50
100
AcDbCircle
 10
112.5269813687847
 20
234.2858338035637
 30
0.0
 40
7.436491673103751
100
AcDbArc
 50
258.4829680986417
 51
281.5170591131252
  0
LINE
  5
14C
330
1F
100
AcDbEntity
  8
Sheet_View_1_Drawing_1
 62
    18
420
        0
 48
25.39999961853027
370
    50
100
AcDbLine
 10
87.6002046734888
 20
209.5358338035649
 30
0.0
 11
87.52698136878465
 21
209.5358338035649
 31
0.0
  0
ARC
  5
14D
330
1F
100
AcDbEntity
  8
Sheet_View_1_Drawing_1
 62
    18
420
        0
 48
25.39999961853027
370
    50
100
AcDbCircle
 10
112.5269813687847
 20
234.2858338035637
 30
0.0
 40
7.436491673103705
100
AcDbArc
 50
179.9999999999994
 51
191.5170321578421
  0
LINE
  5
14E
330
1F
100
AcDbEntity
  8
Sheet_View_1_Drawing_1
 62
    18
420
        0
 48
25.39999961853027
370
    50
100
AcDbLine
 10
136.1519813687844
 20
211.6608338035637
 30
0.0
 11
136.2252046734886
 21
211.6608338035637
 31
0.0
  0
ARC
  5
14F
330
1F
100
AcDbEntity
  8
Sheet_View_1_Drawing_1
 62
    18
420
        0
 48
25.39999961853027
370
    50
100
AcDbCircle
 10
89.90198136878475
 20
256.9108338035636
 30
0.0
 40
0.8499999999999659
100
AcDbArc
 50
90.0
 51
179.9999999999994
  0
LINE
  5
150
330
1F
100
AcDbEntity
  8
Sheet_View_1_Drawing_1
 62
    18
420
        0
 48
25.39999961853027
370
    50
100
AcDbLine
 10
87.77698136878604
 20
209.3590571082676
 30
0.0
 11
87.77698136878604
 21
209.2858338035635
 31
0.0
  0
LINE
  5
151
330
1F
100
AcDbEntity
  8
Sheet_View_1_Drawing_1
 62
    18
420
        0
 48
25.39999961853027
370
    50
100
AcDbLine
 10
90.25426052079364
 20
257.7608338035636
 30
0.0
 11
89.90198136878475
 21
257.7608338035636
 31
0.0
  0
LINE
  5
152
330
1F
100
AcDbEntity
  8
Sheet_View_1_Drawing_1
 62
    18
420
        0
 48
25.39999961853027
370
    50
100
AcDbLine
 10
88.8287580640809
 20
256.9108338035635
 30
0.0
 11
88.90198136878506
 21
256.9108338035635
 31
0.0
  0
LINE
  5
153
330
1F
100
AcDbEntity
  8
Sheet_View_1_Drawing_1
 62
    18
420
        0
 48
25.39999961853027
370
    50
100
AcDbLine
 10
134.7996961264722
 20
210.8108338035636
 30
0.0
 11
135.1519813687847
 21
210.8108338035636
 31
0.0
  0
LINE
  5
154
330
1F
100
AcDbEntity
  8
Sheet_View_1_Drawing_1
 62
    18
420
        0
 48
25.39999961853027
370
    50
100
AcDbLine
 10
137.4537580640807
 20
259.0358338035623
 30
0.0
 11
137.5269813687848
 21
259.0358338035623
 31
0.0
  0
LINE
  5
155
330
1F
100
AcDbEntity
  8
Sheet_View_1_Drawing_1
 62
    18
420
        0
 48
25.39999961853027
370
    50
100
AcDbLine
 10
136.0019813687859
 20
256.9108338035635
 30
0.0
 11
136.1080473859614
 21
256.9108338035635
 31
0.0
  0
ARC
  5
156
330
1F
100
AcDbEntity
  8
Sheet_View_1_Drawing_1
 62
    18
420
        0
 48
25.39999961853027
370
    50
100
AcDbCircle
 10
112.5269817936708
 20
234.2858388287207
 30
0.0
 40
23.74999495775604
100
AcDbArc
 50
84.11899551917273
 51
86.21599333430558
  0
LINE
  5
157
330
1F
100
AcDbEntity
  8
Sheet_View_1_Drawing_1
 62
    18
420
        0
 48
25.39999961853027
370
    50
100
AcDbLine
 10
135.1519813687846
 20
210.704767786387
 30
0.0
 11
135.1519813687846
 21
210.8108338035624
 31
0.0
  0
ARC
  5
158
330
1F
100
AcDbEntity
  8
Sheet_View_1_Drawing_1
 62
    18
420
        0
 48
25.39999961853027
370
    50
100
AcDbCircle
 10
112.5269679028767
 20
234.2858326651465
 30
0.0
 40
23.75001351168015
100
AcDbArc
 50
3.784007484891507
 51
5.881003661630324
  0
ARC
  5
159
330
1F
100
AcDbEntity
  8
Sheet_View_1_Drawing_1
 62
    18
420
        0
 48
25.39999961853027
370
    50
100
AcDbCircle
 10
112.5269813687847
 20
234.2858338035636
 30
0.0
 40
25.457604975719
100
AcDbArc
 50
259.1199168699159
 51
280.8800831300843
  0
ARC
  5
15A
330
1F
100
AcDbEntity
  8
Sheet_View_1_Drawing_1
 62
    18
420
        0
 48
25.39999961853027
370
    50
100
AcDbCircle
 10
112.5269763511111
 20
234.2858342278169
 30
0.0
 40
23.74999496526494
100
AcDbArc
 50
174.1189955195042
 51
176.215993333974
  0
ARC
  5
15B
330
1F
100
AcDbEntity
  8
Sheet_View_1_Drawing_1
 62
    18
420
        0
 48
25.39999961853027
370
    50
100
AcDbCircle
 10
112.5269815165729
 20
234.2858351242992
 30
0.0
 40
23.74999867107211
100
AcDbArc
 50
83.1621101538097
 51
84.1162286923806
  0
LINE
  5
15C
330
1F
100
AcDbEntity
  8
Sheet_View_1_Drawing_1
 62
    18
420
        0
 48
25.39999961853027
370
    50
100
AcDbLine
 10
136.2252046734886
 20
256.9108338035635
 30
0.0
 11
136.1519813687844
 21
256.9108338035635
 31
0.0
  0
LINE
  5
15D
330
1F
100
AcDbEntity
  8
Sheet_View_1_Drawing_1
 62
    18
420
        0
 48
25.39999961853027
370
    50
100
AcDbLine
 10
89.90198136878483
 20
210.6608338035639
 30
0.0
 11
89.90198136878483
 21
210.704767786387
 31
0.0
  0
LINE
  5
15E
330
1F
100
AcDbEntity
  8
Sheet_View_1_Drawing_1
 62
    18
420
        0
 48
25.39999961853027
370
    50
100
AcDbLine
 10
89.90198136878483
 20
257.9840571082674
 30
0.0
 11
89.90198136878483
 21
257.9108338035633
 31
0.0
  0
LINE
  5
15F
330
1F
100
AcDbEntity
  8
Sheet_View_1_Drawing_1
 62
    18
420
        0
 48
25.39999961853027
370
    50
100
AcDbLine
 10
88.94591535160812
 20
256.9108338035635
 30
0.0
 11
88.90198136878506
 21
256.9108338035635
 31
0.0
  0
LINE
  5
160
330
1F
100
AcDbEntity
  8
Sheet_View_1_Drawing_1
 62
    18
420
        0
 48
25.39999961853027
370
    50
100
AcDbLine
 10
88.90198136878506
 20
211.6608338035637
 30
0.0
 11
88.8287580640809
 21
211.6608338035637
 31
0.0
  0
LINE
  5
161
330
1F
100
AcDbEntity
  8
Sheet_View_1_Drawing_1
 62
    18
420
        0
 48
25.39999961853027
370
    50
100
AcDbLine
 10
136.1519813687844
 20
211.6608338035637
 30
0.0
 11
136.1080473859614
 21
211.6608338035637
 31
0.0
  0
LINE
  5
162
330
1F
100
AcDbEntity
  8
Sheet_View_1_Drawing_1
 62
    18
420
        0
 48
25.39999961853027
370
    50
100
AcDbLine
 10
87.77698136878604
 20
259.2126104988595
 30
0.0
 11
87.77698136878604
 21
259.2858338035637
 31
0.0
  0
ARC
  5
163
330
1F
100
AcDbEntity
  8
Sheet_View_1_Drawing_1
 62
    18
420
        0
 48
25.39999961853027
370
    50
100
AcDbCircle
 10
103.2769813687847
 20
250.3073037735758
 30
0.0
 40
1.499999999999988
100
AcDbArc
 50
180.0000000000011
 51
210.0000000000003
  0
LINE
  5
164
330
1F
100
AcDbEntity
  8
Sheet_View_1_Drawing_1
 62
    18
420
        0
 48
25.39999961853027
370
    50
100
AcDbLine
 10
89.90198136878483
 20
210.6608338035639
 30
0.0
 11
89.90198136878483
 21
210.5876104988598
 31
0.0
  0
ARC
  5
165
330
1F
100
AcDbEntity
  8
Sheet_View_1_Drawing_1
 62
    18
420
        0
 48
25.39999961853027
370
    50
100
AcDbCircle
 10
131.0269813687847
 20
234.2858338035637
 30
0.0
 40
1.5
100
AcDbArc
 50
270.0
 51
0.000000000000573
  0
LINE
  5
166
330
1F
100
AcDbEntity
  8
Sheet_View_1_Drawing_1
 62
    18
420
        0
 48
25.39999961853027
370
    50
100
AcDbLine
 10
135.1519813687846
 20
257.9840571082674
 30
0.0
 11
135.1519813687846
 21
257.9108338035633
 31
0.0
  0
ARC
  5
167
330
1F
100
AcDbEntity
  8
Sheet_View_1_Drawing_1
 62
    18
420
        0
 48
25.39999961853027
370
    50
100
AcDbCircle
 10
120.0269813687847
 20
234.2858338035637
 30
0.0
 40
1.500000000000028
100
AcDbArc
 50
180.0000000000011
 51
270.0
  0
LINE
  5
168
330
1F
100
AcDbEntity
  8
Sheet_View_1_Drawing_1
 62
    18
420
        0
 48
25.39999961853027
370
    50
100
AcDbLine
 10
87.6002046734888
 20
259.0358338035623
 30
0.0
 11
87.52698136878465
 21
259.0358338035623
 31
0.0
  0
ARC
  5
169
330
1F
100
AcDbEntity
  8
Sheet_View_1_Drawing_1
 62
    18
420
        0
 48
25.39999961853027
370
    50
100
AcDbCircle
 10
106.7769813687847
 20
244.2451259470847
 30
0.0
 40
1.5
100
AcDbArc
 50
209.9999999999991
 51
0.000000000000573
  0
LINE
  5
16A
330
1F
100
AcDbEntity
  8
Sheet_View_1_Drawing_1
 62
    18
420
        0
 48
25.39999961853027
370
    50
100
AcDbLine
 10
137.5269813687848
 20
209.5358338035649
 30
0.0
 11
137.4537580640807
 21
209.5358338035649
 31
0.0
  0
CIRCLE
  5
16B
330
1F
100
AcDbEntity
  8
Sheet_View_1_Drawing_1
 62
    18
420
        0
 48
25.39999961853027
370
    50
100
AcDbCircle
 10
-112.5269813687847
 20
234.2858338035637
 30
0.0
 40
20.5
210
0.0
220
0.0
230
-1.0
  0
LINE
  5
16C
330
1F
100
AcDbEntity
  8
Sheet_View_1_Drawing_1
 62
    18
420
        0
 48
25.39999961853027
370
    50
100
AcDbLine
 10
135.1519813687846
 20
210.6608338035639
 30
0.0
 11
135.1519813687846
 21
210.5876104988598
 31
0.0
  0
ARC
  5
16D
330
1F
100
AcDbEntity
  8
Sheet_View_1_Drawing_1
 62
    18
420
        0
 48
25.39999961853027
370
    50
100
AcDbCircle
 10
122.4862735123058
 20
228.5358338035637
 30
0.0
 40
1.5
100
AcDbArc
 50
59.99999999999946
 51
179.9999999999994
  0
LINE
  5
16E
330
1F
100
AcDbEntity
  8
Sheet_View_1_Drawing_1
 62
    18
420
        0
 48
25.39999961853027
370
    50
100
AcDbLine
 10
137.2769813687835
 20
209.2858338035635
 30
0.0
 11
137.2769813687835
 21
209.3590571082676
 31
0.0
  0
ARC
  5
16F
330
1F
100
AcDbEntity
  8
Sheet_View_1_Drawing_1
 62
    18
420
        0
 48
25.39999961853027
370
    50
100
AcDbCircle
 10
118.2769813687847
 20
244.2451259470847
 30
0.0
 40
1.5
100
AcDbArc
 50
149.9999999999995
 51
179.9999999999994
  0
LINE
  5
170
330
1F
100
AcDbEntity
  8
Sheet_View_1_Drawing_1
 62
    18
420
        0
 48
25.39999961853027
370
    50
100
AcDbLine
 10
137.2769813687835
 20
259.2126104988595
 30
0.0
 11
137.2769813687835
 21
259.2858338035637
 31
0.0
  0
ARC
  5
171
330
1F
100
AcDbEntity
  8
Sheet_View_1_Drawing_1
 62
    18
420
        0
 48
25.39999961853027
370
    50
100
AcDbCircle
 10
102.5676892252637
 20
240.0358338035637
 30
0.0
 40
1.499999999999958
100
AcDbArc
 50
359.9999999999989
 51
59.99999999999846
  0
ARC
  5
172
330
1F
100
AcDbEntity
  8
Sheet_View_1_Drawing_1
 62
    18
420
        0
 48
25.39999961853027
370
    50
100
AcDbCircle
 10
112.5269809448106
 20
234.2858287891928
 30
0.0
 40
23.74999496857901
100
AcDbArc
 50
264.1189955196506
 51
266.2159933338278
  0
ARC
  5
173
330
1F
100
AcDbEntity
  8
Sheet_View_1_Drawing_1
 62
    18
420
        0
 48
25.39999961853027
370
    50
100
AcDbCircle
 10
106.7769813687847
 20
224.3265416600426
 30
0.0
 40
1.5
100
AcDbArc
 50
359.9999999999989
 51
150.0
  0
ARC
  5
174
330
1F
100
AcDbEntity
  8
Sheet_View_1_Drawing_1
 62
    18
420
        0
 48
25.39999961853027
370
    50
100
AcDbCircle
 10
112.5269863692098
 20
234.2858333807685
 30
0.0
 40
23.7499949825721
100
AcDbArc
 50
354.1189955202684
 51
356.21599333321
  0
ARC
  5
175
330
1F
100
AcDbEntity
  8
Sheet_View_1_Drawing_1
 62
    18
420
        0
 48
25.39999961853027
370
    50
100
AcDbCircle
 10
112.5269813687847
 20
234.2858338035636
 30
0.0
 40
26.74999999999999
100
AcDbArc
 50
69.16037322851999
 51
110.8396267714799
  0
ARC
  5
176
330
1F
100
AcDbEntity
  8
Sheet_View_1_Drawing_1
 62
    18
420
        0
 48
25.39999961853027
370
    50
100
AcDbCircle
 10
112.5269948371573
 20
234.285834942189
 30
0.0
 40
23.75001351415304
100
AcDbArc
 50
183.7840074850007
 51
185.8810036615211
  0
ARC
  5
177
330
1F
100
AcDbEntity
  8
Sheet_View_1_Drawing_1
 62
    18
420
        0
 48
25.39999961853027
370
    50
100
AcDbCircle
 10
112.5269813687847
 20
234.2858338035637
 30
0.0
 40
19.00000000000001
100
AcDbArc
 50
205.6770734612092
 51
214.322914114726
  0
ARC
  5
178
330
1F
100
AcDbEntity
  8
Sheet_View_1_Drawing_1
 62
    18
420
        0
 48
25.39999961853027
370
    50
100
AcDbCircle
 10
112.5269802299654
 20
234.2858472742302
 30
0.0
 40
23.75001351645481
100
AcDbArc
 50
273.7840074851023
 51
275.8810036614194
  0
ARC
  5
179
330
1F
100
AcDbEntity
  8
Sheet_View_1_Drawing_1
 62
    18
420
        0
 48
25.39999961853027
370
    50
100
AcDbCircle
 10
112.5269813687847
 20
234.2858338035637
 30
0.0
 40
18.99999999999999
100
AcDbArc
 50
55.67705816379882
 51
64.32292861682991
  0
ARC
  5
17A
330
1F
100
AcDbEntity
  8
Sheet_View_1_Drawing_1
 62
    18
420
        0
 48
25.39999961853027
370
    50
100
AcDbCircle
 10
112.5269813687847
 20
234.2858338035636
 30
0.0
 40
27.00000000000002
100
AcDbArc
 50
337.8084579037329
 51
0.000000000000573
  0
ARC
  5
17B
330
1F
100
AcDbEntity
  8
Sheet_View_1_Drawing_1
 62
    18
420
        0
 48
25.39999961853027
370
    50
100
AcDbCircle
 10
112.5269813687847
 20
234.2858338035637
 30
0.0
 40
9.3729833462074
100
AcDbArc
 50
170.7910882648881
 51
179.9999999999994
  0
ARC
  5
17C
330
1F
100
AcDbEntity
  8
Sheet_View_1_Drawing_1
 62
    18
420
        0
 48
25.39999961853027
370
    50
100
AcDbCircle
 10
112.5269800808335
 20
234.2858337610272
 30
0.0
 40
23.75000128795125
100
AcDbArc
 50
0.0000001026169929
 51
3.784006784352574
  0
ARC
  5
17D
330
1F
100
AcDbEntity
  8
Sheet_View_1_Drawing_1
 62
    18
420
        0
 48
25.39999961853027
370
    50
100
AcDbCircle
 10
112.5269813687847
 20
234.2858338035637
 30
0.0
 40
15.00000000000001
100
AcDbArc
 50
324.2608443145867
 51
335.7391852691206
  0
ARC
  5
17E
330
1F
100
AcDbEntity
  8
Sheet_View_1_Drawing_1
 62
    18
420
        0
 48
25.39999961853027
370
    50
100
AcDbCircle
 10
112.5269813687847
 20
234.2858338032837
 30
0.0
 40
23.75000000027986
100
AcDbArc
 50
86.21599311302958
 51
93.78400688697035
  0
ARC
  5
17F
330
1F
100
AcDbEntity
  8
Sheet_View_1_Drawing_1
 62
    18
420
        0
 48
25.39999961853027
370
    50
100
AcDbCircle
 10
112.5269813687847
 20
234.2858338035637
 30
0.0
 40
14.99999999999999
100
AcDbArc
 50
234.2608336182429
 51
245.7391745727764
  0
ARC
  5
180
330
1F
100
AcDbEntity
  8
Sheet_View_1_Drawing_1
 62
    18
420
        0
 48
25.39999961853027
370
    50
100
AcDbCircle
 10
112.5269813687847
 20
234.2858338035636
 30
0.0
 40
27.0
100
AcDbArc
 50
157.8083289638994
 51
179.9999999999994
  0
ARC
  5
181
330
1F
100
AcDbEntity
  8
Sheet_View_1_Drawing_1
 62
    18
420
        0
 48
25.39999961853027
370
    50
100
AcDbCircle
 10
112.5269813687847
 20
234.2858338035636
 30
0.0
 40
23.5
100
AcDbArc
 50
179.9842912094024
 51
179.9999999999994
  0
ARC
  5
182
330
1F
100
AcDbEntity
  8
Sheet_View_1_Drawing_1
 62
    18
420
        0
 48
25.39999961853027
370
    50
100
AcDbCircle
 10
112.5269826567252
 20
234.2858338460996
 30
0.0
 40
23.75000128794046
100
AcDbArc
 50
180.0000001026162
 51
183.7840067843535
  0
LINE
  5
183
330
1F
100
AcDbEntity
  8
Sheet_View_1_Drawing_1
 62
    18
420
        0
 48
25.39999961853027
370
    50
100
AcDbLine
 10
89.05198136878474
 20
256.9108338035636
 30
0.0
 11
89.05198136878474
 21
256.5585484867779
 31
0.0
  0
ARC
  5
184
330
1F
100
AcDbEntity
  8
Sheet_View_1_Drawing_1
 62
    18
420
        0
 48
25.39999961853027
370
    50
100
AcDbCircle
 10
112.5269813687847
 20
234.2858338035636
 30
0.0
 40
26.99999999999999
100
AcDbArc
 50
179.9999999999994
 51
202.1916710361005
  0
LINE
  5
185
330
1F
100
AcDbEntity
  8
Sheet_View_1_Drawing_1
 62
    18
420
        0
 48
25.39999961853027
370
    50
100
AcDbLine
 10
88.94591535160812
 20
211.6608338035637
 30
0.0
 11
89.05198136878357
 21
211.6608338035637
 31
0.0
  0
LINE
  5
186
330
1F
100
AcDbEntity
  8
Sheet_View_1_Drawing_1
 62
    18
420
        0
 48
25.39999961853027
370
    50
100
AcDbLine
 10
135.1519813687846
 20
258.1608338035646
 30
0.0
 11
135.1519813687846
 21
257.9840571082674
 31
0.0
  0
ARC
  5
187
330
1F
100
AcDbEntity
  8
Sheet_View_1_Drawing_1
 62
    18
420
        0
 48
25.39999961853027
370
    50
100
AcDbCircle
 10
112.5269813687847
 20
234.2858338035636
 30
0.0
 40
25.45760497571902
100
AcDbArc
 50
169.1199146496046
 51
179.9999999999994
  0
LINE
  5
188
330
1F
100
AcDbEntity
  8
Sheet_View_1_Drawing_1
 62
    18
420
        0
 48
25.39999961853027
370
    50
100
AcDbLine
 10
137.2769813687835
 20
209.3590571082676
 30
0.0
 11
137.2769813687835
 21
209.5358338035649
 31
0.0
  0
LINE
  5
189
330
1F
100
AcDbEntity
  8
Sheet_View_1_Drawing_1
 62
    18
420
        0
 48
25.39999961853027
370
    50
100
AcDbLine
 10
88.90198136878506
 20
211.6608338035637
 30
0.0
 11
88.94591535160812
 21
211.6608338035637
 31
0.0
  0
LINE
  5
18A
330
1F
100
AcDbEntity
  8
Sheet_View_1_Drawing_1
 62
    18
420
        0
 48
25.39999961853027
370
    50
100
AcDbLine
 10
135.1519813687846
 20
210.5876104988598
 30
0.0
 11
135.1519813687846
 21
210.4108338035625
 31
0.0
  0
LINE
  5
18B
330
1F
100
AcDbEntity
  8
Sheet_View_1_Drawing_1
 62
    18
420
        0
 48
25.39999961853027
370
    50
100
AcDbLine
 10
136.1080473859614
 20
256.9108338035635
 30
0.0
 11
136.1519813687844
 21
256.9108338035635
 31
0.0
  0
LINE
  5
18C
330
1F
100
AcDbEntity
  8
Sheet_View_1_Drawing_1
 62
    18
420
        0
 48
25.39999961853027
370
    50
100
AcDbLine
 10
88.8287580640809
 20
211.6608338035637
 30
0.0
 11
88.65198136878367
 21
211.6608338035637
 31
0.0
  0
ARC
  5
18D
330
1F
100
AcDbEntity
  8
Sheet_View_1_Drawing_1
 62
    18
420
        0
 48
25.39999961853027
370
    50
100
AcDbCircle
 10
102.5676892252637
 20
228.5358338035637
 30
0.0
 40
1.499999999999975
100
AcDbArc
 50
0.000000000000573
 51
120.0000000000006
  0
LINE
  5
18E
330
1F
100
AcDbEntity
  8
Sheet_View_1_Drawing_1
 62
    18
420
        0
 48
25.39999961853027
370
    50
100
AcDbLine
 10
137.2769813687835
 20
259.0358338035623
 30
0.0
 11
137.2769813687835
 21
259.2126104988595
 31
0.0
  0
ARC
  5
18F
330
1F
100
AcDbEntity
  8
Sheet_View_1_Drawing_1
 62
    18
420
        0
 48
25.39999961853027
370
    50
100
AcDbCircle
 10
121.7769813687847
 20
218.2643638335516
 30
0.0
 40
1.499999999999988
100
AcDbArc
 50
0.0000000000010856
 51
30.00000000000027
  0
LINE
  5
190
330
1F
100
AcDbEntity
  8
Sheet_View_1_Drawing_1
 62
    18
420
        0
 48
25.39999961853027
370
    50
100
AcDbLine
 10
89.90198136878483
 20
210.5876104988598
 30
0.0
 11
89.90198136878483
 21
210.4108338035625
 31
0.0
  0
ARC
  5
191
330
1F
100
AcDbEntity
  8
Sheet_View_1_Drawing_1
 62
    18
420
        0
 48
25.39999961853027
370
    50
100
AcDbCircle
 10
128.5484513387968
 20
225.0358338035637
 30
0.0
 40
1.5
100
AcDbArc
 50
0.000000000000573
 51
60.00000000000001
  0
LINE
  5
192
330
1F
100
AcDbEntity
  8
Sheet_View_1_Drawing_1
 62
    18
420
        0
 48
25.39999961853027
370
    50
100
AcDbLine
 10
89.90198136878483
 20
258.1608338035646
 30
0.0
 11
89.90198136878483
 21
257.9840571082674
 31
0.0
  0
ARC
  5
193
330
1F
100
AcDbEntity
  8
Sheet_View_1_Drawing_1
 62
    18
420
        0
 48
25.39999961853027
370
    50
100
AcDbCircle
 10
112.5269813687847
 20
234.2858338035636
 30
0.0
 40
27.0
100
AcDbArc
 50
0.000000000000573
 51
22.19154209626718
  0
LINE
  5
194
330
1F
100
AcDbEntity
  8
Sheet_View_1_Drawing_1
 62
    18
420
        0
 48
25.39999961853027
370
    50
100
AcDbLine
 10
137.2769813687835
 20
259.0358338035623
 30
0.0
 11
137.4537580640807
 21
259.0358338035623
 31
0.0
  0
ARC
  5
195
330
1F
100
AcDbEntity
  8
Sheet_View_1_Drawing_1
 62
    18
420
        0
 48
25.39999961853027
370
    50
100
AcDbCircle
 10
112.5269813687847
 20
234.2858338035636
 30
0.0
 40
26.75
100
AcDbArc
 50
159.1602383208764
 51
179.9999999999994
  0
LINE
  5
196
330
1F
100
AcDbEntity
  8
Sheet_View_1_Drawing_1
 62
    18
420
        0
 48
25.39999961853027
370
    50
100
AcDbLine
 10
87.77698136878604
 20
209.5358338035649
 30
0.0
 11
87.77698136878604
 21
209.3590571082676
 31
0.0
  0
ARC
  5
197
330
1F
100
AcDbEntity
  8
Sheet_View_1_Drawing_1
 62
    18
420
        0
 48
25.39999961853027
370
    50
100
AcDbCircle
 10
112.5269813687847
 20
234.2858338035637
 30
0.0
 40
19.00000000000003
100
AcDbArc
 50
265.6770952754574
 51
274.3229400452458
  0
LINE
  5
198
330
1F
100
AcDbEntity
  8
Sheet_View_1_Drawing_1
 62
    18
420
        0
 48
25.39999961853027
370
    50
100
AcDbLine
 10
136.4019813687858
 20
256.9108338035635
 30
0.0
 11
136.2252046734886
 21
256.9108338035635
 31
0.0
  0
ARC
  5
199
330
1F
100
AcDbEntity
  8
Sheet_View_1_Drawing_1
 62
    18
420
        0
 48
25.39999961853027
370
    50
100
AcDbCircle
 10
112.5269813687847
 20
234.2858338035637
 30
0.0
 40
14.99999999999997
100
AcDbArc
 50
54.26082542722352
 51
65.73916638175713
  0
LINE
  5
19A
330
1F
100
AcDbEntity
  8
Sheet_View_1_Drawing_1
 62
    18
420
        0
 48
25.39999961853027
370
    50
100
AcDbLine
 10
88.65198136878367
 20
256.9108338035635
 30
0.0
 11
88.8287580640809
 21
256.9108338035635
 31
0.0
  0
ARC
  5
19B
330
1F
100
AcDbEntity
  8
Sheet_View_1_Drawing_1
 62
    18
420
        0
 48
25.39999961853027
370
    50
100
AcDbCircle
 10
135.1519813687847
 20
211.6608338035636
 30
0.0
 40
0.8499999999999659
100
AcDbArc
 50
270.0
 51
0.000000000000573
  0
LINE
  5
19C
330
1F
100
AcDbEntity
  8
Sheet_View_1_Drawing_1
 62
    18
420
        0
 48
25.39999961853027
370
    50
100
AcDbLine
 10
136.2252046734886
 20
211.6608338035637
 30
0.0
 11
136.4019813687858
 21
211.6608338035637
 31
0.0
  0
LINE
  5
19D
330
1F
100
AcDbEntity
  8
Sheet_View_1_Drawing_1
 62
    18
420
        0
 48
25.39999961853027
370
    50
100
AcDbLine
 10
135.1519813687846
 20
257.7608338035648
 30
0.0
 11
135.1519813687846
 21
257.8668998207402
 31
0.0
  0
LINE
  5
19E
330
1F
100
AcDbEntity
  8
Sheet_View_1_Drawing_1
 62
    18
420
        0
 48
25.39999961853027
370
    50
100
AcDbLine
 10
87.77698136878604
 20
259.0358338035623
 30
0.0
 11
87.77698136878604
 21
259.2126104988595
 31
0.0
  0
LINE
  5
19F
330
1F
100
AcDbEntity
  8
Sheet_View_1_Drawing_1
 62
    18
420
        0
 48
25.39999961853027
370
    50
100
AcDbLine
 10
89.90198136878483
 20
257.8668998207402
 30
0.0
 11
89.90198136878483
 21
257.9108338035633
 31
0.0
  0
LINE
  5
1A0
330
1F
100
AcDbEntity
  8
Sheet_View_1_Drawing_1
 62
    18
420
        0
 48
25.39999961853027
370
    50
100
AcDbLine
 10
87.77698136878604
 20
259.0358338035623
 30
0.0
 11
87.6002046734888
 21
259.0358338035623
 31
0.0
  0
ARC
  5
1A1
330
1F
100
AcDbEntity
  8
Sheet_View_1_Drawing_1
 62
    18
420
        0
 48
25.39999961853027
370
    50
100
AcDbCircle
 10
118.2769813687847
 20
244.2451259470847
 30
0.0
 40
1.499999999999974
100
AcDbArc
 50
180.0000000000011
 51
330.0000000000007
  0
LINE
  5
1A2
330
1F
100
AcDbEntity
  8
Sheet_View_1_Drawing_1
 62
    18
420
        0
 48
25.39999961853027
370
    50
100
AcDbLine
 10
87.77698136878604
 20
209.5358338035649
 30
0.0
 11
87.6002046734888
 21
209.5358338035649
 31
0.0
  0
ARC
  5
1A3
330
1F
100
AcDbEntity
  8
Sheet_View_1_Drawing_1
 62
    18
420
        0
 48
25.39999961853027
370
    50
100
AcDbCircle
 10
121.7769813687847
 20
250.3073037735758
 30
0.0
 40
1.500000000000012
100
AcDbArc
 50
0.000000000000573
 51
150.0000000000003
  0
LINE
  5
1A4
330
1F
100
AcDbEntity
  8
Sheet_View_1_Drawing_1
 62
    18
420
        0
 48
25.39999961853027
370
    50
100
AcDbLine
 10
137.4537580640807
 20
209.5358338035649
 30
0.0
 11
137.2769813687835
 21
209.5358338035649
 31
0.0
  0
ARC
  5
1A5
330
1F
100
AcDbEntity
  8
Sheet_View_1_Drawing_1
 62
    18
420
        0
 48
25.39999961853027
370
    50
100
AcDbCircle
 10
112.5269813687847
 20
234.2858338035637
 30
0.0
 40
19.0
100
AcDbArc
 50
179.9999999999994
 51
184.322904925004
  0
ARC
  5
1A6
330
1F
100
AcDbEntity
  8
Sheet_View_1_Drawing_1
 62
    18
420
        0
 48
25.39999961853027
370
    50
100
AcDbCircle
 10
89.90198136878475
 20
256.9108338035636
 30
0.0
 40
1.249999999999943
100
AcDbArc
 50
90.0
 51
179.9999999999994
  0
ARC
  5
1A7
330
1F
100
AcDbEntity
  8
Sheet_View_1_Drawing_1
 62
    18
420
        0
 48
25.39999961853027
370
    50
100
AcDbCircle
 10
112.5269813687847
 20
234.2858338035637
 30
0.0
 40
7.436491673103706
100
AcDbArc
 50
359.9999999999994
 51
11.51705501294847
  0
ARC
  5
1A8
330
1F
100
AcDbEntity
  8
Sheet_View_1_Drawing_1
 62
    18
420
        0
 48
25.39999961853027
370
    50
100
AcDbCircle
 10
135.1519813687847
 20
211.6608338035636
 30
0.0
 40
1.249999999999972
100
AcDbArc
 50
270.0
 51
0.000000000000573
  0
ARC
  5
1A9
330
1F
100
AcDbEntity
  8
Sheet_View_1_Drawing_1
 62
    18
420
        0
 48
25.39999961853027
370
    50
100
AcDbCircle
 10
112.5269813687847
 20
234.2858338035636
 30
0.0
 40
26.99999999999999
100
AcDbArc
 50
67.80845684103241
 51
112.1915431589677
  0
ARC
  5
1AA
330
1F
100
AcDbEntity
  8
Sheet_View_1_Drawing_1
 62
    18
420
        0
 48
25.39999961853027
370
    50
100
AcDbCircle
 10
135.1519813687847
 20
256.9108338035636
 30
0.0
 40
1.25
100
AcDbArc
 50
0.000000000000573
 51
90.0
  0
ARC
  5
1AB
330
1F
100
AcDbEntity
  8
Sheet_View_1_Drawing_1
 62
    18
420
        0
 48
25.39999961853027
370
    50
100
AcDbCircle
 10
96.5055113987726
 20
225.0358338035637
 30
0.0
 40
1.499999999999986
100
AcDbArc
 50
120.0
 51
179.9999999999994
  0
ARC
  5
1AC
330
1F
100
AcDbEntity
  8
Sheet_View_1_Drawing_1
 62
    18
420
        0
 48
25.39999961853027
370
    50
100
AcDbCircle
 10
112.5269813687847
 20
234.2858338035637
 30
0.0
 40
15.0
100
AcDbArc
 50
354.2608402850992
 51
0.000000000000573
  0
LINE
  5
1AD
330
1F
100
AcDbEntity
  8
Sheet_View_1_Drawing_1
 62
    18
420
        0
 48
25.39999961853027
370
    50
100
AcDbLine
 10
136.0019813687848
 20
256.5585561127829
 30
0.0
 11
136.0019813687848
 21
256.9108338035636
 31
0.0
  0
ARC
  5
1AE
330
1F
100
AcDbEntity
  8
Sheet_View_1_Drawing_1
 62
    18
420
        0
 48
25.39999961853027
370
    50
100
AcDbCircle
 10
118.2769813687847
 20
224.3265416600426
 30
0.0
 40
1.5
100
AcDbArc
 50
30.00000000000094
 51
179.9999999999994
  0
ARC
  5
1AF
330
1F
100
AcDbEntity
  8
Sheet_View_1_Drawing_1
 62
    18
420
        0
 48
25.39999961853027
370
    50
100
AcDbCircle
 10
103.2769813687847
 20
218.2643638335516
 30
0.0
 40
1.5
100
AcDbArc
 50
149.9999999999995
 51
179.9999999999994
  0
ARC
  5
1B0
330
1F
100
AcDbEntity
  8
Sheet_View_1_Drawing_1
 62
    18
420
        0
 48
25.39999961853027
370
    50
100
AcDbCircle
 10
89.90198136878475
 20
211.6608338035636
 30
0.0
 40
1.25
100
AcDbArc
 50
179.9999999999994
 51
270.0000000000007
  0
LINE
  5
1B1
330
1F
100
AcDbEntity
  8
Sheet_View_1_Drawing_1
 62
    18
420
        0
 48
25.39999961853027
370
    50
100
AcDbLine
 10
88.65198136878475
 20
256.9108338035636
 30
0.0
 11
88.65198136878475
 21
211.6608338035636
 31
0.0
  0
LINE
  5
1B2
330
1F
100
AcDbEntity
  8
Sheet_View_1_Drawing_1
 62
    18
420
        0
 48
25.39999961853027
370
    50
100
AcDbLine
 10
137.2769813687848
 20
259.0358338035636
 30
0.0
 11
137.2769813687848
 21
209.5358338035636
 31
0.0
  0
ARC
  5
1B3
330
1F
100
AcDbEntity
  8
Sheet_View_1_Drawing_1
 62
    18
420
        0
 48
25.39999961853027
370
    50
100
AcDbCircle
 10
112.5269819140769
 20
234.2858294105651
 30
0.0
 40
23.74999557333522
100
AcDbArc
 50
276.8378897764917
 51
278.3196799177921
  0
ARC
  5
1B4
330
1F
100
AcDbEntity
  8
Sheet_View_1_Drawing_1
 62
    18
420
        0
 48
25.39999961853027
370
    50
100
AcDbCircle
 10
112.5269767889568
 20
234.2858343737139
 30
0.0
 40
23.74999538487501
100
AcDbArc
 50
171.6803198575651
 51
173.1621102293882
  0
ARC
  5
1B5
330
1F
100
AcDbEntity
  8
Sheet_View_1_Drawing_1
 62
    18
420
        0
 48
25.39999961853027
370
    50
100
AcDbCircle
 10
112.5269808235383
 20
234.2858381961794
 30
0.0
 40
23.74999557372057
100
AcDbArc
 50
96.83788977649131
 51
98.31966083446812
  0
ARC
  5
1B6
330
1F
100
AcDbEntity
  8
Sheet_View_1_Drawing_1
 62
    18
420
        0
 48
25.39999961853027
370
    50
100
AcDbCircle
 10
112.5269769757558
 20
234.2858332582678
 30
0.0
 40
23.74999557330453
100
AcDbArc
 50
186.8378897764916
 51
188.3196836186515
  0
ARC
  5
1B7
330
1F
100
AcDbEntity
  8
Sheet_View_1_Drawing_1
 62
    18
420
        0
 48
25.39999961853027
370
    50
100
AcDbCircle
 10
112.5269800478874
 20
234.2858339513705
 30
0.0
 40
23.74999867090929
100
AcDbArc
 50
173.1621101538083
 51
174.1162286923858
  0
ARC
  5
1B8
330
1F
100
AcDbEntity
  8
Sheet_View_1_Drawing_1
 62
    18
420
        0
 48
25.39999961853027
370
    50
100
AcDbCircle
 10
112.5269826896821
 20
234.2858336557566
 30
0.0
 40
23.74999867090928
100
AcDbArc
 50
353.1621101538083
 51
354.1162286923857
  0
TEXT
  5
1BA
330
1F
100
AcDbEntity
  8
Sheet_View_1_Dimension_1
  6
BORDER
 62
    18
420
        0
 48
25.39999961853027
100
AcDbText
 10
78.59016285016642
 20
235.009109547411
 30
0.0
 40
2.525888919830322
  1
A
  7
text348753
100
AcDbText
  0
TEXT
  5
1BC
330
1F
100
AcDbEntity
  8
Sheet_View_1_Dimension_1
  6
BORDER
 62
    18
420
        0
 48
25.39999961853027
100
AcDbText
 10
143.7855367793667
 20
235.009109547411
 30
0.0
 40
2.525888919830322
  1
A
  7
text348755
100
AcDbText
  0
LINE
  5
1BD
330
1F
100
AcDbEntity
  8
Sheet_View_1_Drawing_1
 62
    18
420
        0
 48
12.69999980926514
100
AcDbLine
 10
79.66809844970703
 20
234.6795349121094
 30
0.0
 11
79.66809844970703
 21
234.2858276367188
 31
0.0
  0
HATCH
  5
1BE
330
1F
100
AcDbEntity
  8
Sheet_View_1_Drawing_1
 62
    18
420
        0
 48
12.69999980926514
100
AcDbHatch
 10
0.0
 20
0.0
 30
0.0
210
0.0
220
0.0
230
1.0
  2
SOLID
 70
     1
 71
     0
 91
        1
 92
        3
 72
     0
 73
     1
 93
        3
 10
2023.569700622558
 20
5960.860186767578
 10
2006.795541298389
 20
5860.215227794647
 10
2040.343859946728
 20
5860.215227794647
 97
        0
 75
     0
 76
     1
 98
        0
  0
POLYLINE
  5
1BF
330
1F
100
AcDbEntity
  8
Sheet_View_1_Drawing_1
 62
    18
420
        0
 48
12.69999980926514
100
AcDb3dPolyline
 66
     1
 10
0.0
 20
0.0
 30
0.0
 70
     8
  0
VERTEX
  5
1C0
330
1BF
100
AcDbEntity
  8
Sheet_View_1_Drawing_1
 62
    18
420
        0
 48
12.69999980926514
100
AcDbVertex
100
AcDb3dPolylineVertex
 10
2023.569702148438
 20
5960.8603515625
 30
0.0
 70
    32
  0
VERTEX
  5
1C1
330
1BF
100
AcDbEntity
  8
Sheet_View_1_Drawing_1
 62
    18
420
        0
 48
12.69999980926514
100
AcDbVertex
100
AcDb3dPolylineVertex
 10
2006.795532226562
 20
5860.21533203125
 30
0.0
 70
    32
  0
VERTEX
  5
1C2
330
1BF
100
AcDbEntity
  8
Sheet_View_1_Drawing_1
 62
    18
420
        0
 48
12.69999980926514
100
AcDbVertex
100
AcDb3dPolylineVertex
 10
2040.343872070312
 20
5860.21533203125
 30
0.0
 70
    32
  0
VERTEX
  5
1C3
330
1BF
100
AcDbEntity
  8
Sheet_View_1_Drawing_1
 62
    18
420
        0
 48
12.69999980926514
100
AcDbVertex
100
AcDb3dPolylineVertex
 10
2023.569702148438
 20
5960.8603515625
 30
0.0
 70
    32
  0
SEQEND
  5
1C4
330
1BF
100
AcDbEntity
  8
Sheet_View_1_Drawing_1
 62
    18
420
        0
 48
12.69999980926514
  0
LINE
  5
1C5
330
1F
100
AcDbEntity
  8
Sheet_View_1_Drawing_1
 62
    18
420
        0
 48
12.69999980926514
100
AcDbLine
 10
144.8634643554688
 20
234.2858276367188
 30
0.0
 11
144.8634643554688
 21
234.6795349121094
 31
0.0
  0
HATCH
  5
1C6
330
1F
100
AcDbEntity
  8
Sheet_View_1_Drawing_1
 62
    18
420
        0
 48
12.69999980926514
100
AcDbHatch
 10
0.0
 20
0.0
 30
0.0
210
0.0
220
0.0
230
1.0
  2
SOLID
 70
     1
 71
     0
 91
        1
 92
        3
 72
     0
 73
     1
 93
        3
 10
3679.531994628906
 20
5960.860186767578
 10
3662.757835304737
 20
5860.215227794647
 10
3696.306153953075
 20
5860.215227794647
 97
        0
 75
     0
 76
     1
 98
        0
  0
POLYLINE
  5
1C7
330
1F
100
AcDbEntity
  8
Sheet_View_1_Drawing_1
 62
    18
420
        0
 48
12.69999980926514
100
AcDb3dPolyline
 66
     1
 10
0.0
 20
0.0
 30
0.0
 70
     8
  0
VERTEX
  5
1C8
330
1C7
100
AcDbEntity
  8
Sheet_View_1_Drawing_1
 62
    18
420
        0
 48
12.69999980926514
100
AcDbVertex
100
AcDb3dPolylineVertex
 10
3679.531982421875
 20
5960.8603515625
 30
0.0
 70
    32
  0
VERTEX
  5
1C9
330
1C7
100
AcDbEntity
  8
Sheet_View_1_Drawing_1
 62
    18
420
        0
 48
12.69999980926514
100
AcDbVertex
100
AcDb3dPolylineVertex
 10
3662.7578125
 20
5860.21533203125
 30
0.0
 70
    32
  0
VERTEX
  5
1CA
330
1C7
100
AcDbEntity
  8
Sheet_View_1_Drawing_1
 62
    18
420
        0
 48
12.69999980926514
100
AcDbVertex
100
AcDb3dPolylineVertex
 10
3696.30615234375
 20
5860.21533203125
 30
0.0
 70
    32
  0
VERTEX
  5
1CB
330
1C7
100
AcDbEntity
  8
Sheet_View_1_Drawing_1
 62
    18
420
        0
 48
12.69999980926514
100
AcDbVertex
100
AcDb3dPolylineVertex
 10
3679.531982421875
 20
5960.8603515625
 30
0.0
 70
    32
  0
SEQEND
  5
1CC
330
1C7
100
AcDbEntity
  8
Sheet_View_1_Drawing_1
 62
    18
420
        0
 48
12.69999980926514
  0
LINE
  5
1CD
330
1F
100
AcDbEntity
  8
Sheet_View_1_Drawing_1
 62
    18
420
        0
 48
12.69999980926514
100
AcDbLine
 10
79.66809844970703
 20
234.2858276367188
 30
0.0
 11
144.8634643554688
 21
234.2858276367188
 31
0.0
  0
DIMENSION
  5
1CF
330
1F
100
AcDbEntity
  8
Sheet_View_1_Drawing_1
 62
    18
420
        0
 48
12.69999980926514
100
AcDbDimension
280
     0
  2
*D1
 10
70.32187737978602
 20
209.2858338035635
 30
0.0
 11
70.32187737978602
 21
234.2858338035637
 31
0.0
 70
   160
  1
100
 71
     5
 42
50.00000000000017
 73
     0
 74
     0
 75
     0
  3
RotatedDim27
100
AcDbAlignedDimension
 13
87.77698136878604
 23
259.2858338035637
 33
0.0
 14
87.77698136878604
 24
209.2858338035635
 34
0.0
 50
90.0
100
AcDbRotatedDimension
  0
LINE
  5
1DE
330
1F
100
AcDbEntity
  8
Sheet_View_1_Drawing_1
  6
CENTER
 62
    18
420
        0
 48
5.079999923706055
100
AcDbLine
 10
112.5269813687847
 20
263.2493869401912
 30
0.0
 11
112.5269813687847
 21
204.8039172998375
 31
0.0
  0
LINE
  5
1DF
330
1F
100
AcDbEntity
  8
Sheet_View_1_Drawing_1
  6
CENTER
 62
    18
420
        0
 48
5.079999923706055
100
AcDbLine
 10
112.5269813687847
 20
263.2493869401912
 30
0.0
 11
112.5269813687847
 21
250.5493869401912
 31
0.0
  0
LINE
  5
1E0
330
1F
100
AcDbEntity
  8
Sheet_View_1_Drawing_1
  6
CENTER
 62
    18
420
        0
 48
5.079999923706055
100
AcDbLine
 10
112.5269813687847
 20
204.8039172998375
 30
0.0
 11
112.5269813687847
 21
217.5039172998375
 31
0.0
  0
LINE
  5
1E1
330
1F
100
AcDbEntity
  8
Sheet_View_1_Title_Block_1
 62
    18
420
        0
 48
25.39999961853027
100
AcDbLine
 10
17.80000000064
 20
296.99999999932
 30
0.0
 11
204.99999999918
 21
296.99999999932
 31
0.0
  0
LINE
  5
1E2
330
1F
100
AcDbEntity
  8
Sheet_View_1_Title_Block_1
 62
    18
420
        0
 48
25.39999961853027
100
AcDbLine
 10
205.1728336909396
 20
45.72935724214994
 30
0.0
 11
17.97283369239951
 21
45.72935724214994
 31
0.0
  0
LINE
  5
1E3
330
1F
100
AcDbEntity
  8
Sheet_View_1_Title_Block_1
 62
    18
420
        0
 48
25.39999961853027
370
    30
100
AcDbLine
 10
17.97283369239951
 20
62.72935724258994
 30
0.0
 11
205.1728336909396
 21
62.72935724258994
 31
0.0
  0
LINE
  5
1E4
330
1F
100
AcDbEntity
  8
Sheet_View_1_Title_Block_1
 62
    18
420
        0
 48
25.39999961853027
100
AcDbLine
 10
64.77283369139948
 20
5.179357242429959
 30
0.0
 11
64.77283369139948
 21
45.72935724214994
 31
0.0
  0
LINE
  5
1E5
330
1F
100
AcDbEntity
  8
Sheet_View_1_Title_Block_1
 62
    18
420
        0
 48
25.39999961853027
100
AcDbLine
 10
51.77283369195958
 20
45.72935724214994
 30
0.0
 11
51.77283369195958
 21
62.72935724258994
 31
0.0
  0
LINE
  5
1E6
330
1F
100
AcDbEntity
  8
Sheet_View_1_Title_Block_1
 62
    18
420
        0
 48
25.39999961853027
100
AcDbLine
 10
64.77283369139948
 20
45.72935724214994
 30
0.0
 11
64.77283369139948
 21
5.179357242429959
 31
0.0
  0
LINE
  5
1E7
330
1F
100
AcDbEntity
  8
Sheet_View_1_Title_Block_1
 62
    18
420
        0
 48
25.39999961853027
100
AcDbLine
 10
98.57283369095956
 20
62.72935724258994
 30
0.0
 11
98.57283369095956
 21
24.47935724286995
 31
0.0
  0
LINE
  5
1E8
330
1F
100
AcDbEntity
  8
Sheet_View_1_Title_Block_1
 62
    18
420
        0
 48
25.39999961853027
100
AcDbLine
 10
64.77283369139948
 20
24.47935724286995
 30
0.0
 11
205.1728336909396
 21
24.47935724286995
 31
0.0
  0
LINE
  5
1E9
330
1F
100
AcDbEntity
  8
Sheet_View_1_Title_Block_1
 62
    18
420
        0
 48
25.39999961853027
100
AcDbLine
 10
116.7728336916995
 20
62.72935724258994
 30
0.0
 11
116.7728336916995
 21
4.979357242429915
 31
0.0
  0
LINE
  5
1EA
330
1F
100
AcDbEntity
  8
Sheet_View_1_Title_Block_1
 62
    18
420
        0
 48
25.39999961853027
100
AcDbLine
 10
162.1860339672893
 20
56.35479692709377
 30
0.0
 11
168.7728336919996
 21
62.72935724258994
 31
0.0
  0
LINE
  5
1EB
330
1F
100
AcDbEntity
  8
Sheet_View_1_Title_Block_1
 62
    18
420
        0
 48
25.39999961853027
100
AcDbLine
 10
192.1728336914996
 20
11.72935724126993
 30
0.0
 11
192.1728336914996
 21
24.47935724286995
 31
0.0
  0
LINE
  5
1EC
330
1F
100
AcDbEntity
  8
Sheet_View_1_Title_Block_1
 62
    18
420
        0
 48
25.39999961853027
100
AcDbLine
 10
205.1728336909396
 20
56.35435724178994
 30
0.0
 11
116.7728336916995
 21
56.35435724178994
 31
0.0
  0
TEXT
  5
1EE
330
1F
100
AcDbEntity
  8
Sheet_View_1_Title_Block_1
 62
    18
420
        0
 48
25.39999961853027
100
AcDbText
 10
99.28061043643953
 20
60.53410793992994
 30
0.0
 40
1.515533447265625
  1
Debur and\PBreak Sharp\PEdges
  7
text348806
100
AcDbText
  0
LINE
  5
1EF
330
1F
100
AcDbEntity
  8
Sheet_View_1_Title_Block_1
 62
    18
420
        0
 48
25.39999961853027
100
AcDbLine
 10
137.3740176479996
 20
24.47935724286995
 30
0.0
 11
205.1728336909396
 21
24.47935724286995
 31
0.0
  0
LINE
  5
1F0
330
1F
100
AcDbEntity
  8
Sheet_View_1_Title_Block_1
 62
    18
420
        0
 48
25.39999961853027
100
AcDbLine
 10
129.9208542345006
 20
24.47935724286995
 30
0.0
 11
129.9208542345006
 21
11.60213545862995
 31
0.0
  0
LINE
  5
1F1
330
1F
100
AcDbEntity
  8
Sheet_View_1_Title_Block_1
 62
    18
420
        0
 48
25.39999961853027
100
AcDbLine
 10
139.9422659952405
 20
5.146127263889937
 30
0.0
 11
139.9422659952405
 21
11.70213545862993
 31
0.0
  0
LINE
  5
1F2
330
1F
100
AcDbEntity
  8
Sheet_View_1_Title_Block_1
 62
    18
420
        0
 48
25.39999961853027
100
AcDbLine
 10
179.6682535764398
 20
5.146127263889937
 30
0.0
 11
179.6682535764398
 21
11.70213545862993
 31
0.0
  0
TEXT
  5
1F4
330
1F
100
AcDbEntity
  8
Sheet_View_1_Title_Block_1
 62
    18
420
        0
 48
25.39999961853027
100
AcDbText
 10
117.6556933193598
 20
60.10416052926997
 30
0.0
 40
1.515533447265625
  1
Do Not Scale Drawing
  7
text348817
100
AcDbText
  0
TEXT
  5
1F6
330
1F
100
AcDbEntity
  8
Sheet_View_1_Title_Block_1
 62
    18
420
        0
 48
25.39999961853027
100
AcDbText
 10
117.8864887037207
 20
21.87275566588995
 30
0.0
 40
1.545843958854675
  1
Size
  7
text348820
100
AcDbText
  0
TEXT
  5
1F8
330
1F
100
AcDbEntity
  8
Sheet_View_1_Title_Block_1
 62
    18
420
        0
 48
25.39999961853027
100
AcDbText
 10
120.3884492689606
 20
15.77278396786993
 30
0.0
 40
3.03106689453125
  1
A4
  7
text348823
100
AcDbText
  0
TEXT
  5
1FA
330
1F
100
AcDbEntity
  8
Sheet_View_1_Title_Block_1
 62
    18
420
        0
 48
25.39999961853027
100
AcDbText
 10
131.0147056695005
 20
21.95667581168992
 30
0.0
 40
1.545843958854675
  1
Drawing  No.
  7
text348826
100
AcDbText
  0
TEXT
  5
1FC
330
1F
100
AcDbEntity
  8
Sheet_View_1_Title_Block_1
 62
    18
420
        0
 48
25.39999961853027
100
AcDbText
 10
140.8796434880204
 20
9.068302163549909
 30
0.0
 40
1.545843958854675
  1
CAD File
  7
text348829
100
AcDbText
  0
TEXT
  5
1FE
330
1F
100
AcDbEntity
  8
Sheet_View_1_Title_Block_1
 62
    18
420
        0
 48
25.39999961853027
100
AcDbText
 10
180.6780235933197
 20
9.069703950789908
 30
0.0
 40
1.545843958854675
  1
Sheet
  7
text348832
100
AcDbText
  0
TEXT
  5
200
330
1F
100
AcDbEntity
  8
Sheet_View_1_Title_Block_1
 62
    18
420
        0
 48
25.39999961853027
100
AcDbText
 10
193.3153415304197
 20
21.90013298786993
 30
0.0
 40
1.545843958854675
  1
Rev
  7
text348835
100
AcDbText
  0
TEXT
  5
202
330
1F
100
AcDbEntity
  8
Sheet_View_1_Title_Block_1
 62
    18
420
        0
 48
25.39999961853027
100
AcDbText
 10
118.0505915254807
 20
8.945779148549924
 30
0.0
 40
1.545843958854675
  1
Scale
  7
text348838
100
AcDbText
  0
TEXT
  5
204
330
1F
100
AcDbEntity
  8
Sheet_View_1_Title_Block_1
 62
    18
420
        0
 48
25.39999961853027
100
AcDbText
 10
129.1276708018576
 20
7.339469263322748
 30
0.0
 40
3.03106689453125
  1
1:2
  7
text348841
100
AcDbText
  0
TEXT
  5
206
330
1F
100
AcDbEntity
  8
Sheet_View_1_Title_Block_1
 62
    18
420
        0
 48
25.39999961853027
100
AcDbText
 10
188.4560883494341
 20
7.339469263322748
 30
0.0
 40
3.03106689453125
  1
1 of 1
  7
text348844
100
AcDbText
  0
TEXT
  5
208
330
1F
100
AcDbEntity
  8
Sheet_View_1_Title_Block_1
 62
    18
420
        0
 48
25.39999961853027
100
AcDbText
 10
134.781054979867
 20
15.77278396786993
 30
0.0
 40
3.03106689453125
  1
4410
  7
text348847
100
AcDbText
  0
TEXT
  5
20A
330
1F
100
AcDbEntity
  8
Sheet_View_1_Title_Block_1
 62
    18
420
        0
 48
25.39999961853027
100
AcDbText
 10
197.1320885379021
 20
15.77278396786993
 30
0.0
 40
3.03106689453125
  1
A
  7
text348850
100
AcDbText
  0
TEXT
  5
20C
330
1F
100
AcDbEntity
  8
Sheet_View_1_Title_Block_1
 62
    18
420
        0
 48
25.39999961853027
100
AcDbText
 10
119.5941938579754
 20
35.93788128534788
 30
0.0
 40
3.579999923706055
  1
RVS 304 Vloerput / rooster
  7
text348853
100
AcDbText
  0
LINE
  5
20D
330
1F
100
AcDbEntity
  8
Sheet_View_1_Title_Block_1
 62
    18
420
        0
 48
25.39999961853027
100
AcDbLine
 10
17.87283369239951
 20
31.44185724214995
 30
0.0
 11
64.63875622113937
 21
31.44185724214995
 31
0.0
  0
LINE
  5
20E
330
1F
100
AcDbEntity
  8
Sheet_View_1_Title_Block_1
 62
    18
420
        0
 48
25.39999961853027
100
AcDbLine
 10
17.87283369239951
 20
36.20435724214995
 30
0.0
 11
64.63875622113937
 21
36.20435724214995
 31
0.0
  0
LINE
  5
20F
330
1F
100
AcDbEntity
  8
Sheet_View_1_Title_Block_1
 62
    18
420
        0
 48
25.39999961853027
100
AcDbLine
 10
17.97283369239951
 20
40.96685724214993
 30
0.0
 11
64.63875622113937
 21
40.96685724214993
 31
0.0
  0
LINE
  5
210
330
1F
100
AcDbEntity
  8
Sheet_View_1_Title_Block_1
 62
    18
420
        0
 48
25.39999961853027
100
AcDbLine
 10
64.63875622113937
 20
17.15435724214995
 30
0.0
 11
17.87283369239951
 21
17.15435724214995
 31
0.0
  0
LINE
  5
211
330
1F
100
AcDbEntity
  8
Sheet_View_1_Title_Block_1
 62
    18
420
        0
 48
25.39999961853027
100
AcDbLine
 10
50.77091249489939
 20
45.72935724214993
 30
0.0
 11
50.77091249489939
 21
17.15435724214995
 31
0.0
  0
LINE
  5
212
330
1F
100
AcDbEntity
  8
Sheet_View_1_Title_Block_1
 62
    18
420
        0
 48
25.39999961853027
100
AcDbLine
 10
36.8703214955196
 20
45.72935724214993
 30
0.0
 11
36.8703214955196
 21
17.15435724214995
 31
0.0
  0
LINE
  5
213
330
1F
100
AcDbEntity
  8
Sheet_View_1_Title_Block_1
 62
    18
420
        0
 48
25.39999961853027
100
AcDbLine
 10
64.63875622113937
 20
26.67935724214995
 30
0.0
 11
17.87283369239951
 21
26.67935724214995
 31
0.0
  0
LINE
  5
214
330
1F
100
AcDbEntity
  8
Sheet_View_1_Title_Block_1
 62
    18
420
        0
 48
25.39999961853027
100
AcDbLine
 10
64.63875622113937
 20
21.91685724214995
 30
0.0
 11
17.87283369239951
 21
21.91685724214995
 31
0.0
  0
TEXT
  5
216
330
1F
100
AcDbEntity
  8
Sheet_View_1_Title_Block_1
 62
    18
420
        0
 48
25.39999961853027
100
AcDbText
 10
18.94801490433954
 20
38.37470081732994
 30
0.0
 40
1.545843958854675
  1
Drawn
  7
text348872
100
AcDbText
  0
TEXT
  5
218
330
1F
100
AcDbEntity
  8
Sheet_View_1_Title_Block_1
 62
    18
420
        0
 48
25.39999961853027
100
AcDbText
 10
18.85663609425969
 20
33.65966137518995
 30
0.0
 40
1.545843958854675
  1
Checked
  7
text348875
100
AcDbText
  0
TEXT
  5
21A
330
1F
100
AcDbEntity
  8
Sheet_View_1_Title_Block_1
 62
    18
420
        0
 48
25.39999961853027
100
AcDbText
 10
18.9148570293796
 20
28.92368014668995
 30
0.0
 40
1.545843958854675
  1
ENG Appr.
  7
text348878
100
AcDbText
  0
TEXT
  5
21C
330
1F
100
AcDbEntity
  8
Sheet_View_1_Title_Block_1
 62
    18
420
        0
 48
25.39999961853027
100
AcDbText
 10
19.1321592807795
 20
23.75263360360994
 30
0.0
 40
1.545843958854675
  1
MFR Appr.
  7
text348881
100
AcDbText
  0
TEXT
  5
21E
330
1F
100
AcDbEntity
  8
Sheet_View_1_Title_Block_1
 62
    18
420
        0
 48
25.39999961853027
100
AcDbText
 10
51.75769248767856
 20
43.16917144680993
 30
0.0
 40
1.545843958854675
  1
Date
  7
text348884
100
AcDbText
  0
TEXT
  5
220
330
1F
100
AcDbEntity
  8
Sheet_View_1_Title_Block_1
 62
    18
420
        0
 48
25.39999961853027
100
AcDbText
 10
37.85236417284977
 20
43.16917144680993
 30
0.0
 40
1.545843958854675
  1
Name
  7
text348887
100
AcDbText
  0
TEXT
  5
222
330
1F
100
AcDbEntity
  8
Sheet_View_1_Title_Block_1
 62
    18
420
        0
 48
25.39999961853027
100
AcDbText
 10
18.92681567703954
 20
19.47473010004994
 30
0.0
 40
1.545843958854675
  1
QA
  7
text348890
100
AcDbText
  0
TEXT
  5
224
330
1F
100
AcDbEntity
  8
Sheet_View_1_Title_Block_1
 62
    18
420
        0
 48
25.39999961853027
100
AcDbText
 10
52.65405439595962
 20
60.01161660304994
 30
0.0
 40
1.515533447265625
  1
Finish
  7
text348893
100
AcDbText
  0
TEXT
  5
226
330
1F
100
AcDbEntity
  8
Sheet_View_1_Title_Block_1
 62
    18
420
        0
 48
25.39999961853027
100
AcDbText
 10
63.47885652571977
 20
58.29586848448995
 30
0.0
 40
1.515533447265625
  1
--
  7
text348896
100
AcDbText
  0
TEXT
  5
228
330
1F
100
AcDbEntity
  8
Sheet_View_1_Title_Block_1
 62
    18
420
        0
 48
25.39999961853027
100
AcDbText
 10
18.82403421437937
 20
60.07805691344998
 30
0.0
 40
1.545843958854675
  1
Unless Otherwise Specified:
  7
text348899
100
AcDbText
  0
TEXT
  5
22A
330
1F
100
AcDbEntity
  8
Sheet_View_1_Title_Block_1
 62
    18
420
        0
 48
25.39999961853027
100
AcDbText
 10
65.66092305963963
 20
21.84357905682994
 30
0.0
 40
1.545843958854675
  1
Material
  7
text348902
100
AcDbText
  0
TEXT
  5
22C
330
1F
100
AcDbEntity
  8
Sheet_View_1_Title_Block_1
 62
    18
420
        0
 48
25.39999961853027
100
AcDbText
 10
81.46702974667944
 20
20.46796431316995
 30
0.0
 40
1.545843958854675
  1
--
  7
text348905
100
AcDbText
  0
TEXT
  5
22E
330
1F
100
AcDbEntity
  8
Sheet_View_1_Title_Block_1
 62
    18
420
        0
 48
25.39999961853027
100
AcDbText
 10
65.71161885415967
 20
43.23269596542993
 30
0.0
 40
1.545843958854675
  1
Comments
  7
text348908
100
AcDbText
  0
TEXT
  5
230
330
1F
100
AcDbEntity
  8
Sheet_View_1_Title_Block_1
 62
    18
420
        0
 48
25.39999961853027
100
AcDbText
 10
65.79711616533929
 20
39.28469868918035
 30
0.0
 40
1.515533447265625
  1
CAD Generated Drawing
  7
text348911
100
AcDbText
  0
TEXT
  5
232
330
1F
100
AcDbEntity
  8
Sheet_View_1_Title_Block_1
 62
    18
420
        0
 48
25.39999961853027
100
AcDbText
 10
65.79711616533929
 20
37.02710441732737
 30
0.0
 40
1.515533447265625
  1
Do Not Manually Update
  7
text348914
100
AcDbText
  0
LINE
  5
233
330
1F
100
AcDbEntity
  8
Sheet_View_1_Title_Block_1
 62
    18
420
        0
 48
25.39999961853027
100
AcDbLine
 10
116.7728336916995
 20
11.70213545862993
 30
0.0
 11
205.1728336909396
 21
11.70213545862993
 31
0.0
  0
LINE
  5
234
330
1F
100
AcDbEntity
  8
Sheet_View_1_Title_Block_1
 62
    18
420
        0
 48
25.39999961853027
370
    30
100
AcDbLine
 10
204.99999999918
 20
4.999999999979999
 30
0.0
 11
17.80000000064
 21
4.999999999979999
 31
0.0
  0
TEXT
  5
236
330
1F
100
AcDbEntity
  8
Sheet_View_1_Title_Block_1
 62
    18
420
        0
 48
25.39999961853027
100
AcDbText
 10
19.45492507169431
 20
57.21930806593122
 30
0.0
 40
1.545843958854675
  1
Dimensions in mm
  7
text348921
100
AcDbText
  0
TEXT
  5
238
330
1F
100
AcDbEntity
  8
Sheet_View_1_Title_Block_1
 62
    18
420
        0
 48
25.39999961853027
100
AcDbText
 10
19.45492507169431
 20
54.53950949611121
 30
0.0
 40
1.545843958854675
  1
Tolerances: Fractional     ±
  7
text348924
100
AcDbText
  0
TEXT
  5
23A
330
1F
100
AcDbEntity
  8
Sheet_View_1_Title_Block_1
 62
    18
420
        0
 48
25.39999961853027
100
AcDbText
 10
19.45492507169431
 20
51.85971092629119
 30
0.0
 40
1.545843958854675
  1
Angular: Mach ±     Bend    ±
  7
text348927
100
AcDbText
  0
TEXT
  5
23C
330
1F
100
AcDbEntity
  8
Sheet_View_1_Title_Block_1
 62
    18
420
        0
 48
25.39999961853027
100
AcDbText
 10
19.45492507169431
 20
49.17991235647118
 30
0.0
 40
1.545843958854675
  1
Two Place Decimal             ±
  7
text348930
100
AcDbText
  0
TEXT
  5
23E
330
1F
100
AcDbEntity
  8
Sheet_View_1_Title_Block_1
 62
    18
420
        0
 48
25.39999961853027
100
AcDbText
 10
19.45492507169431
 20
46.50011378665118
 30
0.0
 40
1.545843958854675
  1
Three Place Decimal          ±
  7
text348933
100
AcDbText
  0
TEXT
  5
240
330
1F
100
AcDbEntity
  8
Sheet_View_1_Title_Block_1
  6
BORDER
 62
    18
420
        0
 48
25.39999961853027
100
AcDbText
 10
38.61067113403577
 20
37.35493648220827
 30
0.0
 40
2.273299932479858
  1
ejair.nl
  7
text348938
100
AcDbText
  0
TEXT
  5
242
330
1F
100
AcDbEntity
  8
Sheet_View_1_Title_Block_1
  6
BORDER
 62
    18
420
        0
 48
25.39999961853027
100
AcDbText
 10
52.46164217655198
 20
37.38593652524113
 30
0.0
 40
1.681520223617554
  1
12-7-2018
  7
text348941
100
AcDbText
  0
TEXT
  5
244
330
1F
100
AcDbEntity
  8
Sheet_View_1_Drawing_1
  6
BORDER
 62
    18
420
        0
 48
12.69999980926514
100
AcDbText
 10
95.44047223580131
 20
84.82836662513809
 30
0.0
 40
4.288680076599121
  1
Section A-A
  7
text349744
100
AcDbText
  0
ARC
  5
245
330
1F
100
AcDbEntity
  8
Sheet_View_1_Drawing_1
 62
    18
420
        0
 48
25.39999961853027
370
    50
100
AcDbCircle
 10
124.6593123163617
 20
124.6301423521867
 30
0.0
 40
1.75
100
AcDbArc
 50
171.7867892982623
 51
270.0
  0
LINE
  5
246
330
1F
100
AcDbEntity
  8
Sheet_View_1_Drawing_1
 62
    18
420
        0
 48
25.39999961853027
370
    50
100
AcDbLine
 10
122.9272615087928
 20
124.8801423521867
 30
0.0
 11
122.6593123163617
 21
124.8801423521867
 31
0.0
  0
LINE
  5
247
330
1F
100
AcDbEntity
  8
Sheet_View_1_Drawing_1
 62
    18
420
        0
 48
25.39999961853027
370
    50
100
AcDbLine
 10
122.6593123163617
 20
124.8801423521867
 30
0.0
 11
122.6593123163617
 21
127.8801423521867
 31
0.0
  0
ARC
  5
248
330
1F
100
AcDbEntity
  8
Sheet_View_1_Drawing_1
 62
    18
420
        0
 48
25.39999961853027
370
    50
100
AcDbCircle
 10
123.1593123163617
 20
127.8801423521867
 30
0.0
 40
0.5
100
AcDbArc
 50
90.0
 51
179.9999999999994
  0
LINE
  5
249
330
1F
100
AcDbEntity
  8
Sheet_View_1_Drawing_1
 62
    18
420
        0
 48
25.39999961853027
370
    50
100
AcDbLine
 10
123.1593123163617
 20
128.3801423521867
 30
0.0
 11
123.5343123163617
 21
128.3801423521867
 31
0.0
  0
ARC
  5
24A
330
1F
100
AcDbEntity
  8
Sheet_View_1_Drawing_1
 62
    18
420
        0
 48
25.39999961853027
370
    50
100
AcDbCircle
 10
123.5343123163617
 20
129.5051423521867
 30
0.0
 40
1.124999999999972
100
AcDbArc
 50
270.0
 51
89.99999999999928
  0
LINE
  5
24B
330
1F
100
AcDbEntity
  8
Sheet_View_1_Drawing_1
 62
    18
420
        0
 48
25.39999961853027
370
    50
100
AcDbLine
 10
123.5343123163617
 20
130.6301423521867
 30
0.0
 11
123.4093123163617
 21
130.6301423521867
 31
0.0
  0
ARC
  5
24C
330
1F
100
AcDbEntity
  8
Sheet_View_1_Drawing_1
 62
    18
420
        0
 48
25.39999961853027
370
    50
100
AcDbCircle
 10
123.4093123163617
 20
131.1301423521867
 30
0.0
 40
0.5
100
AcDbArc
 50
179.9999999999994
 51
270.0
  0
LINE
  5
24D
330
1F
100
AcDbEntity
  8
Sheet_View_1_Drawing_1
 62
    18
420
        0
 48
25.39999961853027
370
    50
100
AcDbLine
 10
122.9093123163617
 20
131.1301423521867
 30
0.0
 11
122.9093123163617
 21
138.9230355710001
 31
0.0
  0
ARC
  5
24E
330
1F
100
AcDbEntity
  8
Sheet_View_1_Drawing_1
 62
    18
420
        0
 48
25.39999961853027
370
    50
100
AcDbCircle
 10
122.4093123163617
 20
138.9230355710001
 30
0.0
 40
0.5
100
AcDbArc
 50
0.000000000000573
 51
45.00000000000346
  0
LINE
  5
24F
330
1F
100
AcDbEntity
  8
Sheet_View_1_Drawing_1
 62
    18
420
        0
 48
25.39999961853027
370
    50
100
AcDbLine
 10
122.7628657069549
 20
139.2765889615934
 30
0.0
 11
121.5557589257684
 21
140.4836957427799
 31
0.0
  0
ARC
  5
250
330
1F
100
AcDbEntity
  8
Sheet_View_1_Drawing_1
 62
    18
420
        0
 48
25.39999961853027
370
    50
100
AcDbCircle
 10
121.9093123163617
 20
140.8372491333732
 30
0.0
 40
0.499999999999984
100
AcDbArc
 50
179.9999999999994
 51
225.0000000000023
  0
LINE
  5
251
330
1F
100
AcDbEntity
  8
Sheet_View_1_Drawing_1
 62
    18
420
        0
 48
25.39999961853027
370
    50
100
AcDbLine
 10
121.4093123163617
 20
140.8372491333732
 30
0.0
 11
121.4093123163617
 21
144.3801423521867
 31
0.0
  0
LINE
  5
252
330
1F
100
AcDbEntity
  8
Sheet_View_1_Drawing_1
 62
    18
420
        0
 48
25.39999961853027
370
    50
100
AcDbLine
 10
121.4093123163617
 20
144.3801423521867
 30
0.0
 11
121.1593123163617
 21
144.3801423521867
 31
0.0
  0
LINE
  5
253
330
1F
100
AcDbEntity
  8
Sheet_View_1_Drawing_1
 62
    18
420
        0
 48
25.39999961853027
370
    50
100
AcDbLine
 10
121.1593123163617
 20
144.3801423521867
 30
0.0
 11
121.1593123163617
 21
140.8372491333732
 31
0.0
  0
ARC
  5
254
330
1F
100
AcDbEntity
  8
Sheet_View_1_Drawing_1
 62
    18
420
        0
 48
25.39999961853027
370
    50
100
AcDbCircle
 10
121.9093123163617
 20
140.8372491333732
 30
0.0
 40
0.7499999999999858
100
AcDbArc
 50
179.9999999999994
 51
225.0000000000008
  0
LINE
  5
255
330
1F
100
AcDbEntity
  8
Sheet_View_1_Drawing_1
 62
    18
420
        0
 48
25.39999961853027
370
    50
100
AcDbLine
 10
121.3789822304718
 20
140.3069190474833
 30
0.0
 11
122.5860890116583
 21
139.0998122662967
 31
0.0
  0
ARC
  5
256
330
1F
100
AcDbEntity
  8
Sheet_View_1_Drawing_1
 62
    18
420
        0
 48
25.39999961853027
370
    50
100
AcDbCircle
 10
122.4093123163617
 20
138.9230355710001
 30
0.0
 40
0.250000000000012
100
AcDbArc
 50
359.9999999999935
 51
44.9999999999977
  0
LINE
  5
257
330
1F
100
AcDbEntity
  8
Sheet_View_1_Drawing_1
 62
    18
420
        0
 48
25.39999961853027
370
    50
100
AcDbLine
 10
122.6593123163617
 20
138.9230355710001
 30
0.0
 11
122.6593123163617
 21
131.1301423521867
 31
0.0
  0
ARC
  5
258
330
1F
100
AcDbEntity
  8
Sheet_View_1_Drawing_1
 62
    18
420
        0
 48
25.39999961853027
370
    50
100
AcDbCircle
 10
123.4093123163617
 20
131.1301423521867
 30
0.0
 40
0.75
100
AcDbArc
 50
179.9999999999994
 51
270.0
  0
LINE
  5
259
330
1F
100
AcDbEntity
  8
Sheet_View_1_Drawing_1
 62
    18
420
        0
 48
25.39999961853027
370
    50
100
AcDbLine
 10
123.4093123163617
 20
130.3801423521867
 30
0.0
 11
123.5343123163617
 21
130.3801423521867
 31
0.0
  0
ARC
  5
25A
330
1F
100
AcDbEntity
  8
Sheet_View_1_Drawing_1
 62
    18
420
        0
 48
25.39999961853027
370
    50
100
AcDbCircle
 10
123.5343123163617
 20
129.5051423521867
 30
0.0
 40
0.8750000000000284
100
AcDbArc
 50
270.0000000000009
 51
90.0
  0
LINE
  5
25B
330
1F
100
AcDbEntity
  8
Sheet_View_1_Drawing_1
 62
    18
420
        0
 48
25.39999961853027
370
    50
100
AcDbLine
 10
123.5343123163617
 20
128.6301423521867
 30
0.0
 11
123.1593123163617
 21
128.6301423521867
 31
0.0
  0
ARC
  5
25C
330
1F
100
AcDbEntity
  8
Sheet_View_1_Drawing_1
 62
    18
420
        0
 48
25.39999961853027
370
    50
100
AcDbCircle
 10
123.1593123163617
 20
127.8801423521867
 30
0.0
 40
0.75
100
AcDbArc
 50
90.0
 51
179.9999999999994
  0
LINE
  5
25D
330
1F
100
AcDbEntity
  8
Sheet_View_1_Drawing_1
 62
    18
420
        0
 48
25.39999961853027
370
    50
100
AcDbLine
 10
122.4093123163617
 20
127.8801423521867
 30
0.0
 11
122.4093123163617
 21
125.6301423521867
 31
0.0
  0
LINE
  5
25E
330
1F
100
AcDbEntity
  8
Sheet_View_1_Drawing_1
 62
    18
420
        0
 48
25.39999961853027
370
    50
100
AcDbLine
 10
122.4093123163617
 20
125.6301423521867
 30
0.0
 11
122.6593123163617
 21
124.6301423521867
 31
0.0
  0
ARC
  5
25F
330
1F
100
AcDbEntity
  8
Sheet_View_1_Drawing_1
 62
    18
420
        0
 48
25.39999961853027
370
    50
100
AcDbCircle
 10
124.6593123163617
 20
124.6301423521867
 30
0.0
 40
2.0
100
AcDbArc
 50
179.9999999999994
 51
270.0
  0
LINE
  5
260
330
1F
100
AcDbEntity
  8
Sheet_View_1_Drawing_1
 62
    18
420
        0
 48
25.39999961853027
370
    50
100
AcDbLine
 10
124.6593123163617
 20
122.6301423521867
 30
0.0
 11
131.9093123163617
 21
122.6301423521867
 31
0.0
  0
ARC
  5
261
330
1F
100
AcDbEntity
  8
Sheet_View_1_Drawing_1
 62
    18
420
        0
 48
25.39999961853027
370
    50
100
AcDbCircle
 10
131.9093123163617
 20
124.6301423521867
 30
0.0
 40
1.999999999999986
100
AcDbArc
 50
270.0
 51
0.000000000000573
  0
LINE
  5
262
330
1F
100
AcDbEntity
  8
Sheet_View_1_Drawing_1
 62
    18
420
        0
 48
25.39999961853027
370
    50
100
AcDbLine
 10
133.9093123163617
 20
124.6301423521867
 30
0.0
 11
133.9093123163617
 21
137.1301423521867
 31
0.0
  0
ARC
  5
263
330
1F
100
AcDbEntity
  8
Sheet_View_1_Drawing_1
 62
    18
420
        0
 48
25.39999961853027
370
    50
100
AcDbCircle
 10
134.1593123163617
 20
137.1301423521867
 30
0.0
 40
0.25
100
AcDbArc
 50
113.5781784782046
 51
179.9999999999994
  0
ARC
  5
264
330
1F
100
AcDbEntity
  8
Sheet_View_1_Drawing_1
 62
    18
420
        0
 48
25.39999961853027
370
    50
100
AcDbCircle
 10
133.659310133327
 20
138.2757877050573
 30
0.0
 40
1.000002183035688
100
AcDbArc
 50
293.5782603612378
 51
359.9999181169665
  0
LINE
  5
265
330
1F
100
AcDbEntity
  8
Sheet_View_1_Drawing_1
 62
    18
420
        0
 48
25.39999961853027
370
    50
100
AcDbLine
 10
134.6593123163617
 20
138.2757862759256
 30
0.0
 11
134.6593123163617
 21
139.2344984284477
 31
0.0
  0
ARC
  5
266
330
1F
100
AcDbEntity
  8
Sheet_View_1_Drawing_1
 62
    18
420
        0
 48
25.39999961853027
370
    50
100
AcDbCircle
 10
133.659310133327
 20
139.2344969993161
 30
0.0
 40
1.000002183035657
100
AcDbArc
 50
0.000081883031959
 51
66.42173963876519
  0
ARC
  5
267
330
1F
100
AcDbEntity
  8
Sheet_View_1_Drawing_1
 62
    18
420
        0
 48
25.39999961853027
370
    50
100
AcDbCircle
 10
134.1593123163617
 20
140.3801423521867
 30
0.0
 40
0.2499999999999923
100
AcDbArc
 50
179.9999999999994
 51
246.4218215217988
  0
LINE
  5
268
330
1F
100
AcDbEntity
  8
Sheet_View_1_Drawing_1
 62
    18
420
        0
 48
25.39999961853027
370
    50
100
AcDbLine
 10
133.9093123163617
 20
140.3801423521867
 30
0.0
 11
133.9093123163617
 21
153.8968996086107
 31
0.0
  0
ARC
  5
269
330
1F
100
AcDbEntity
  8
Sheet_View_1_Drawing_1
 62
    18
420
        0
 48
25.39999961853027
370
    50
100
AcDbCircle
 10
134.1593123163433
 20
153.8968996086101
 30
0.0
 40
0.2500000000017079
100
AcDbArc
 50
143.8710724803697
 51
179.9999999998567
  0
ARC
  5
26A
330
1F
100
AcDbEntity
  8
Sheet_View_1_Drawing_1
 62
    18
420
        0
 48
25.39999961853027
370
    50
100
AcDbCircle
 10
133.6343123163617
 20
154.2801423521867
 30
0.0
 40
0.4000000000000108
100
AcDbArc
 50
323.8710724802202
 51
359.9999999999959
  0
LINE
  5
26B
330
1F
100
AcDbEntity
  8
Sheet_View_1_Drawing_1
 62
    18
420
        0
 48
25.39999961853027
370
    50
100
AcDbLine
 10
134.0343123163617
 20
154.2801423521867
 30
0.0
 11
134.0343123163617
 21
155.1301423521867
 31
0.0
  0
LINE
  5
26C
330
1F
100
AcDbEntity
  8
Sheet_View_1_Drawing_1
 62
    18
420
        0
 48
25.39999961853027
370
    50
100
AcDbLine
 10
134.0343123163617
 20
155.1301423521867
 30
0.0
 11
134.9093123163616
 21
155.1301423521867
 31
0.0
  0
LINE
  5
26D
330
1F
100
AcDbEntity
  8
Sheet_View_1_Drawing_1
 62
    18
420
        0
 48
25.39999961853027
370
    50
100
AcDbLine
 10
134.9093123163617
 20
155.1301423521867
 30
0.0
 11
134.9093123163617
 21
152.8801423521867
 31
0.0
  0
LINE
  5
26E
330
1F
100
AcDbEntity
  8
Sheet_View_1_Drawing_1
 62
    18
420
        0
 48
25.39999961853027
370
    50
100
AcDbLine
 10
134.9093123163616
 20
152.8801423521867
 30
0.0
 11
135.1593123163617
 21
152.8801423521867
 31
0.0
  0
LINE
  5
26F
330
1F
100
AcDbEntity
  8
Sheet_View_1_Drawing_1
 62
    18
420
        0
 48
25.39999961853027
370
    50
100
AcDbLine
 10
135.1593123163617
 20
152.8801423521867
 30
0.0
 11
135.1593123163617
 21
155.1301423521867
 31
0.0
  0
ARC
  5
270
330
1F
100
AcDbEntity
  8
Sheet_View_1_Drawing_1
 62
    18
420
        0
 48
25.39999961853027
370
    50
100
AcDbCircle
 10
134.9093123163617
 20
155.1301423521867
 30
0.0
 40
0.25
100
AcDbArc
 50
0.000000000000573
 51
90.0
  0
LINE
  5
271
330
1F
100
AcDbEntity
  8
Sheet_View_1_Drawing_1
 62
    18
420
        0
 48
25.39999961853027
370
    50
100
AcDbLine
 10
134.9093123163616
 20
155.3801423521867
 30
0.0
 11
134.0343123163617
 21
155.3801423521867
 31
0.0
  0
ARC
  5
272
330
1F
100
AcDbEntity
  8
Sheet_View_1_Drawing_1
 62
    18
420
        0
 48
25.39999961853027
370
    50
100
AcDbCircle
 10
134.0343123163617
 20
155.1301423521867
 30
0.0
 40
0.2500000000000284
100
AcDbArc
 50
90.0
 51
120.000000000003
  0
LINE
  5
273
330
1F
100
AcDbEntity
  8
Sheet_View_1_Drawing_1
 62
    18
420
        0
 48
25.39999961853027
370
    50
100
AcDbLine
 10
133.9093123163617
 20
155.3466487031328
 30
0.0
 11
133.9093123163617
 21
154.1301423521867
 31
0.0
  0
ARC
  5
274
330
1F
100
AcDbEntity
  8
Sheet_View_1_Drawing_1
 62
    18
420
        0
 48
25.39999961853027
370
    50
100
AcDbCircle
 10
133.9093123163617
 20
153.8801423521867
 30
0.0
 40
0.2499999999999716
100
AcDbArc
 50
90.0
 51
179.9999999999994
  0
LINE
  5
275
330
1F
100
AcDbEntity
  8
Sheet_View_1_Drawing_1
 62
    18
420
        0
 48
25.39999961853027
370
    50
100
AcDbLine
 10
133.6593123163617
 20
153.8801423521867
 30
0.0
 11
133.6593123163617
 21
140.3801423521867
 31
0.0
  0
ARC
  5
276
330
1F
100
AcDbEntity
  8
Sheet_View_1_Drawing_1
 62
    18
420
        0
 48
25.39999961853027
370
    50
100
AcDbCircle
 10
134.1593123163617
 20
140.3801423521867
 30
0.0
 40
0.5
100
AcDbArc
 50
179.9999999999994
 51
246.4218215217988
  0
ARC
  5
277
330
1F
100
AcDbEntity
  8
Sheet_View_1_Drawing_1
 62
    18
420
        0
 48
25.39999961853027
370
    50
100
AcDbCircle
 10
133.6593106790856
 20
139.234497356599
 30
0.0
 40
0.7500016372768228
100
AcDbArc
 50
0.0000818830357587
 51
66.42173963876097
  0
LINE
  5
278
330
1F
100
AcDbEntity
  8
Sheet_View_1_Drawing_1
 62
    18
420
        0
 48
25.39999961853027
370
    50
100
AcDbLine
 10
134.4093123163617
 20
139.2344984284477
 30
0.0
 11
134.4093123163617
 21
138.2757862759256
 31
0.0
  0
ARC
  5
279
330
1F
100
AcDbEntity
  8
Sheet_View_1_Drawing_1
 62
    18
420
        0
 48
25.39999961853027
370
    50
100
AcDbCircle
 10
133.6593106790856
 20
138.2757873477744
 30
0.0
 40
0.7500016372768175
100
AcDbArc
 50
293.578260361237
 51
359.9999181169686
  0
ARC
  5
27A
330
1F
100
AcDbEntity
  8
Sheet_View_1_Drawing_1
 62
    18
420
        0
 48
25.39999961853027
370
    50
100
AcDbCircle
 10
134.1593123163617
 20
137.1301423521867
 30
0.0
 40
0.4999999999999846
100
AcDbArc
 50
113.5781784782012
 51
179.9999999999994
  0
LINE
  5
27B
330
1F
100
AcDbEntity
  8
Sheet_View_1_Drawing_1
 62
    18
420
        0
 48
25.39999961853027
370
    50
100
AcDbLine
 10
133.6593123163617
 20
137.1301423521867
 30
0.0
 11
133.6593123163617
 21
124.6301423521867
 31
0.0
  0
ARC
  5
27C
330
1F
100
AcDbEntity
  8
Sheet_View_1_Drawing_1
 62
    18
420
        0
 48
25.39999961853027
370
    50
100
AcDbCircle
 10
131.9093123163617
 20
124.6301423521867
 30
0.0
 40
1.75
100
AcDbArc
 50
270.0
 51
0.000000000000573
  0
LINE
  5
27D
330
1F
100
AcDbEntity
  8
Sheet_View_1_Drawing_1
 62
    18
420
        0
 48
25.39999961853027
370
    50
100
AcDbLine
 10
131.9093123163617
 20
122.8801423521867
 30
0.0
 11
124.6593123163617
 21
122.8801423521867
 31
0.0
  0
ARC
  5
27E
330
1F
100
AcDbEntity
  8
Sheet_View_1_Drawing_1
 62
    18
420
        0
 48
25.39999961853027
370
    50
100
AcDbCircle
 10
95.65931231636168
 20
124.6301423521867
 30
0.0
 40
1.750000000000005
100
AcDbArc
 50
270.0
 51
8.213210701738168
  0
LINE
  5
27F
330
1F
100
AcDbEntity
  8
Sheet_View_1_Drawing_1
 62
    18
420
        0
 48
25.39999961853027
370
    50
100
AcDbLine
 10
95.65931231636168
 20
122.8801423521867
 30
0.0
 11
88.40931231636168
 21
122.8801423521867
 31
0.0
  0
ARC
  5
280
330
1F
100
AcDbEntity
  8
Sheet_View_1_Drawing_1
 62
    18
420
        0
 48
25.39999961853027
370
    50
100
AcDbCircle
 10
88.40931231636168
 20
124.6301423521867
 30
0.0
 40
1.75
100
AcDbArc
 50
180.0000000000006
 51
270.0
  0
LINE
  5
281
330
1F
100
AcDbEntity
  8
Sheet_View_1_Drawing_1
 62
    18
420
        0
 48
25.39999961853027
370
    50
100
AcDbLine
 10
86.65931231636168
 20
124.6301423521867
 30
0.0
 11
86.65931231636168
 21
137.1301423521867
 31
0.0
  0
ARC
  5
282
330
1F
100
AcDbEntity
  8
Sheet_View_1_Drawing_1
 62
    18
420
        0
 48
25.39999961853027
370
    50
100
AcDbCircle
 10
86.15931231636168
 20
137.1301423521867
 30
0.0
 40
0.5
100
AcDbArc
 50
0.000000000000573
 51
66.42181983749116
  0
ARC
  5
283
330
1F
100
AcDbEntity
  8
Sheet_View_1_Drawing_1
 62
    18
420
        0
 48
25.39999961853027
370
    50
100
AcDbCircle
 10
86.65931396947276
 20
138.2757873477744
 30
0.0
 40
0.7500016367713995
100
AcDbArc
 50
180.0000818830358
 51
246.421739652922
  0
LINE
  5
284
330
1F
100
AcDbEntity
  8
Sheet_View_1_Drawing_1
 62
    18
420
        0
 48
25.39999961853027
370
    50
100
AcDbLine
 10
85.90931231636168
 20
138.2757862759256
 30
0.0
 11
85.90931231636168
 21
139.2344984284477
 31
0.0
  0
ARC
  5
285
330
1F
100
AcDbEntity
  8
Sheet_View_1_Drawing_1
 62
    18
420
        0
 48
25.39999961853027
370
    50
100
AcDbCircle
 10
86.65931396947278
 20
139.234497356599
 30
0.0
 40
0.750001636771388
100
AcDbArc
 50
113.5782603470828
 51
179.9999181169663
  0
ARC
  5
286
330
1F
100
AcDbEntity
  8
Sheet_View_1_Drawing_1
 62
    18
420
        0
 48
25.39999961853027
370
    50
100
AcDbCircle
 10
86.15931231636168
 20
140.3801423521867
 30
0.0
 40
0.4999999999999951
100
AcDbArc
 50
293.5781801625117
 51
0.000000000000573
  0
LINE
  5
287
330
1F
100
AcDbEntity
  8
Sheet_View_1_Drawing_1
 62
    18
420
        0
 48
25.39999961853027
370
    50
100
AcDbLine
 10
86.65931231636168
 20
140.3801423521867
 30
0.0
 11
86.65931231636168
 21
153.8801423521867
 31
0.0
  0
ARC
  5
288
330
1F
100
AcDbEntity
  8
Sheet_View_1_Drawing_1
 62
    18
420
        0
 48
25.39999961853027
370
    50
100
AcDbCircle
 10
86.40931231636168
 20
153.8801423521867
 30
0.0
 40
0.25
100
AcDbArc
 50
0.000000000000573
 51
90.0
  0
LINE
  5
289
330
1F
100
AcDbEntity
  8
Sheet_View_1_Drawing_1
 62
    18
420
        0
 48
25.39999961853027
370
    50
100
AcDbLine
 10
86.40931231636168
 20
154.1301423521867
 30
0.0
 11
86.40931231636168
 21
155.3466487031328
 31
0.0
  0
ARC
  5
28A
330
1F
100
AcDbEntity
  8
Sheet_View_1_Drawing_1
 62
    18
420
        0
 48
25.39999961853027
370
    50
100
AcDbCircle
 10
86.28431231636168
 20
155.1301423521867
 30
0.0
 40
0.2500000000000205
100
AcDbArc
 50
60.00000000000271
 51
90.00000000000325
  0
LINE
  5
28B
330
1F
100
AcDbEntity
  8
Sheet_View_1_Drawing_1
 62
    18
420
        0
 48
25.39999961853027
370
    50
100
AcDbLine
 10
86.28431231636168
 20
155.3801423521867
 30
0.0
 11
85.40931231636168
 21
155.3801423521867
 31
0.0
  0
ARC
  5
28C
330
1F
100
AcDbEntity
  8
Sheet_View_1_Drawing_1
 62
    18
420
        0
 48
25.39999961853027
370
    50
100
AcDbCircle
 10
85.40931231636168
 20
155.1301423521867
 30
0.0
 40
0.2500000000000284
100
AcDbArc
 50
90.0
 51
179.9999999999994
  0
LINE
  5
28D
330
1F
100
AcDbEntity
  8
Sheet_View_1_Drawing_1
 62
    18
420
        0
 48
25.39999961853027
370
    50
100
AcDbLine
 10
85.15931231636168
 20
155.1301423521867
 30
0.0
 11
85.15931231636168
 21
152.8801423521867
 31
0.0
  0
LINE
  5
28E
330
1F
100
AcDbEntity
  8
Sheet_View_1_Drawing_1
 62
    18
420
        0
 48
25.39999961853027
370
    50
100
AcDbLine
 10
85.15931231636168
 20
152.8801423521867
 30
0.0
 11
85.40931231636168
 21
152.8801423521867
 31
0.0
  0
LINE
  5
28F
330
1F
100
AcDbEntity
  8
Sheet_View_1_Drawing_1
 62
    18
420
        0
 48
25.39999961853027
370
    50
100
AcDbLine
 10
85.40931231636168
 20
152.8801423521867
 30
0.0
 11
85.40931231636168
 21
155.1301423521867
 31
0.0
  0
LINE
  5
290
330
1F
100
AcDbEntity
  8
Sheet_View_1_Drawing_1
 62
    18
420
        0
 48
25.39999961853027
370
    50
100
AcDbLine
 10
85.40931231636168
 20
155.1301423521867
 30
0.0
 11
86.28431231636168
 21
155.1301423521867
 31
0.0
  0
LINE
  5
291
330
1F
100
AcDbEntity
  8
Sheet_View_1_Drawing_1
 62
    18
420
        0
 48
25.39999961853027
370
    50
100
AcDbLine
 10
86.28431231636168
 20
155.1301423521867
 30
0.0
 11
86.28431231636168
 21
154.2801423521867
 31
0.0
  0
ARC
  5
292
330
1F
100
AcDbEntity
  8
Sheet_View_1_Drawing_1
 62
    18
420
        0
 48
25.39999961853027
370
    50
100
AcDbCircle
 10
86.68431231636168
 20
154.2801423521867
 30
0.0
 40
0.4000000000000057
100
AcDbArc
 50
179.9999999999994
 51
216.1289275197753
  0
ARC
  5
293
330
1F
100
AcDbEntity
  8
Sheet_View_1_Drawing_1
 62
    18
420
        0
 48
25.39999961853027
370
    50
100
AcDbCircle
 10
86.15931231638
 20
153.8968996086101
 30
0.0
 40
0.2500000000017764
100
AcDbArc
 50
0.0000000001433031
 51
36.12892751962067
  0
LINE
  5
294
330
1F
100
AcDbEntity
  8
Sheet_View_1_Drawing_1
 62
    18
420
        0
 48
25.39999961853027
370
    50
100
AcDbLine
 10
86.40931231636168
 20
153.8968996086107
 30
0.0
 11
86.40931231636168
 21
140.3801423521867
 31
0.0
  0
ARC
  5
295
330
1F
100
AcDbEntity
  8
Sheet_View_1_Drawing_1
 62
    18
420
        0
 48
25.39999961853027
370
    50
100
AcDbCircle
 10
86.15931231636168
 20
140.3801423521867
 30
0.0
 40
0.25
100
AcDbArc
 50
293.5781818609725
 51
0.000000000000573
  0
ARC
  5
296
330
1F
100
AcDbEntity
  8
Sheet_View_1_Drawing_1
 62
    18
420
        0
 48
25.39999961853027
370
    50
100
AcDbCircle
 10
86.65931451523146
 20
139.2344969993161
 30
0.0
 40
1.00000218236188
100
AcDbArc
 50
113.5782603470837
 51
179.9999181169663
  0
LINE
  5
297
330
1F
100
AcDbEntity
  8
Sheet_View_1_Drawing_1
 62
    18
420
        0
 48
25.39999961853027
370
    50
100
AcDbLine
 10
85.65931231636168
 20
139.2344984284477
 30
0.0
 11
85.65931231636168
 21
138.2757862759256
 31
0.0
  0
ARC
  5
298
330
1F
100
AcDbEntity
  8
Sheet_View_1_Drawing_1
 62
    18
420
        0
 48
25.39999961853027
370
    50
100
AcDbCircle
 10
86.65931451523147
 20
138.2757877050573
 30
0.0
 40
1.000002182361882
100
AcDbArc
 50
180.0000818830353
 51
246.4217396529171
  0
ARC
  5
299
330
1F
100
AcDbEntity
  8
Sheet_View_1_Drawing_1
 62
    18
420
        0
 48
25.39999961853027
370
    50
100
AcDbCircle
 10
86.15931231636168
 20
137.1301423521867
 30
0.0
 40
0.2500000000000072
100
AcDbArc
 50
359.9999999999935
 51
66.4218181390245
  0
LINE
  5
29A
330
1F
100
AcDbEntity
  8
Sheet_View_1_Drawing_1
 62
    18
420
        0
 48
25.39999961853027
370
    50
100
AcDbLine
 10
86.40931231636168
 20
137.1301423521867
 30
0.0
 11
86.40931231636168
 21
124.6301423521867
 31
0.0
  0
ARC
  5
29B
330
1F
100
AcDbEntity
  8
Sheet_View_1_Drawing_1
 62
    18
420
        0
 48
25.39999961853027
370
    50
100
AcDbCircle
 10
88.40931231636168
 20
124.6301423521867
 30
0.0
 40
2.0
100
AcDbArc
 50
179.9999999999994
 51
270.0
  0
LINE
  5
29C
330
1F
100
AcDbEntity
  8
Sheet_View_1_Drawing_1
 62
    18
420
        0
 48
25.39999961853027
370
    50
100
AcDbLine
 10
88.40931231636168
 20
122.6301423521867
 30
0.0
 11
95.65931231636168
 21
122.6301423521867
 31
0.0
  0
ARC
  5
29D
330
1F
100
AcDbEntity
  8
Sheet_View_1_Drawing_1
 62
    18
420
        0
 48
25.39999961853027
370
    50
100
AcDbCircle
 10
95.65931231636168
 20
124.6301423521867
 30
0.0
 40
1.999999999999986
100
AcDbArc
 50
270.0
 51
0.000000000000573
  0
LINE
  5
29E
330
1F
100
AcDbEntity
  8
Sheet_View_1_Drawing_1
 62
    18
420
        0
 48
25.39999961853027
370
    50
100
AcDbLine
 10
97.65931231636168
 20
124.6301423521867
 30
0.0
 11
97.90931231636168
 21
125.6301423521867
 31
0.0
  0
LINE
  5
29F
330
1F
100
AcDbEntity
  8
Sheet_View_1_Drawing_1
 62
    18
420
        0
 48
25.39999961853027
370
    50
100
AcDbLine
 10
97.90931231636168
 20
125.6301423521867
 30
0.0
 11
97.90931231636168
 21
127.8801423521867
 31
0.0
  0
ARC
  5
2A0
330
1F
100
AcDbEntity
  8
Sheet_View_1_Drawing_1
 62
    18
420
        0
 48
25.39999961853027
370
    50
100
AcDbCircle
 10
97.15931231636168
 20
127.8801423521867
 30
0.0
 40
0.75
100
AcDbArc
 50
0.000000000000573
 51
90.0
  0
LINE
  5
2A1
330
1F
100
AcDbEntity
  8
Sheet_View_1_Drawing_1
 62
    18
420
        0
 48
25.39999961853027
370
    50
100
AcDbLine
 10
97.15931231636168
 20
128.6301423521867
 30
0.0
 11
96.78431231636168
 21
128.6301423521867
 31
0.0
  0
ARC
  5
2A2
330
1F
100
AcDbEntity
  8
Sheet_View_1_Drawing_1
 62
    18
420
        0
 48
25.39999961853027
370
    50
100
AcDbCircle
 10
96.78431231636168
 20
129.5051423521867
 30
0.0
 40
0.875
100
AcDbArc
 50
90.0
 51
270.0
  0
LINE
  5
2A3
330
1F
100
AcDbEntity
  8
Sheet_View_1_Drawing_1
 62
    18
420
        0
 48
25.39999961853027
370
    50
100
AcDbLine
 10
96.78431231636168
 20
130.3801423521867
 30
0.0
 11
96.90931231636168
 21
130.3801423521867
 31
0.0
  0
ARC
  5
2A4
330
1F
100
AcDbEntity
  8
Sheet_View_1_Drawing_1
 62
    18
420
        0
 48
25.39999961853027
370
    50
100
AcDbCircle
 10
96.90931231636168
 20
131.1301423521867
 30
0.0
 40
0.75
100
AcDbArc
 50
270.0
 51
0.000000000000573
  0
LINE
  5
2A5
330
1F
100
AcDbEntity
  8
Sheet_View_1_Drawing_1
 62
    18
420
        0
 48
25.39999961853027
370
    50
100
AcDbLine
 10
97.65931231636168
 20
131.1301423521867
 30
0.0
 11
97.65931231636168
 21
138.9230355710001
 31
0.0
  0
ARC
  5
2A6
330
1F
100
AcDbEntity
  8
Sheet_View_1_Drawing_1
 62
    18
420
        0
 48
25.39999961853027
370
    50
100
AcDbCircle
 10
97.90931231636168
 20
138.9230355710001
 30
0.0
 40
0.25
100
AcDbArc
 50
134.9999999999954
 51
179.9999999999994
  0
LINE
  5
2A7
330
1F
100
AcDbEntity
  8
Sheet_View_1_Drawing_1
 62
    18
420
        0
 48
25.39999961853027
370
    50
100
AcDbLine
 10
97.73253562106504
 20
139.0998122662967
 30
0.0
 11
98.9396424022516
 21
140.3069190474833
 31
0.0
  0
ARC
  5
2A8
330
1F
100
AcDbEntity
  8
Sheet_View_1_Drawing_1
 62
    18
420
        0
 48
25.39999961853027
370
    50
100
AcDbCircle
 10
98.40931231636168
 20
140.8372491333732
 30
0.0
 40
0.749999999999996
100
AcDbArc
 50
314.9999999999992
 51
0.000000000000573
  0
LINE
  5
2A9
330
1F
100
AcDbEntity
  8
Sheet_View_1_Drawing_1
 62
    18
420
        0
 48
25.39999961853027
370
    50
100
AcDbLine
 10
99.15931231636168
 20
140.8372491333732
 30
0.0
 11
99.15931231636168
 21
144.3801423521867
 31
0.0
  0
LINE
  5
2AA
330
1F
100
AcDbEntity
  8
Sheet_View_1_Drawing_1
 62
    18
420
        0
 48
25.39999961853027
370
    50
100
AcDbLine
 10
99.15931231636168
 20
144.3801423521867
 30
0.0
 11
98.90931231636168
 21
144.3801423521867
 31
0.0
  0
LINE
  5
2AB
330
1F
100
AcDbEntity
  8
Sheet_View_1_Drawing_1
 62
    18
420
        0
 48
25.39999961853027
370
    50
100
AcDbLine
 10
98.90931231636168
 20
144.3801423521867
 30
0.0
 11
98.90931231636168
 21
140.8372491333732
 31
0.0
  0
ARC
  5
2AC
330
1F
100
AcDbEntity
  8
Sheet_View_1_Drawing_1
 62
    18
420
        0
 48
25.39999961853027
370
    50
100
AcDbCircle
 10
98.40931231636168
 20
140.8372491333732
 30
0.0
 40
0.5
100
AcDbArc
 50
314.9999999999977
 51
0.000000000000573
  0
LINE
  5
2AD
330
1F
100
AcDbEntity
  8
Sheet_View_1_Drawing_1
 62
    18
420
        0
 48
25.39999961853027
370
    50
100
AcDbLine
 10
98.76286570695495
 20
140.4836957427799
 30
0.0
 11
97.55575892576842
 21
139.2765889615934
 31
0.0
  0
ARC
  5
2AE
330
1F
100
AcDbEntity
  8
Sheet_View_1_Drawing_1
 62
    18
420
        0
 48
25.39999961853027
370
    50
100
AcDbCircle
 10
97.90931231636168
 20
138.9230355710001
 30
0.0
 40
0.499999999999994
100
AcDbArc
 50
134.9999999999989
 51
179.9999999999994
  0
LINE
  5
2AF
330
1F
100
AcDbEntity
  8
Sheet_View_1_Drawing_1
 62
    18
420
        0
 48
25.39999961853027
370
    50
100
AcDbLine
 10
97.40931231636168
 20
138.9230355710001
 30
0.0
 11
97.40931231636168
 21
131.1301423521867
 31
0.0
  0
ARC
  5
2B0
330
1F
100
AcDbEntity
  8
Sheet_View_1_Drawing_1
 62
    18
420
        0
 48
25.39999961853027
370
    50
100
AcDbCircle
 10
96.90931231636168
 20
131.1301423521867
 30
0.0
 40
0.5
100
AcDbArc
 50
270.0
 51
0.000000000000573
  0
LINE
  5
2B1
330
1F
100
AcDbEntity
  8
Sheet_View_1_Drawing_1
 62
    18
420
        0
 48
25.39999961853027
370
    50
100
AcDbLine
 10
96.90931231636168
 20
130.6301423521867
 30
0.0
 11
96.78431231636168
 21
130.6301423521867
 31
0.0
  0
ARC
  5
2B2
330
1F
100
AcDbEntity
  8
Sheet_View_1_Drawing_1
 62
    18
420
        0
 48
25.39999961853027
370
    50
100
AcDbCircle
 10
96.78431231636168
 20
129.5051423521867
 30
0.0
 40
1.125
100
AcDbArc
 50
90.0
 51
269.9999999999993
  0
LINE
  5
2B3
330
1F
100
AcDbEntity
  8
Sheet_View_1_Drawing_1
 62
    18
420
        0
 48
25.39999961853027
370
    50
100
AcDbLine
 10
96.78431231636168
 20
128.3801423521867
 30
0.0
 11
97.15931231636168
 21
128.3801423521867
 31
0.0
  0
ARC
  5
2B4
330
1F
100
AcDbEntity
  8
Sheet_View_1_Drawing_1
 62
    18
420
        0
 48
25.39999961853027
370
    50
100
AcDbCircle
 10
97.15931231636168
 20
127.8801423521867
 30
0.0
 40
0.5
100
AcDbArc
 50
0.000000000000573
 51
90.0
  0
LINE
  5
2B5
330
1F
100
AcDbEntity
  8
Sheet_View_1_Drawing_1
 62
    18
420
        0
 48
25.39999961853027
370
    50
100
AcDbLine
 10
97.65931231636168
 20
127.8801423521867
 30
0.0
 11
97.65931231636168
 21
124.8801423521867
 31
0.0
  0
LINE
  5
2B6
330
1F
100
AcDbEntity
  8
Sheet_View_1_Drawing_1
 62
    18
420
        0
 48
25.39999961853027
370
    50
100
AcDbLine
 10
97.65931231636168
 20
124.8801423521867
 30
0.0
 11
97.39136312393056
 21
124.8801423521867
 31
0.0
  0
CIRCLE
  5
2B7
330
1F
100
AcDbEntity
  8
Sheet_View_1_Drawing_1
 62
    18
420
        0
 48
25.39999961853027
370
    50
100
AcDbCircle
 10
123.5343123163617
 20
129.5668251338484
 30
0.0
 40
1.125
  0
CIRCLE
  5
2B8
330
1F
100
AcDbEntity
  8
Sheet_View_1_Drawing_1
 62
    18
420
        0
 48
25.39999961853027
370
    50
100
AcDbCircle
 10
96.78431231636168
 20
129.5668251338484
 30
0.0
 40
1.125
  0
LINE
  5
2B9
330
1F
100
AcDbEntity
  8
Sheet_View_1_Drawing_1
 62
    18
420
        0
 48
25.39999961853027
370
    50
100
AcDbLine
 10
111.9093123163617
 20
149.704994660306
 30
0.0
 11
111.9093123163617
 21
151.304994660306
 31
0.0
  0
LINE
  5
2BA
330
1F
100
AcDbEntity
  8
Sheet_View_1_Drawing_1
 62
    18
420
        0
 48
25.39999961853027
370
    50
100
AcDbLine
 10
111.9093123163617
 20
151.304994660306
 30
0.0
 11
111.1593123163617
 21
151.304994660306
 31
0.0
  0
LINE
  5
2BB
330
1F
100
AcDbEntity
  8
Sheet_View_1_Drawing_1
 62
    18
420
        0
 48
25.39999961853027
370
    50
100
AcDbLine
 10
111.1593123163617
 20
151.304994660306
 30
0.0
 11
110.9698123163617
 21
151.115494660306
 31
0.0
  0
LINE
  5
2BC
330
1F
100
AcDbEntity
  8
Sheet_View_1_Drawing_1
 62
    18
420
        0
 48
25.39999961853027
370
    50
100
AcDbLine
 10
110.9698123163617
 20
151.115494660306
 30
0.0
 11
110.9698123163617
 21
149.894494660306
 31
0.0
  0
LINE
  5
2BD
330
1F
100
AcDbEntity
  8
Sheet_View_1_Drawing_1
 62
    18
420
        0
 48
25.39999961853027
370
    50
100
AcDbLine
 10
110.9698123163617
 20
149.894494660306
 30
0.0
 11
111.1593123163617
 21
149.704994660306
 31
0.0
  0
LINE
  5
2BE
330
1F
100
AcDbEntity
  8
Sheet_View_1_Drawing_1
 62
    18
420
        0
 48
25.39999961853027
370
    50
100
AcDbLine
 10
111.1593123163617
 20
149.704994660306
 30
0.0
 11
111.9093123163617
 21
149.704994660306
 31
0.0
  0
LINE
  5
2BF
330
1F
100
AcDbEntity
  8
Sheet_View_1_Drawing_1
 62
    18
420
        0
 48
25.39999961853027
370
    50
100
AcDbLine
 10
109.1593123163617
 20
149.704994660306
 30
0.0
 11
109.3488123163617
 21
149.894494660306
 31
0.0
  0
LINE
  5
2C0
330
1F
100
AcDbEntity
  8
Sheet_View_1_Drawing_1
 62
    18
420
        0
 48
25.39999961853027
370
    50
100
AcDbLine
 10
109.3488123163617
 20
149.894494660306
 30
0.0
 11
109.3488123163617
 21
151.115494660306
 31
0.0
  0
LINE
  5
2C1
330
1F
100
AcDbEntity
  8
Sheet_View_1_Drawing_1
 62
    18
420
        0
 48
25.39999961853027
370
    50
100
AcDbLine
 10
109.3488123163617
 20
151.115494660306
 30
0.0
 11
109.1593123163617
 21
151.304994660306
 31
0.0
  0
LINE
  5
2C2
330
1F
100
AcDbEntity
  8
Sheet_View_1_Drawing_1
 62
    18
420
        0
 48
25.39999961853027
370
    50
100
AcDbLine
 10
109.1593123163617
 20
151.304994660306
 30
0.0
 11
108.4093123163617
 21
151.304994660306
 31
0.0
  0
LINE
  5
2C3
330
1F
100
AcDbEntity
  8
Sheet_View_1_Drawing_1
 62
    18
420
        0
 48
25.39999961853027
370
    50
100
AcDbLine
 10
108.4093123163617
 20
151.304994660306
 30
0.0
 11
108.4093123163617
 21
149.704994660306
 31
0.0
  0
LINE
  5
2C4
330
1F
100
AcDbEntity
  8
Sheet_View_1_Drawing_1
 62
    18
420
        0
 48
25.39999961853027
370
    50
100
AcDbLine
 10
108.4093123163617
 20
149.704994660306
 30
0.0
 11
109.1593123163617
 21
149.704994660306
 31
0.0
  0
LINE
  5
2C5
330
1F
100
AcDbEntity
  8
Sheet_View_1_Drawing_1
 62
    18
420
        0
 48
25.39999961853027
370
    50
100
AcDbLine
 10
104.1593123163617
 20
154.968978579338
 30
0.0
 11
104.1593123163617
 21
153.9689785793381
 31
0.0
  0
LINE
  5
2C6
330
1F
100
AcDbEntity
  8
Sheet_View_1_Drawing_1
 62
    18
420
        0
 48
25.39999961853027
370
    50
100
AcDbLine
 10
104.1593123163617
 20
153.9689785793381
 30
0.0
 11
109.1593123163616
 21
153.9689785793381
 31
0.0
  0
LINE
  5
2C7
330
1F
100
AcDbEntity
  8
Sheet_View_1_Drawing_1
 62
    18
420
        0
 48
25.39999961853027
370
    50
100
AcDbLine
 10
109.1593123163616
 20
153.9689785793381
 30
0.0
 11
109.1593123163616
 21
149.3689785793381
 31
0.0
  0
LINE
  5
2C8
330
1F
100
AcDbEntity
  8
Sheet_View_1_Drawing_1
 62
    18
420
        0
 48
25.39999961853027
370
    50
100
AcDbLine
 10
109.1593123163617
 20
149.3689785793381
 30
0.0
 11
109.4093123163617
 21
149.1189785793381
 31
0.0
  0
LINE
  5
2C9
330
1F
100
AcDbEntity
  8
Sheet_View_1_Drawing_1
 62
    18
420
        0
 48
25.39999961853027
370
    50
100
AcDbLine
 10
109.4093123163617
 20
149.1189785793381
 30
0.0
 11
110.9093123163617
 21
149.1189785793381
 31
0.0
  0
LINE
  5
2CA
330
1F
100
AcDbEntity
  8
Sheet_View_1_Drawing_1
 62
    18
420
        0
 48
25.39999961853027
370
    50
100
AcDbLine
 10
110.9093123163617
 20
149.1189785793381
 30
0.0
 11
111.1593123163616
 21
149.3689785793381
 31
0.0
  0
LINE
  5
2CB
330
1F
100
AcDbEntity
  8
Sheet_View_1_Drawing_1
 62
    18
420
        0
 48
25.39999961853027
370
    50
100
AcDbLine
 10
111.1593123163617
 20
149.3689785793381
 30
0.0
 11
111.1593123163617
 21
153.9689785793381
 31
0.0
  0
LINE
  5
2CC
330
1F
100
AcDbEntity
  8
Sheet_View_1_Drawing_1
 62
    18
420
        0
 48
25.39999961853027
370
    50
100
AcDbLine
 10
111.1593123163617
 20
153.9689785793381
 30
0.0
 11
116.1593123163617
 21
153.9689785793381
 31
0.0
  0
LINE
  5
2CD
330
1F
100
AcDbEntity
  8
Sheet_View_1_Drawing_1
 62
    18
420
        0
 48
25.39999961853027
370
    50
100
AcDbLine
 10
116.1593123163617
 20
153.9689785793381
 30
0.0
 11
116.1593123163617
 21
154.968978579338
 31
0.0
  0
LINE
  5
2CE
330
1F
100
AcDbEntity
  8
Sheet_View_1_Drawing_1
 62
    18
420
        0
 48
25.39999961853027
370
    50
100
AcDbLine
 10
116.1593123163617
 20
154.9689785793381
 30
0.0
 11
104.1593123163617
 21
154.9689785793381
 31
0.0
  0
LINE
  5
2CF
330
1F
100
AcDbEntity
  8
Sheet_View_1_Drawing_1
 62
    18
420
        0
 48
25.39999961853027
370
    50
100
AcDbLine
 10
133.1593123163616
 20
155.1189785793381
 30
0.0
 11
130.6593123163616
 21
154.9689785793381
 31
0.0
  0
LINE
  5
2D0
330
1F
100
AcDbEntity
  8
Sheet_View_1_Drawing_1
 62
    18
420
        0
 48
25.39999961853027
370
    50
100
AcDbLine
 10
130.6593123163616
 20
154.9689785793381
 30
0.0
 11
130.1593123163616
 21
154.9689785793381
 31
0.0
  0
LINE
  5
2D1
330
1F
100
AcDbEntity
  8
Sheet_View_1_Drawing_1
 62
    18
420
        0
 48
25.39999961853027
370
    50
100
AcDbLine
 10
130.1593123163616
 20
154.968978579338
 30
0.0
 11
130.1593123163616
 21
154.0889785793381
 31
0.0
  0
LINE
  5
2D2
330
1F
100
AcDbEntity
  8
Sheet_View_1_Drawing_1
 62
    18
420
        0
 48
25.39999961853027
370
    50
100
AcDbLine
 10
130.1593123163616
 20
154.0889785793381
 30
0.0
 11
130.6593123163616
 21
154.1189785793381
 31
0.0
  0
LINE
  5
2D3
330
1F
100
AcDbEntity
  8
Sheet_View_1_Drawing_1
 62
    18
420
        0
 48
25.39999961853027
370
    50
100
AcDbLine
 10
130.6593123163616
 20
154.1189785793381
 30
0.0
 11
133.6593123163616
 21
154.1189785793381
 31
0.0
  0
LINE
  5
2D4
330
1F
100
AcDbEntity
  8
Sheet_View_1_Drawing_1
 62
    18
420
        0
 48
25.39999961853027
370
    50
100
AcDbLine
 10
133.6593123163616
 20
154.1189785793381
 30
0.0
 11
133.6593123163616
 21
155.1189785793381
 31
0.0
  0
LINE
  5
2D5
330
1F
100
AcDbEntity
  8
Sheet_View_1_Drawing_1
 62
    18
420
        0
 48
25.39999961853027
370
    50
100
AcDbLine
 10
133.6593123163616
 20
155.1189785793381
 30
0.0
 11
133.1593123163616
 21
155.1189785793381
 31
0.0
  0
LINE
  5
2D6
330
1F
100
AcDbEntity
  8
Sheet_View_1_Drawing_1
 62
    18
420
        0
 48
25.39999961853027
370
    50
100
AcDbLine
 10
89.65931231636166
 20
154.968978579338
 30
0.0
 11
87.15931231636166
 21
155.1189785793381
 31
0.0
  0
LINE
  5
2D7
330
1F
100
AcDbEntity
  8
Sheet_View_1_Drawing_1
 62
    18
420
        0
 48
25.39999961853027
370
    50
100
AcDbLine
 10
87.15931231636166
 20
155.1189785793381
 30
0.0
 11
86.65931231636166
 21
155.1189785793381
 31
0.0
  0
LINE
  5
2D8
330
1F
100
AcDbEntity
  8
Sheet_View_1_Drawing_1
 62
    18
420
        0
 48
25.39999961853027
370
    50
100
AcDbLine
 10
86.65931231636166
 20
155.1189785793381
 30
0.0
 11
86.65931231636166
 21
154.1189785793381
 31
0.0
  0
LINE
  5
2D9
330
1F
100
AcDbEntity
  8
Sheet_View_1_Drawing_1
 62
    18
420
        0
 48
25.39999961853027
370
    50
100
AcDbLine
 10
86.65931231636166
 20
154.1189785793381
 30
0.0
 11
89.65931231636166
 21
154.1189785793381
 31
0.0
  0
LINE
  5
2DA
330
1F
100
AcDbEntity
  8
Sheet_View_1_Drawing_1
 62
    18
420
        0
 48
25.39999961853027
370
    50
100
AcDbLine
 10
89.65931231636166
 20
154.1189785793381
 30
0.0
 11
90.15931231636166
 21
154.0889785793381
 31
0.0
  0
LINE
  5
2DB
330
1F
100
AcDbEntity
  8
Sheet_View_1_Drawing_1
 62
    18
420
        0
 48
25.39999961853027
370
    50
100
AcDbLine
 10
90.15931231636166
 20
154.0889785793381
 30
0.0
 11
90.15931231636166
 21
154.968978579338
 31
0.0
  0
LINE
  5
2DC
330
1F
100
AcDbEntity
  8
Sheet_View_1_Drawing_1
 62
    18
420
        0
 48
25.39999961853027
370
    50
100
AcDbLine
 10
90.15931231636166
 20
154.9689785793381
 30
0.0
 11
89.65931231636166
 21
154.9689785793381
 31
0.0
  0
ARC
  5
2DD
330
1F
100
AcDbEntity
  8
Sheet_View_1_Drawing_1
 62
    18
420
        0
 48
25.39999961853027
370
    50
100
AcDbCircle
 10
125.1593123163617
 20
146.9709289232806
 30
0.0
 40
3.0
100
AcDbArc
 50
0.000000000000573
 51
90.0
  0
LINE
  5
2DE
330
1F
100
AcDbEntity
  8
Sheet_View_1_Drawing_1
 62
    18
420
        0
 48
25.39999961853027
370
    50
100
AcDbLine
 10
128.1593123163617
 20
146.9709289232806
 30
0.0
 11
128.1593123163617
 21
128.4709289232806
 31
0.0
  0
LINE
  5
2DF
330
1F
100
AcDbEntity
  8
Sheet_View_1_Drawing_1
 62
    18
420
        0
 48
25.39999961853027
370
    50
100
AcDbLine
 10
128.1593123163617
 20
128.4709289232806
 30
0.0
 11
129.1593123163616
 21
128.4709289232806
 31
0.0
  0
LINE
  5
2E0
330
1F
100
AcDbEntity
  8
Sheet_View_1_Drawing_1
 62
    18
420
        0
 48
25.39999961853027
370
    50
100
AcDbLine
 10
129.1593123163617
 20
128.4709289232806
 30
0.0
 11
129.1593123163617
 21
146.9709289232806
 31
0.0
  0
ARC
  5
2E1
330
1F
100
AcDbEntity
  8
Sheet_View_1_Drawing_1
 62
    18
420
        0
 48
25.39999961853027
370
    50
100
AcDbCircle
 10
125.1593123163617
 20
146.9709289232806
 30
0.0
 40
4.000000000000014
100
AcDbArc
 50
0.000000000000573
 51
90.0
  0
LINE
  5
2E2
330
1F
100
AcDbEntity
  8
Sheet_View_1_Drawing_1
 62
    18
420
        0
 48
25.39999961853027
370
    50
100
AcDbLine
 10
125.1593123163617
 20
150.9709289232806
 30
0.0
 11
119.5322956625691
 21
150.9709289232806
 31
0.0
  0
ARC
  5
2E3
330
1F
100
AcDbEntity
  8
Sheet_View_1_Drawing_1
 62
    18
420
        0
 48
25.39999961853027
370
    50
100
AcDbCircle
 10
119.5322956625691
 20
152.9709289232806
 30
0.0
 40
2.0
100
AcDbArc
 50
194.4775121859291
 51
270.0
  0
ARC
  5
2E4
330
1F
100
AcDbEntity
  8
Sheet_View_1_Drawing_1
 62
    18
420
        0
 48
25.39999961853027
370
    50
100
AcDbCircle
 10
115.6593123163617
 20
151.9709289232806
 30
0.0
 40
1.999999999999988
100
AcDbArc
 50
14.47751218593086
 51
90.0
  0
LINE
  5
2E5
330
1F
100
AcDbEntity
  8
Sheet_View_1_Drawing_1
 62
    18
420
        0
 48
25.39999961853027
370
    50
100
AcDbLine
 10
115.6593123163617
 20
153.9709289232806
 30
0.0
 11
111.1593123163616
 21
153.9709289232806
 31
0.0
  0
LINE
  5
2E6
330
1F
100
AcDbEntity
  8
Sheet_View_1_Drawing_1
 62
    18
420
        0
 48
25.39999961853027
370
    50
100
AcDbLine
 10
111.1593123163616
 20
153.9709289232806
 30
0.0
 11
111.1593123163616
 21
149.8606223867596
 31
0.0
  0
LINE
  5
2E7
330
1F
100
AcDbEntity
  8
Sheet_View_1_Drawing_1
 62
    18
420
        0
 48
25.39999961853027
370
    50
100
AcDbLine
 10
111.1593123163616
 20
149.8606223867596
 30
0.0
 11
112.6593123163617
 21
149.8606223867596
 31
0.0
  0
LINE
  5
2E8
330
1F
100
AcDbEntity
  8
Sheet_View_1_Drawing_1
 62
    18
420
        0
 48
25.39999961853027
370
    50
100
AcDbLine
 10
112.6593123163617
 20
149.8606223867596
 30
0.0
 11
112.6593123163617
 21
152.9709289232806
 31
0.0
  0
LINE
  5
2E9
330
1F
100
AcDbEntity
  8
Sheet_View_1_Drawing_1
 62
    18
420
        0
 48
25.39999961853027
370
    50
100
AcDbLine
 10
112.6593123163617
 20
152.9709289232806
 30
0.0
 11
115.6593123163617
 21
152.9709289232806
 31
0.0
  0
ARC
  5
2EA
330
1F
100
AcDbEntity
  8
Sheet_View_1_Drawing_1
 62
    18
420
        0
 48
25.39999961853027
370
    50
100
AcDbCircle
 10
115.6593123163617
 20
151.9709289232806
 30
0.0
 40
1.000000000000028
100
AcDbArc
 50
14.47751218592946
 51
90.0
  0
ARC
  5
2EB
330
1F
100
AcDbEntity
  8
Sheet_View_1_Drawing_1
 62
    18
420
        0
 48
25.39999961853027
370
    50
100
AcDbCircle
 10
119.5322956625691
 20
152.9709289232806
 30
0.0
 40
3.000000000000005
100
AcDbArc
 50
194.4775121859293
 51
270.0
  0
LINE
  5
2EC
330
1F
100
AcDbEntity
  8
Sheet_View_1_Drawing_1
 62
    18
420
        0
 48
25.39999961853027
370
    50
100
AcDbLine
 10
119.5322956625691
 20
149.9709289232806
 30
0.0
 11
125.1593123163617
 21
149.9709289232806
 31
0.0
  0
ARC
  5
2ED
330
1F
100
AcDbEntity
  8
Sheet_View_1_Drawing_1
 62
    18
420
        0
 48
25.39999961853027
370
    50
100
AcDbCircle
 10
95.15931231636168
 20
146.9709289232806
 30
0.0
 40
3.0
100
AcDbArc
 50
90.0
 51
179.9999999999994
  0
LINE
  5
2EE
330
1F
100
AcDbEntity
  8
Sheet_View_1_Drawing_1
 62
    18
420
        0
 48
25.39999961853027
370
    50
100
AcDbLine
 10
95.15931231636168
 20
149.9709289232806
 30
0.0
 11
100.7863289701543
 21
149.9709289232806
 31
0.0
  0
ARC
  5
2EF
330
1F
100
AcDbEntity
  8
Sheet_View_1_Drawing_1
 62
    18
420
        0
 48
25.39999961853027
370
    50
100
AcDbCircle
 10
100.7863289701543
 20
152.9709289232806
 30
0.0
 40
2.999999999999972
100
AcDbArc
 50
270.0
 51
345.5224878140705
  0
ARC
  5
2F0
330
1F
100
AcDbEntity
  8
Sheet_View_1_Drawing_1
 62
    18
420
        0
 48
25.39999961853027
370
    50
100
AcDbCircle
 10
104.6593123163617
 20
151.9709289232806
 30
0.0
 40
0.9999999999999837
100
AcDbArc
 50
89.99999999999837
 51
165.5224878140682
  0
LINE
  5
2F1
330
1F
100
AcDbEntity
  8
Sheet_View_1_Drawing_1
 62
    18
420
        0
 48
25.39999961853027
370
    50
100
AcDbLine
 10
104.6593123163617
 20
152.9709289232806
 30
0.0
 11
107.6593123163617
 21
152.9709289232806
 31
0.0
  0
LINE
  5
2F2
330
1F
100
AcDbEntity
  8
Sheet_View_1_Drawing_1
 62
    18
420
        0
 48
25.39999961853027
370
    50
100
AcDbLine
 10
107.6593123163617
 20
152.9709289232806
 30
0.0
 11
107.6593123163617
 21
149.8606223867596
 31
0.0
  0
LINE
  5
2F3
330
1F
100
AcDbEntity
  8
Sheet_View_1_Drawing_1
 62
    18
420
        0
 48
25.39999961853027
370
    50
100
AcDbLine
 10
107.6593123163617
 20
149.8606223867596
 30
0.0
 11
109.1593123163616
 21
149.8606223867596
 31
0.0
  0
LINE
  5
2F4
330
1F
100
AcDbEntity
  8
Sheet_View_1_Drawing_1
 62
    18
420
        0
 48
25.39999961853027
370
    50
100
AcDbLine
 10
109.1593123163616
 20
149.8606223867596
 30
0.0
 11
109.1593123163616
 21
153.9709289232806
 31
0.0
  0
LINE
  5
2F5
330
1F
100
AcDbEntity
  8
Sheet_View_1_Drawing_1
 62
    18
420
        0
 48
25.39999961853027
370
    50
100
AcDbLine
 10
109.1593123163616
 20
153.9709289232806
 30
0.0
 11
104.6593123163617
 21
153.9709289232806
 31
0.0
  0
ARC
  5
2F6
330
1F
100
AcDbEntity
  8
Sheet_View_1_Drawing_1
 62
    18
420
        0
 48
25.39999961853027
370
    50
100
AcDbCircle
 10
104.6593123163617
 20
151.9709289232806
 30
0.0
 40
2.000000000000028
100
AcDbArc
 50
90.0
 51
165.5224878140704
  0
ARC
  5
2F7
330
1F
100
AcDbEntity
  8
Sheet_View_1_Drawing_1
 62
    18
420
        0
 48
25.39999961853027
370
    50
100
AcDbCircle
 10
100.7863289701543
 20
152.9709289232806
 30
0.0
 40
2.000000000000008
100
AcDbArc
 50
269.9999999999992
 51
345.5224878140701
  0
LINE
  5
2F8
330
1F
100
AcDbEntity
  8
Sheet_View_1_Drawing_1
 62
    18
420
        0
 48
25.39999961853027
370
    50
100
AcDbLine
 10
100.7863289701543
 20
150.9709289232806
 30
0.0
 11
95.15931231636168
 21
150.9709289232806
 31
0.0
  0
ARC
  5
2F9
330
1F
100
AcDbEntity
  8
Sheet_View_1_Drawing_1
 62
    18
420
        0
 48
25.39999961853027
370
    50
100
AcDbCircle
 10
95.15931231636168
 20
146.9709289232806
 30
0.0
 40
4.0
100
AcDbArc
 50
90.0
 51
179.9999999999994
  0
LINE
  5
2FA
330
1F
100
AcDbEntity
  8
Sheet_View_1_Drawing_1
 62
    18
420
        0
 48
25.39999961853027
370
    50
100
AcDbLine
 10
91.15931231636168
 20
146.9709289232806
 30
0.0
 11
91.15931231636168
 21
128.4709289232806
 31
0.0
  0
LINE
  5
2FB
330
1F
100
AcDbEntity
  8
Sheet_View_1_Drawing_1
 62
    18
420
        0
 48
25.39999961853027
370
    50
100
AcDbLine
 10
91.15931231636168
 20
128.4709289232806
 30
0.0
 11
92.15931231636168
 21
128.4709289232806
 31
0.0
  0
LINE
  5
2FC
330
1F
100
AcDbEntity
  8
Sheet_View_1_Drawing_1
 62
    18
420
        0
 48
25.39999961853027
370
    50
100
AcDbLine
 10
92.15931231636168
 20
128.4709289232806
 30
0.0
 11
92.15931231636168
 21
146.9709289232806
 31
0.0
  0
LINE
  5
2FD
330
1F
100
AcDbEntity
  8
Sheet_View_1_Drawing_1
 62
    18
420
        0
 48
25.39999961853027
370
    50
100
AcDbLine
 10
134.1617176269156
 20
137.6396483399769
 30
0.0
 11
134.1617176269156
 21
136.8488005906122
 31
0.0
  0
SPLINE
  5
2FE
330
1F
100
AcDbEntity
  8
Sheet_View_1_Drawing_1
 62
    18
420
        0
 48
25.39999961853027
370
    50
100
AcDbSpline
210
0.0
220
0.0
230
1.0
 70
     8
 71
     3
 72
    11
 73
     7
 74
     0
 42
0.000000001
 43
0.0000001
 40
0.0
 40
0.0
 40
0.0
 40
0.0
 40
0.4668596485785884
 40
0.9337192971571768
 40
0.9337192971571768
 40
1.073588596565247
 40
1.073588596565247
 40
1.073588596565247
 40
1.073588596565247
 10
134.1617176269156
 20
136.8488005906122
 30
0.0
 10
134.4522457409848
 20
136.9238146269318
 30
0.0
 10
135.0318578622947
 20
137.2216726120254
 30
0.0
 10
135.4032186354707
 20
137.7571369639604
 30
0.0
 10
135.5494863669046
 20
138.1186264885132
 30
0.0
 10
135.5832028354499
 20
138.2019611163897
 30
0.0
 10
135.6169172920807
 20
138.2852960503273
 30
0.0
  0
LINE
  5
2FF
330
1F
100
AcDbEntity
  8
Sheet_View_1_Drawing_1
 62
    18
420
        0
 48
25.39999961853027
370
    50
100
AcDbLine
 10
135.6169172920807
 20
138.2852922637159
 30
0.0
 11
136.9093123163617
 21
138.2852922637159
 31
0.0
  0
ARC
  5
300
330
1F
100
AcDbEntity
  8
Sheet_View_1_Drawing_1
 62
    18
420
        0
 48
25.39999961853027
370
    50
100
AcDbCircle
 10
136.9093123163617
 20
138.5352922637159
 30
0.0
 40
0.25
100
AcDbArc
 50
270.0
 51
0.000000000000573
  0
LINE
  5
301
330
1F
100
AcDbEntity
  8
Sheet_View_1_Drawing_1
 62
    18
420
        0
 48
25.39999961853027
370
    50
100
AcDbLine
 10
137.1593123163617
 20
138.5352922637159
 30
0.0
 11
137.1593123163617
 21
139.0352922637159
 31
0.0
  0
ARC
  5
302
330
1F
100
AcDbEntity
  8
Sheet_View_1_Drawing_1
 62
    18
420
        0
 48
25.39999961853027
370
    50
100
AcDbCircle
 10
136.9093123163617
 20
139.0352922637159
 30
0.0
 40
0.25
100
AcDbArc
 50
0.000000000000573
 51
90.0
  0
LINE
  5
303
330
1F
100
AcDbEntity
  8
Sheet_View_1_Drawing_1
 62
    18
420
        0
 48
25.39999961853027
370
    50
100
AcDbLine
 10
136.9093123163617
 20
139.2852922637159
 30
0.0
 11
135.6169172920807
 21
139.2852922637159
 31
0.0
  0
SPLINE
  5
304
330
1F
100
AcDbEntity
  8
Sheet_View_1_Drawing_1
 62
    18
420
        0
 48
25.39999961853027
370
    50
100
AcDbSpline
210
0.0
220
0.0
230
1.0
 70
     8
 71
     3
 72
    11
 73
     7
 74
     0
 42
0.000000001
 43
0.0000001
 40
0.0
 40
0.0
 40
0.0
 40
0.0
 40
0.4668596485785884
 40
0.9337192971571768
 40
0.9337192971571768
 40
1.073588596565246
 40
1.073588596565246
 40
1.073588596565246
 40
1.073588596565246
 10
134.1617176269156
 20
140.7217839368196
 30
-0.0000000000000007
 10
134.4522457409848
 20
140.6467699005
 30
-0.0000000000000007
 10
135.0318578622947
 20
140.3489119154064
 30
-0.0000000000000008
 10
135.4032186354707
 20
139.8134475634713
 30
-0.0000000000000008
 10
135.5494863669046
 20
139.4519580389186
 30
-0.0000000000000008
 10
135.5832028354499
 20
139.3686234110421
 30
-0.0000000000000008
 10
135.6169172920807
 20
139.2852884771045
 30
-0.0000000000000008
  0
LINE
  5
305
330
1F
100
AcDbEntity
  8
Sheet_View_1_Drawing_1
 62
    18
420
        0
 48
25.39999961853027
370
    50
100
AcDbLine
 10
134.1617176269156
 20
140.7217839368196
 30
0.0
 11
134.1617176269156
 21
139.9309361874548
 31
0.0
  0
ARC
  5
306
330
1F
100
AcDbEntity
  8
Sheet_View_1_Drawing_1
 62
    18
420
        0
 48
25.39999961853027
370
    50
100
AcDbCircle
 10
133.6617176269156
 20
138.7852922637159
 30
0.0
 40
1.249999999999999
100
AcDbArc
 50
293.5781784782029
 51
66.42182152179815
  0
LINE
  5
307
330
1F
100
AcDbEntity
  8
Sheet_View_1_Drawing_1
 62
    18
420
        0
 48
25.39999961853027
370
    50
100
AcDbLine
 10
86.15690700580775
 20
136.8488005906122
 30
0.0
 11
86.15690700580775
 21
137.6396483399769
 31
0.0
  0
ARC
  5
308
330
1F
100
AcDbEntity
  8
Sheet_View_1_Drawing_1
 62
    18
420
        0
 48
25.39999961853027
370
    50
100
AcDbCircle
 10
86.65690700580775
 20
138.7852922637159
 30
0.0
 40
1.249999999999999
100
AcDbArc
 50
113.5781784782025
 51
246.4218215217981
  0
LINE
  5
309
330
1F
100
AcDbEntity
  8
Sheet_View_1_Drawing_1
 62
    18
420
        0
 48
25.39999961853027
370
    50
100
AcDbLine
 10
86.15690700580775
 20
139.9309361874548
 30
0.0
 11
86.15690700580775
 21
140.7217839368196
 31
0.0
  0
SPLINE
  5
30A
330
1F
100
AcDbEntity
  8
Sheet_View_1_Drawing_1
 62
    18
420
        0
 48
25.39999961853027
370
    50
100
AcDbSpline
210
0.0
220
0.0
230
1.0
 70
     8
 71
     3
 72
    11
 73
     7
 74
     0
 42
0.000000001
 43
0.0000001
 40
0.0
 40
0.0
 40
0.0
 40
0.0
 40
0.4668596485785884
 40
0.9337192971571768
 40
0.9337192971571768
 40
1.073588596565246
 40
1.073588596565246
 40
1.073588596565246
 40
1.073588596565246
 10
86.15690700580775
 20
140.7217839368196
 30
0.0
 10
85.86637889173855
 20
140.6467699005
 30
0.0
 10
85.28676677042863
 20
140.3489119154064
 30
0.0
 10
84.91540599725268
 20
139.8134475634713
 30
0.0
 10
84.76913826581877
 20
139.4519580389186
 30
0.0
 10
84.73542179727345
 20
139.3686234110421
 30
0.0
 10
84.70170734064266
 20
139.2852884771045
 30
0.0
  0
LINE
  5
30B
330
1F
100
AcDbEntity
  8
Sheet_View_1_Drawing_1
 62
    18
420
        0
 48
25.39999961853027
370
    50
100
AcDbLine
 10
84.70170734064266
 20
139.2852922637159
 30
0.0
 11
83.40931231636166
 21
139.2852922637159
 31
0.0
  0
ARC
  5
30C
330
1F
100
AcDbEntity
  8
Sheet_View_1_Drawing_1
 62
    18
420
        0
 48
25.39999961853027
370
    50
100
AcDbCircle
 10
83.40931231636166
 20
139.0352922637159
 30
0.0
 40
0.25
100
AcDbArc
 50
90.0
 51
179.9999999999994
  0
LINE
  5
30D
330
1F
100
AcDbEntity
  8
Sheet_View_1_Drawing_1
 62
    18
420
        0
 48
25.39999961853027
370
    50
100
AcDbLine
 10
83.15931231636168
 20
139.0352922637159
 30
0.0
 11
83.15931231636168
 21
138.5352922637159
 31
0.0
  0
ARC
  5
30E
330
1F
100
AcDbEntity
  8
Sheet_View_1_Drawing_1
 62
    18
420
        0
 48
25.39999961853027
370
    50
100
AcDbCircle
 10
83.40931231636166
 20
138.5352922637159
 30
0.0
 40
0.2499999999999858
100
AcDbArc
 50
179.9999999999994
 51
270.0000000000032
  0
LINE
  5
30F
330
1F
100
AcDbEntity
  8
Sheet_View_1_Drawing_1
 62
    18
420
        0
 48
25.39999961853027
370
    50
100
AcDbLine
 10
83.40931231636166
 20
138.2852922637159
 30
0.0
 11
84.70170734064266
 21
138.2852922637159
 31
0.0
  0
SPLINE
  5
310
330
1F
100
AcDbEntity
  8
Sheet_View_1_Drawing_1
 62
    18
420
        0
 48
25.39999961853027
370
    50
100
AcDbSpline
210
0.0
220
0.0
230
1.0
 70
     8
 71
     3
 72
    11
 73
     7
 74
     0
 42
0.000000001
 43
0.0000001
 40
0.0
 40
0.0
 40
0.0
 40
0.0
 40
0.4668596485785884
 40
0.9337192971571768
 40
0.9337192971571768
 40
1.073588596565247
 40
1.073588596565247
 40
1.073588596565247
 40
1.073588596565247
 10
86.15690700580775
 20
136.8488005906122
 30
-0.000000000000001
 10
85.86637889173855
 20
136.9238146269318
 30
-0.000000000000001
 10
85.28676677042863
 20
137.2216726120254
 30
-0.000000000000001
 10
84.91540599725268
 20
137.7571369639604
 30
-0.0000000000000009
 10
84.76913826581877
 20
138.1186264885132
 30
-0.0000000000000009
 10
84.73542179727346
 20
138.2019611163897
 30
-0.0000000000000009
 10
84.70170734064266
 20
138.2852960503273
 30
-0.0000000000000009
  0
ARC
  5
311
330
1F
100
AcDbEntity
  8
Sheet_View_1_Drawing_1
 62
    18
420
        0
 48
25.39999961853027
370
    50
100
AcDbCircle
 10
124.6593123163617
 20
124.6301423521867
 30
0.0
 40
1.749999999999991
100
AcDbArc
 50
171.7867892982618
 51
179.9999999999991
  0
ARC
  5
312
330
1F
100
AcDbEntity
  8
Sheet_View_1_Drawing_1
 62
    18
420
        0
 48
25.39999961853027
370
    50
100
AcDbCircle
 10
95.65931231636168
 20
124.6301423521867
 30
0.0
 40
1.75
100
AcDbArc
 50
0.000000000000573
 51
8.213210701737312
  0
LINE
  5
313
330
1F
100
AcDbEntity
  8
Sheet_View_1_Drawing_1
 62
    18
420
        0
 48
25.39999961853027
370
    50
100
AcDbLine
 10
86.65934715666398
 20
154.2801423521864
 30
0.0
 11
86.53431231636199
 21
154.2801423521864
 31
0.0
  0
LINE
  5
314
330
1F
100
AcDbEntity
  8
Sheet_View_1_Drawing_1
 62
    18
420
        0
 48
25.39999961853027
370
    50
100
AcDbLine
 10
86.82720553517571
 20
155.1301423521876
 30
0.0
 11
86.53431231636199
 21
155.1301423521876
 31
0.0
  0
LINE
  5
315
330
1F
100
AcDbEntity
  8
Sheet_View_1_Drawing_1
 62
    18
420
        0
 48
25.39999961853027
370
    50
100
AcDbLine
 10
133.4914190975476
 20
155.1301423521876
 30
0.0
 11
132.7843123163616
 21
155.1301423521876
 31
0.0
  0
LINE
  5
316
330
1F
100
AcDbEntity
  8
Sheet_View_1_Drawing_1
 62
    18
420
        0
 48
25.39999961853027
370
    50
100
AcDbLine
 10
132.7843123163617
 20
155.1189929858829
 30
0.0
 11
132.7843123163617
 21
155.1301423521867
 31
0.0
  0
SPLINE
  5
317
330
1F
100
AcDbEntity
  8
Sheet_View_1_Drawing_1
 62
    18
420
        0
 48
25.39999961853027
370
    50
100
AcDbSpline
210
0.0
220
0.0
230
1.0
 70
     8
 71
     3
 72
    12
 73
     8
 74
     0
 42
0.000000001
 43
0.0000001
 40
0.0677304014579393
 40
0.0677304014579393
 40
0.0677304014579393
 40
0.0677304014579393
 40
0.100689815218317
 40
0.1171695220985059
 40
0.1336492289786948
 40
0.1501289358588837
 40
0.1830883496192615
 40
0.1830883496192615
 40
0.1830883496192615
 40
0.1830883496192615
 10
133.857535621002
 20
155.3069190474213
 30
0.0
 10
133.8619530537696
 20
155.311336628352
 30
0.0
 10
133.86882900604
 20
155.3177151576108
 30
0.0
 10
133.8784478244196
 20
155.3256812668288
 30
0.0
 10
133.8858718947783
 20
155.3313750533238
 30
0.0
 10
133.8960392799417
 20
155.3385852505853
 30
0.0
 10
133.9039346559993
 20
155.3435437561427
 30
0.0
 10
133.9093123163635
 20
155.3466487031349
 30
0.0
  0
ARC
  5
318
330
1F
100
AcDbEntity
  8
Sheet_View_1_Drawing_1
 62
    18
420
        0
 48
25.39999961853027
370
    50
100
AcDbCircle
 10
134.9093123163617
 20
155.1301423521867
 30
0.0
 40
0.2500000000000284
100
AcDbArc
 50
44.9999999999954
 51
90.0
  0
SPLINE
  5
319
330
1F
100
AcDbEntity
  8
Sheet_View_1_Drawing_1
 62
    18
420
        0
 48
25.39999961853027
370
    50
100
AcDbSpline
210
0.0
220
0.0
230
1.0
 70
     8
 71
     3
 72
    10
 73
     6
 74
     0
 42
0.000000001
 43
0.0000001
 40
-0.0073150619325273
 40
-0.0073150619325273
 40
-0.0073150619325273
 40
-0.0073150619325273
 40
-0.0035381658565845
 40
-0.0035381658565845
 40
0.0
 40
0.0
 40
0.0
 40
0.0
 10
133.7403783334813
 20
154.1740763364211
 30
0.0
 10
133.7290746119326
 20
154.1627725810363
 30
0.0
 10
133.7160350690433
 20
154.1533472566828
 30
0.0
 10
133.6883771140177
 20
154.1394252825257
 30
0.0
 10
133.6740657009276
 20
154.1347325283506
 30
0.0
 10
133.6592966969403
 20
154.1322377220041
 30
0.0
  0
SPLINE
  5
31A
330
1F
100
AcDbEntity
  8
Sheet_View_1_Drawing_1
 62
    18
420
        0
 48
25.39999961853027
370
    50
100
AcDbSpline
210
0.0
220
0.0
230
1.0
 70
     8
 71
     3
 72
    20
 73
    16
 74
     0
 42
0.000000001
 43
0.0000001
 40
-0.0629545682168083
 40
-0.0629545682168083
 40
-0.0629545682168083
 40
-0.0629545682168083
 40
-0.0158828941287673
 40
-0.0158828941287673
 40
-0.0083907999819474
 40
-0.0083907999819474
 40
-0.0051217855506335
 40
-0.0051217855506335
 40
-0.0033587189751863
 40
-0.0033587189751863
 40
-0.0017422995919194
 40
-0.0017422995919194
 40
-0.0007719738427403
 40
-0.0007719738427403
 40
0.0
 40
0.0
 40
0.0
 40
0.0
 10
108.5919220645386
 20
155.3069190454257
 30
0.0000000000000056
 10
108.3932370541207
 20
155.2937780875192
 30
0.0000000000000056
 10
108.0936643378887
 20
155.2685242633631
 30
-0.0000000000000113
 10
107.8700173980428
 20
155.2142272220228
 30
-0.0000000000000113
 10
107.8362949307565
 20
155.2048348128365
 30
0.0000000000000226
 10
107.7938105080399
 20
155.1887240723696
 30
0.0000000000000226
 10
107.7803158870049
 20
155.1829609814509
 30
-0.0000000000000226
 10
107.76158502474
 20
155.1728993668536
 30
-0.0000000000000226
 10
107.754945667987
 20
155.1689011107381
 30
0.0000000000000169
 10
107.7434367707958
 20
155.1604350981265
 30
0.0000000000000169
 10
107.7379593609519
 20
155.1556619034431
 30
0.0
 10
107.7311856457794
 20
155.1470592060454
 30
0.0
 10
107.7290012158312
 20
155.1434993779955
 30
0.0000000000000113
 10
107.7264441086112
 20
155.1365808919369
 30
0.0000000000000113
 10
107.7258220246202
 20
155.1334103747876
 30
0.0
 10
107.7258220246202
 20
155.1301423521867
 30
0.0
  0
LINE
  5
31B
330
1F
100
AcDbEntity
  8
Sheet_View_1_Drawing_1
 62
    18
420
        0
 48
25.39999961853027
370
    50
100
AcDbLine
 10
87.53431231636176
 20
155.306919047482
 30
0.0
 11
87.53431231636176
 21
155.1301423521876
 31
0.0
  0
LINE
  5
31C
330
1F
100
AcDbEntity
  8
Sheet_View_1_Drawing_1
 62
    18
420
        0
 48
25.39999961853027
370
    50
100
AcDbLine
 10
87.53431231636168
 20
155.1301423521867
 30
0.0
 11
107.7258220246202
 21
155.1301423521867
 31
0.0
  0
SPLINE
  5
31D
330
1F
100
AcDbEntity
  8
Sheet_View_1_Drawing_1
 62
    18
420
        0
 48
25.39999961853027
370
    50
100
AcDbSpline
210
0.0
220
0.0
230
1.0
 70
     8
 71
     3
 72
    10
 73
     6
 74
     0
 42
0.000000001
 43
0.0000001
 40
-0.2283251422864581
 40
-0.2283251422864581
 40
-0.2283251422864581
 40
-0.2283251422864581
 40
-0.1141624465535295
 40
-0.1141624465535295
 40
0.0
 40
0.0
 40
0.0
 40
0.0
 10
111.7267025681847
 20
155.3069190454257
 30
-0.0000000000000056
 10
111.244467350463
 20
155.3388139160239
 30
-0.0000000000000056
 10
110.6228442579147
 20
155.3466487264242
 30
0.0000000000000226
 10
109.6957772525565
 20
155.3466486798413
 30
0.0000000000000226
 10
109.0741561505446
 20
155.3388138411726
 30
-0.0000000000000056
 10
108.5919220645386
 20
155.3069190454257
 30
-0.0000000000000056
  0
LINE
  5
31E
330
1F
100
AcDbEntity
  8
Sheet_View_1_Drawing_1
 62
    18
420
        0
 48
25.39999961853027
370
    50
100
AcDbLine
 10
132.7843123163616
 20
155.3801423521861
 30
0.0
 11
132.7843123163616
 21
155.306919047482
 31
0.0
  0
LINE
  5
31F
330
1F
100
AcDbEntity
  8
Sheet_View_1_Drawing_1
 62
    18
420
        0
 48
25.39999961853027
370
    50
100
AcDbLine
 10
132.7843123163617
 20
155.3801423521867
 30
0.0
 11
87.53431231636168
 21
155.3801423521867
 31
0.0
  0
LINE
  5
320
330
1F
100
AcDbEntity
  8
Sheet_View_1_Drawing_1
 62
    18
420
        0
 48
25.39999961853027
370
    50
100
AcDbLine
 10
87.53431231636176
 20
155.3801423521861
 30
0.0
 11
87.53431231636176
 21
155.306919047482
 31
0.0
  0
SPLINE
  5
321
330
1F
100
AcDbEntity
  8
Sheet_View_1_Drawing_1
 62
    18
420
        0
 48
25.39999961853027
370
    50
100
AcDbSpline
210
0.0
220
0.0
230
1.0
 70
     8
 71
     3
 72
    10
 73
     6
 74
     0
 42
0.000000001
 43
0.0000001
 40
-0.0073136979943291
 40
-0.0073136979943291
 40
-0.0073136979943291
 40
-0.0073136979943291
 40
-0.0037757370888534
 40
-0.0037757370888534
 40
0.0
 40
0.0
 40
0.0
 40
0.0
 10
86.6593278152084
 20
154.1322377423719
 30
0.0
 10
86.6445569356368
 20
154.1347328779304
 30
0.0
 10
86.63024377508128
 20
154.1394265181571
 30
0.0000000000000056
 10
86.60258639737006
 20
154.1533495431141
 30
0.0000000000000057
 10
86.58954864436065
 20
154.1627739574705
 30
0.0
 10
86.57824629924205
 20
154.1740763364211
 30
0.0
  0
ARC
  5
322
330
1F
100
AcDbEntity
  8
Sheet_View_1_Drawing_1
 62
    18
420
        0
 48
25.39999961853027
370
    50
100
AcDbCircle
 10
96.78431231636168
 20
129.5051423521867
 30
0.0
 40
1.124999999999972
100
AcDbArc
 50
179.9999999999994
 51
270.0
  0
ARC
  5
323
330
1F
100
AcDbEntity
  8
Sheet_View_1_Drawing_1
 62
    18
420
        0
 48
25.39999961853027
370
    50
100
AcDbCircle
 10
123.5343123163617
 20
129.5051423521867
 30
0.0
 40
1.125
100
AcDbArc
 50
270.0
 51
0.000000000000573
  0
ARC
  5
324
330
1F
100
AcDbEntity
  8
Sheet_View_1_Drawing_1
 62
    18
420
        0
 48
25.39999961853027
370
    50
100
AcDbCircle
 10
123.5343123163617
 20
129.5051423521867
 30
0.0
 40
0.875
100
AcDbArc
 50
270.0
 51
0.000000000000573
  0
ARC
  5
325
330
1F
100
AcDbEntity
  8
Sheet_View_1_Drawing_1
 62
    18
420
        0
 48
25.39999961853027
370
    50
100
AcDbCircle
 10
96.78431231636168
 20
129.5051423521867
 30
0.0
 40
0.875
100
AcDbArc
 50
179.9999999999994
 51
270.0
  0
SPLINE
  5
326
330
1F
100
AcDbEntity
  8
Sheet_View_1_Drawing_1
 62
    18
420
        0
 48
25.39999961853027
370
    50
100
AcDbSpline
210
0.0
220
0.0
230
1.0
 70
     8
 71
     3
 72
    12
 73
     8
 74
     0
 42
0.000000001
 43
0.0000001
 40
0.1830883496192615
 40
0.1830883496192615
 40
0.1830883496192615
 40
0.1830883496192615
 40
0.2160477633796394
 40
0.2325274702598283
 40
0.2490071771400173
 40
0.2654868840202062
 40
0.2984462977805841
 40
0.2984462977805841
 40
0.2984462977805841
 40
0.2984462977805841
 10
86.40931231635986
 20
155.3466487031349
 30
0.0
 10
86.41472004533755
 20
155.3435251932544
 30
0.0
 10
86.42258392048169
 20
155.338585450561
 30
0.0
 10
86.43273980722813
 20
155.3313845159988
 30
0.0
 10
86.4401601792853
 20
155.3256944948467
 30
0.0
 10
86.44977760164974
 20
155.3177307971179
 30
0.0
 10
86.45664624963325
 20
155.3113609739625
 30
0.0
 10
86.46108901172137
 20
155.3069190474213
 30
0.0
  0
ARC
  5
327
330
1F
100
AcDbEntity
  8
Sheet_View_1_Drawing_1
 62
    18
420
        0
 48
25.39999961853027
370
    50
100
AcDbCircle
 10
85.40931231636168
 20
155.1301423521867
 30
0.0
 40
0.2500000000000221
100
AcDbArc
 50
89.99999999998697
 51
134.9999999999954
  0
ARC
  5
328
330
1F
100
AcDbEntity
  8
Sheet_View_1_Drawing_1
 62
    18
420
        0
 48
25.39999961853027
370
    50
100
AcDbCircle
 10
124.6593123163617
 20
124.6301423521867
 30
0.0
 40
1.750000000000014
100
AcDbArc
 50
179.9999999999994
 51
270.0
  0
ARC
  5
329
330
1F
100
AcDbEntity
  8
Sheet_View_1_Drawing_1
 62
    18
420
        0
 48
25.39999961853027
370
    50
100
AcDbCircle
 10
123.5343123163617
 20
129.5051423521867
 30
0.0
 40
1.125
100
AcDbArc
 50
0.000000000000573
 51
90.0
  0
ARC
  5
32A
330
1F
100
AcDbEntity
  8
Sheet_View_1_Drawing_1
 62
    18
420
        0
 48
25.39999961853027
370
    50
100
AcDbCircle
 10
123.5343123163617
 20
129.5051423521867
 30
0.0
 40
0.875
100
AcDbArc
 50
0.000000000000573
 51
90.0
  0
SPLINE
  5
32B
330
1F
100
AcDbEntity
  8
Sheet_View_1_Drawing_1
 62
    18
420
        0
 48
25.39999961853027
370
    50
100
AcDbSpline
210
0.0
220
0.0
230
1.0
 70
     8
 71
     3
 72
    10
 73
     6
 74
     0
 42
0.000000001
 43
0.0000001
 40
-0.0124384197491169
 40
-0.0124384197491169
 40
-0.0124384197491169
 40
-0.0124384197491169
 40
-0.0062192098745584
 40
-0.0062192098745584
 40
0.0
 40
0.0
 40
0.0
 40
0.0
 10
133.9573892395415
 20
154.0443006637479
 30
0.0000000000000114
 10
133.9418661464216
 20
154.0230357499975
 30
0.0000000000000113
 10
133.9297992195335
 20
153.9994515533527
 30
0.0000000000000113
 10
133.9134712942025
 20
153.9493910823035
 30
0.0000000000000113
 10
133.9093123163416
 20
153.9232275970797
 30
0.0000000000000113
 10
133.9093123163416
 20
153.8968996086107
 30
0.0000000000000113
  0
ARC
  5
32C
330
1F
100
AcDbEntity
  8
Sheet_View_1_Drawing_1
 62
    18
420
        0
 48
25.39999961853027
370
    50
100
AcDbCircle
 10
134.9093123163617
 20
155.1301423521867
 30
0.0
 40
0.2500000000000221
100
AcDbArc
 50
0.0000000000065138
 51
45.0000000000046
  0
ARC
  5
32D
330
1F
100
AcDbEntity
  8
Sheet_View_1_Drawing_1
 62
    18
420
        0
 48
25.39999961853027
370
    50
100
AcDbCircle
 10
133.6593123163616
 20
139.2344984284476
 30
0.0
 40
0.7500000000001784
100
AcDbArc
 50
49.81636614135189
 51
66.42182152179807
  0
ARC
  5
32E
330
1F
100
AcDbEntity
  8
Sheet_View_1_Drawing_1
 62
    18
420
        0
 48
25.39999961853027
370
    50
100
AcDbCircle
 10
133.6593123163618
 20
139.2344984284478
 30
0.0
 40
0.7499999999998476
100
AcDbArc
 50
33.21091076089805
 51
49.8163661413509
  0
ARC
  5
32F
330
1F
100
AcDbEntity
  8
Sheet_View_1_Drawing_1
 62
    18
420
        0
 48
25.39999961853027
370
    50
100
AcDbCircle
 10
133.6593123163618
 20
139.2344984284478
 30
0.0
 40
0.7499999999998346
100
AcDbArc
 50
16.60545538044579
 51
33.21091076089624
  0
ARC
  5
330
330
1F
100
AcDbEntity
  8
Sheet_View_1_Drawing_1
 62
    18
420
        0
 48
25.39999961853027
370
    50
100
AcDbCircle
 10
133.6593123163617
 20
139.2344984284477
 30
0.0
 40
0.75
100
AcDbArc
 50
0.000000000000573
 51
16.60545538044894
  0
ARC
  5
331
330
1F
100
AcDbEntity
  8
Sheet_View_1_Drawing_1
 62
    18
420
        0
 48
25.39999961853027
370
    50
100
AcDbCircle
 10
133.6593123163616
 20
138.2757862759256
 30
0.0
 40
0.7500000000000114
100
AcDbArc
 50
293.5781784782043
 51
310.1836338586532
  0
ARC
  5
332
330
1F
100
AcDbEntity
  8
Sheet_View_1_Drawing_1
 62
    18
420
        0
 48
25.39999961853027
370
    50
100
AcDbCircle
 10
133.6593123163618
 20
138.2757862759255
 30
0.0
 40
0.7499999999998083
100
AcDbArc
 50
310.1836338586486
 51
326.7890892391026
  0
ARC
  5
333
330
1F
100
AcDbEntity
  8
Sheet_View_1_Drawing_1
 62
    18
420
        0
 48
25.39999961853027
370
    50
100
AcDbCircle
 10
133.6593123163616
 20
138.2757862759257
 30
0.0
 40
0.7500000000000658
100
AcDbArc
 50
326.7890892391
 51
343.3945446195481
  0
ARC
  5
334
330
1F
100
AcDbEntity
  8
Sheet_View_1_Drawing_1
 62
    18
420
        0
 48
25.39999961853027
370
    50
100
AcDbCircle
 10
133.6593123163616
 20
138.2757862759256
 30
0.0
 40
0.7500000000000568
100
AcDbArc
 50
343.3945446195502
 51
0.000000000000573
  0
ARC
  5
335
330
1F
100
AcDbEntity
  8
Sheet_View_1_Drawing_1
 62
    18
420
        0
 48
25.39999961853027
370
    50
100
AcDbCircle
 10
95.65931231636168
 20
124.6301423521867
 30
0.0
 40
1.75
100
AcDbArc
 50
270.0
 51
0.000000000000573
  0
SPLINE
  5
336
330
1F
100
AcDbEntity
  8
Sheet_View_1_Drawing_1
 62
    18
420
        0
 48
25.39999961853027
370
    50
100
AcDbSpline
210
0.0
220
0.0
230
1.0
 70
     8
 71
     3
 72
    12
 73
     8
 74
     0
 42
0.000000001
 43
0.0000001
 40
-0.0686737329148235
 40
-0.0686737329148235
 40
-0.0686737329148235
 40
-0.0686737329148235
 40
-0.0461391109988618
 40
-0.0461391109988618
 40
-0.0230695554994308
 40
-0.0230695554994308
 40
0.0
 40
0.0
 40
0.0
 40
0.0
 10
85.90931233270213
 20
138.2757862759256
 30
-0.0000000000001814
 10
85.90931233270213
 20
138.1803897098147
 30
-0.0000000000001814
 10
85.92751334236591
 20
138.0858632848208
 30
-0.0000000000001814
 10
85.99920176938025
 20
137.9066091665
 30
-0.0000000000001814
 10
86.05283122645827
 20
137.8238810185453
 30
-0.0000000000001814
 10
86.18878244522534
 20
137.6836382211856
 30
-0.0000000000001814
 10
86.2698044391638
 20
137.6274643693616
 30
-0.0000000000001814
 10
86.35931233256873
 20
137.5883999220713
 30
-0.0000000000001814
  0
SPLINE
  5
337
330
1F
100
AcDbEntity
  8
Sheet_View_1_Drawing_1
 62
    18
420
        0
 48
25.39999961853027
370
    50
100
AcDbSpline
210
0.0
220
0.0
230
1.0
 70
     8
 71
     3
 72
    12
 73
     8
 74
     0
 42
0.000000001
 43
0.0000001
 40
-0.0686737329148229
 40
-0.0686737329148229
 40
-0.0686737329148229
 40
-0.0686737329148229
 40
-0.0461391109988619
 40
-0.0461391109988619
 40
-0.0230695554994309
 40
-0.0230695554994309
 40
0.0
 40
0.0
 40
0.0
 40
0.0
 10
86.35931233256872
 20
139.921884782302
 30
0.0000000000000048
 10
86.27187993551088
 20
139.8837261558793
 30
0.0000000000000048
 10
86.19252543982124
 20
139.8292340849995
 30
0.0000000000000048
 10
86.05691169742555
 20
139.6918289090556
 30
0.0000000000000048
 10
86.0025418802152
 20
139.6095854405793
 30
0.0000000000000048
 10
85.92838772076276
 20
139.4288869714894
 30
0.0000000000000048
 10
85.90931233270214
 20
139.3321595467287
 30
0.0000000000000048
 10
85.90931233270214
 20
139.2344984284477
 30
0.0000000000000048
  0
ARC
  5
338
330
1F
100
AcDbEntity
  8
Sheet_View_1_Drawing_1
 62
    18
420
        0
 48
25.39999961853027
370
    50
100
AcDbCircle
 10
85.40931231636168
 20
155.1301423521867
 30
0.0
 40
0.25
100
AcDbArc
 50
135.0
 51
179.9999999999994
  0
SPLINE
  5
339
330
1F
100
AcDbEntity
  8
Sheet_View_1_Drawing_1
 62
    18
420
        0
 48
25.39999961853027
370
    50
100
AcDbSpline
210
0.0
220
0.0
230
1.0
 70
     8
 71
     3
 72
    10
 73
     6
 74
     0
 42
0.000000001
 43
0.0000001
 40
-0.012438419749117
 40
-0.012438419749117
 40
-0.012438419749117
 40
-0.012438419749117
 40
-0.0062192098745587
 40
-0.0062192098745587
 40
0.0
 40
0.0
 40
0.0
 40
0.0
 10
86.40931231638177
 20
153.8968996086107
 30
0.0000000000000001
 10
86.40931231638177
 20
153.9232275970797
 30
0.0000000000000001
 10
86.40515333852085
 20
153.9493910823035
 30
0.0000000000000001
 10
86.38882541318988
 20
153.9994515533527
 30
0.0000000000000001
 10
86.37675848630171
 20
154.0230357499975
 30
0.0000000000000001
 10
86.36123539318183
 20
154.0443006637479
 30
0.0000000000000001
  0
SPLINE
  5
33A
330
1F
100
AcDbEntity
  8
Sheet_View_1_Drawing_1
 62
    18
420
        0
 48
25.39999961853027
370
    50
100
AcDbSpline
210
0.0
220
0.0
230
1.0
 70
     8
 71
     3
 72
    12
 73
     8
 74
     0
 42
0.000000001
 43
0.0000001
 40
-0.0915649772197637
 40
-0.0915649772197637
 40
-0.0915649772197637
 40
-0.0915649772197637
 40
-0.0615188146651489
 40
-0.0615188146651489
 40
-0.0307594073325744
 40
-0.0307594073325744
 40
0.0
 40
0.0
 40
0.0
 40
0.0
 10
85.6593123328706
 20
139.2344984284477
 30
-0.0000000000000008
 10
85.6593123328706
 20
139.3616938499289
 30
-0.0000000000000008
 10
85.68358034575563
 20
139.4877290832542
 30
-0.0000000000000008
 10
85.77916491510807
 20
139.7267345743486
 30
-0.0000000000000008
 10
85.85067085787877
 20
139.8370387716216
 30
-0.0000000000000008
 10
86.03193914956817
 20
140.0240291681012
 30
-0.0000000000000008
 10
86.13996847481948
 20
140.0989276371998
 30
-0.0000000000000008
 10
86.25931233269272
 20
140.1510135669201
 30
-0.0000000000000008
  0
SPLINE
  5
33B
330
1F
100
AcDbEntity
  8
Sheet_View_1_Drawing_1
 62
    18
420
        0
 48
25.39999961853027
370
    50
100
AcDbSpline
210
0.0
220
0.0
230
1.0
 70
     8
 71
     3
 72
    12
 73
     8
 74
     0
 42
0.000000001
 43
0.0000001
 40
-0.0915649772197654
 40
-0.0915649772197654
 40
-0.0915649772197654
 40
-0.0915649772197654
 40
-0.0615188146651498
 40
-0.0615188146651498
 40
-0.0307594073325749
 40
-0.0307594073325749
 40
0.0
 40
0.0
 40
0.0
 40
0.0
 10
86.25931233269272
 20
137.3592711374532
 30
0.0000000000001795
 10
86.14273580328226
 20
137.4101493060169
 30
0.0000000000001795
 10
86.03692980902937
 20
137.4828054005233
 30
0.0000000000001795
 10
85.85611148583513
 20
137.6660123017818
 30
0.0000000000001795
 10
85.78361839622136
 20
137.7756702597503
 30
0.0000000000001796
 10
85.68474618361807
 20
138.0166015518701
 30
0.0000000000001796
 10
85.6593123328706
 20
138.1455714515511
 30
0.0000000000001796
 10
85.6593123328706
 20
138.2757862759256
 30
0.0000000000001796
  0
ARC
  5
33C
330
1F
100
AcDbEntity
  8
Sheet_View_1_Drawing_1
 62
    18
420
        0
 48
25.39999961853027
370
    50
100
AcDbCircle
 10
96.78431231636168
 20
129.5051423521867
 30
0.0
 40
0.8750000000000284
100
AcDbArc
 50
90.0
 51
179.9999999999994
  0
ARC
  5
33D
330
1F
100
AcDbEntity
  8
Sheet_View_1_Drawing_1
 62
    18
420
        0
 48
25.39999961853027
370
    50
100
AcDbCircle
 10
96.78431231636168
 20
129.5051423521867
 30
0.0
 40
1.125
100
AcDbArc
 50
90.0
 51
179.9999999999994
  0
SPLINE
  5
33E
330
1F
100
AcDbEntity
  8
Sheet_View_1_Drawing_1
 62
    18
420
        0
 48
25.39999961853027
370
    50
100
AcDbSpline
210
0.0
220
0.0
230
1.0
 70
     8
 71
     3
 72
    18
 73
    14
 74
     0
 42
0.000000001
 43
0.0000001
 40
-0.0154689304848617
 40
-0.0154689304848617
 40
-0.0154689304848617
 40
-0.0154689304848617
 40
-0.0103728079870094
 40
-0.0103728079870094
 40
-0.0077608262009177
 40
-0.0077608262009177
 40
-0.006498386609209
 40
-0.006498386609209
 40
-0.0058489196509615
 40
-0.0058489196509615
 40
-0.0018026314930817
 40
-0.0018026314930817
 40
0.0
 40
0.0
 40
0.0
 40
0.0
 10
86.53431231636168
 20
155.1301423521867
 30
0.0
 10
86.53431231636168
 20
155.1517216055446
 30
0.0
 10
86.53151833130869
 20
155.1732100277044
 30
0.0000000000000057
 10
86.52317213754033
 20
155.2047634464182
 30
0.0000000000000056
 10
86.51963747313359
 20
155.2152564134252
 30
-0.0000000000000113
 10
86.51338088819219
 20
155.2304227930061
 30
-0.0000000000000113
 10
86.51118439880176
 20
155.2352976728311
 30
-0.0000000000000056
 10
86.5076231900789
 20
155.2425692578904
 30
-0.0000000000000056
 10
86.5063727130538
 20
155.2450193991408
 30
0.0000000000000056
 10
86.49704170676524
 20
155.2625804702011
 30
0.0000000000000056
 10
86.48746854171131
 20
155.2768427822096
 30
-0.0000000000000056
 10
86.4716319988138
 20
155.2958819018106
 30
-0.0000000000000056
 10
86.46648503899235
 20
155.3015230110707
 30
0.0
 10
86.46108901168081
 20
155.3069190454257
 30
0.0
  0
LINE
  5
33F
330
1F
100
AcDbEntity
  8
Sheet_View_1_Drawing_1
 62
    18
420
        0
 48
25.39999961853027
370
    50
100
AcDbLine
 10
86.40931231636274
 20
154.1301423521878
 30
0.0
 11
86.6593126292723
 21
154.1301423521878
 31
0.0
  0
SPLINE
  5
340
330
1F
100
AcDbEntity
  8
Sheet_View_1_Drawing_1
 62
    18
420
        0
 48
25.39999961853027
370
    50
100
AcDbSpline
210
0.0
220
0.0
230
1.0
 70
     8
 71
     3
 72
    16
 73
    12
 74
     0
 42
0.000000001
 43
0.0000001
 40
-0.0092858727701963
 40
-0.0092858727701963
 40
-0.0092858727701963
 40
-0.0092858727701963
 40
-0.0061604841129787
 40
-0.0061604841129787
 40
-0.0056440210260057
 40
-0.0056440210260057
 40
-0.0039204482297706
 40
-0.0039204482297706
 40
-0.002891037274111
 40
-0.002891037274111
 40
0.0
 40
0.0
 40
0.0
 40
0.0
 10
86.57824629924205
 20
154.1740763364211
 30
0.0
 10
86.56889330259443
 20
154.1834293610655
 30
0.0
 10
86.56081793271656
 20
154.1939786858764
 30
0.0000000000000113
 10
86.55314139884949
 20
154.2073483364224
 30
0.0000000000000113
 10
86.55209438380645
 20
154.2092678269255
 30
-0.0000000000000056
 10
86.54773666372095
 20
154.2176897628597
 30
-0.0000000000000056
 10
86.54486085156539
 20
154.224406065868
 30
0.0000000000000056
 10
86.54106621522536
 20
154.2354260513221
 30
0.0000000000000056
 10
86.53982765181881
 20
154.2396062347246
 30
0.0000000000000056
 10
86.53580989359148
 20
154.2557116263113
 30
0.0000000000000056
 10
86.53431231636168
 20
154.2679036277263
 30
0.0
 10
86.53431231636168
 20
154.2801423521867
 30
0.0
  0
LINE
  5
341
330
1F
100
AcDbEntity
  8
Sheet_View_1_Drawing_1
 62
    18
420
        0
 48
25.39999961853027
370
    50
100
AcDbLine
 10
86.53431231636168
 20
155.1301423521867
 30
0.0
 11
86.53431231636168
 21
154.2801423521867
 31
0.0
  0
LINE
  5
342
330
1F
100
AcDbEntity
  8
Sheet_View_1_Drawing_1
 62
    18
420
        0
 48
25.39999961853027
370
    50
100
AcDbLine
 10
91.1471279739913
 20
139.9218847826924
 30
0.0
 11
86.3593123323993
 21
139.9218847826924
 31
0.0
  0
LINE
  5
343
330
1F
100
AcDbEntity
  8
Sheet_View_1_Drawing_1
 62
    18
420
        0
 48
25.39999961853027
370
    50
100
AcDbLine
 10
133.959312316362
 20
139.9218847826924
 30
0.0
 11
129.1593224479048
 21
139.9218847826924
 31
0.0
  0
LINE
  5
344
330
1F
100
AcDbEntity
  8
Sheet_View_1_Drawing_1
 62
    18
420
        0
 48
25.39999961853027
370
    50
100
AcDbLine
 10
129.1596211719279
 20
139.2344984284481
 30
0.0
 11
134.4093123163605
 21
139.2344984284481
 31
0.0
  0
LINE
  5
345
330
1F
100
AcDbEntity
  8
Sheet_View_1_Drawing_1
 62
    18
420
        0
 48
25.39999961853027
370
    50
100
AcDbLine
 10
85.90931233270116
 20
139.2344984284481
 30
0.0
 11
91.14864596928132
 21
139.2344984284481
 31
0.0
  0
LINE
  5
346
330
1F
100
AcDbEntity
  8
Sheet_View_1_Drawing_1
 62
    18
420
        0
 48
25.39999961853027
370
    50
100
AcDbLine
 10
91.15478359922642
 20
138.2757862759244
 30
0.0
 11
85.90931233270116
 21
138.2757862759244
 31
0.0
  0
LINE
  5
347
330
1F
100
AcDbEntity
  8
Sheet_View_1_Drawing_1
 62
    18
420
        0
 48
25.39999961853027
370
    50
100
AcDbLine
 10
134.4093123163605
 20
138.2757862759244
 30
0.0
 11
129.1593794644427
 21
138.2757862759244
 31
0.0
  0
LINE
  5
348
330
1F
100
AcDbEntity
  8
Sheet_View_1_Drawing_1
 62
    18
420
        0
 48
25.39999961853027
370
    50
100
AcDbLine
 10
129.1594192281351
 20
137.5883999216831
 30
0.0
 11
133.959312316362
 21
137.5883999216831
 31
0.0
  0
LINE
  5
349
330
1F
100
AcDbEntity
  8
Sheet_View_1_Drawing_1
 62
    18
420
        0
 48
25.39999961853027
370
    50
100
AcDbLine
 10
86.3593123323993
 20
137.5883999216831
 30
0.0
 11
91.15788196897671
 21
137.5883999216831
 31
0.0
  0
LINE
  5
34A
330
1F
100
AcDbEntity
  8
Sheet_View_1_Drawing_1
 62
    18
420
        0
 48
25.39999961853027
370
    50
100
AcDbLine
 10
134.9093123163617
 20
152.8801423521867
 30
0.0
 11
133.9092953208462
 21
152.8801423521867
 31
0.0
  0
LINE
  5
34B
330
1F
100
AcDbEntity
  8
Sheet_View_1_Drawing_1
 62
    18
420
        0
 48
25.39999961853027
370
    50
100
AcDbLine
 10
86.40929532088333
 20
152.8801423521867
 30
0.0
 11
85.40931231636168
 21
152.8801423521867
 31
0.0
  0
LINE
  5
34C
330
1F
100
AcDbEntity
  8
Sheet_View_1_Drawing_1
 62
    18
420
        0
 48
25.39999961853027
370
    50
100
AcDbLine
 10
86.28431231636061
 20
155.3801423521861
 30
0.0
 11
87.53431231636176
 21
155.3801423521861
 31
0.0
  0
LINE
  5
34D
330
1F
100
AcDbEntity
  8
Sheet_View_1_Drawing_1
 62
    18
420
        0
 48
25.39999961853027
370
    50
100
AcDbLine
 10
132.7843123163616
 20
155.3801423521861
 30
0.0
 11
134.0343123163627
 21
155.3801423521861
 31
0.0
  0
LINE
  5
34E
330
1F
100
AcDbEntity
  8
Sheet_View_1_Drawing_1
 62
    18
420
        0
 48
25.39999961853027
370
    50
100
AcDbLine
 10
104.0524315351921
 20
153.8801423521865
 30
0.0
 11
86.65931231636124
 21
153.8801423521865
 31
0.0
  0
LINE
  5
34F
330
1F
100
AcDbEntity
  8
Sheet_View_1_Drawing_1
 62
    18
420
        0
 48
25.39999961853027
370
    50
100
AcDbLine
 10
133.6593123163621
 20
153.8801423521865
 30
0.0
 11
116.2593802893767
 21
153.8801423521865
 31
0.0
  0
LINE
  5
350
330
1F
100
AcDbEntity
  8
Sheet_View_1_Drawing_1
 62
    18
420
        0
 48
25.39999961853027
370
    50
100
AcDbLine
 10
133.6593120039246
 20
154.1301423521878
 30
0.0
 11
133.9093123163606
 21
154.1301423521878
 31
0.0
  0
LINE
  5
351
330
1F
100
AcDbEntity
  8
Sheet_View_1_Drawing_1
 62
    18
420
        0
 48
25.39999961853027
370
    50
100
AcDbLine
 10
91.15931231739688
 20
140.3801423521866
 30
0.0
 11
86.65931231636124
 21
140.3801423521866
 31
0.0
  0
LINE
  5
352
330
1F
100
AcDbEntity
  8
Sheet_View_1_Drawing_1
 62
    18
420
        0
 48
25.39999961853027
370
    50
100
AcDbLine
 10
133.6593123163621
 20
140.3801423521866
 30
0.0
 11
129.1593123153293
 21
140.3801423521866
 31
0.0
  0
LINE
  5
353
330
1F
100
AcDbEntity
  8
Sheet_View_1_Drawing_1
 62
    18
420
        0
 48
25.39999961853027
370
    50
100
AcDbLine
 10
129.1593123153293
 20
137.1301423521859
 30
0.0
 11
133.6593123163621
 21
137.1301423521859
 31
0.0
  0
LINE
  5
354
330
1F
100
AcDbEntity
  8
Sheet_View_1_Drawing_1
 62
    18
420
        0
 48
25.39999961853027
370
    50
100
AcDbLine
 10
86.65931231636124
 20
137.1301423521859
 30
0.0
 11
91.15931231739688
 21
137.1301423521859
 31
0.0
  0
LINE
  5
355
330
1F
100
AcDbEntity
  8
Sheet_View_1_Drawing_1
 62
    18
420
        0
 48
25.39999961853027
370
    50
100
AcDbLine
 10
97.4093163214324
 20
124.6301423521859
 30
0.0
 11
86.65931231636124
 21
124.6301423521859
 31
0.0
  0
LINE
  5
356
330
1F
100
AcDbEntity
  8
Sheet_View_1_Drawing_1
 62
    18
420
        0
 48
25.39999961853027
370
    50
100
AcDbLine
 10
133.6593123163621
 20
124.6301423521859
 30
0.0
 11
122.9093083245135
 21
124.6301423521859
 31
0.0
  0
LINE
  5
357
330
1F
100
AcDbEntity
  8
Sheet_View_1_Drawing_1
 62
    18
420
        0
 48
25.39999961853027
370
    50
100
AcDbLine
 10
97.90931231636301
 20
125.6301423521857
 30
0.0
 11
122.4093123163603
 21
125.6301423521857
 31
0.0
  0
LINE
  5
358
330
1F
100
AcDbEntity
  8
Sheet_View_1_Drawing_1
 62
    18
420
        0
 48
25.39999961853027
370
    50
100
AcDbLine
 10
97.65931231636164
 20
124.6301423521859
 30
0.0
 11
122.6593123163617
 21
124.6301423521859
 31
0.0
  0
LINE
  5
359
330
1F
100
AcDbEntity
  8
Sheet_View_1_Drawing_1
 62
    18
420
        0
 48
25.39999961853027
370
    50
100
AcDbLine
 10
97.90931231636301
 20
127.8801423521866
 30
0.0
 11
122.4093123163603
 21
127.8801423521866
 31
0.0
  0
LINE
  5
35A
330
1F
100
AcDbEntity
  8
Sheet_View_1_Drawing_1
 62
    18
420
        0
 48
25.39999961853027
370
    50
100
AcDbLine
 10
123.1593123163616
 20
128.6301423521879
 30
0.0
 11
97.15931231636175
 21
128.6301423521879
 31
0.0
  0
LINE
  5
35B
330
1F
100
AcDbEntity
  8
Sheet_View_1_Drawing_1
 62
    18
420
        0
 48
25.39999961853027
370
    50
100
AcDbLine
 10
122.6593123163617
 20
131.1301423521873
 30
0.0
 11
97.65931231636164
 21
131.1301423521873
 31
0.0
  0
LINE
  5
35C
330
1F
100
AcDbEntity
  8
Sheet_View_1_Drawing_1
 62
    18
420
        0
 48
25.39999961853027
370
    50
100
AcDbLine
 10
96.90931231636036
 20
130.380142352186
 30
0.0
 11
123.409312316363
 21
130.380142352186
 31
0.0
  0
LINE
  5
35D
330
1F
100
AcDbEntity
  8
Sheet_View_1_Drawing_1
 62
    18
420
        0
 48
25.39999961853027
370
    50
100
AcDbLine
 10
97.65931231636164
 20
138.9230355709993
 30
0.0
 11
122.6593123163617
 21
138.9230355709993
 31
0.0
  0
LINE
  5
35E
330
1F
100
AcDbEntity
  8
Sheet_View_1_Drawing_1
 62
    18
420
        0
 48
25.39999961853027
370
    50
100
AcDbLine
 10
121.1593123163621
 20
140.8372491333742
 30
0.0
 11
99.1593123163613
 21
140.8372491333742
 31
0.0
  0
LINE
  5
35F
330
1F
100
AcDbEntity
  8
Sheet_View_1_Drawing_1
 62
    18
420
        0
 48
25.39999961853027
370
    50
100
AcDbLine
 10
98.93964240225172
 20
140.3069190474825
 30
0.0
 11
121.3789822304716
 21
140.3069190474825
 31
0.0
  0
LINE
  5
360
330
1F
100
AcDbEntity
  8
Sheet_View_1_Drawing_1
 62
    18
420
        0
 48
25.39999961853027
370
    50
100
AcDbLine
 10
122.5860890116576
 20
139.0998122662965
 30
0.0
 11
97.73253562106578
 21
139.0998122662965
 31
0.0
  0
LINE
  5
361
330
1F
100
AcDbEntity
  8
Sheet_View_1_Drawing_1
 62
    18
420
        0
 48
25.39999961853027
370
    50
100
AcDbLine
 10
121.1593123163621
 20
144.3801423521857
 30
0.0
 11
99.1593123163613
 21
144.3801423521857
 31
0.0
  0
LINE
  5
362
330
1F
100
AcDbEntity
  8
Sheet_View_1_Drawing_1
 62
    18
420
        0
 48
25.39999961853027
370
    50
100
AcDbLine
 10
112.5928026081031
 20
155.1301423521867
 30
0.0
 11
112.5928026081031
 21
155.1189792079187
 31
0.0
  0
SPLINE
  5
363
330
1F
100
AcDbEntity
  8
Sheet_View_1_Drawing_1
 62
    18
420
        0
 48
25.39999961853027
370
    50
100
AcDbSpline
210
0.0
220
0.0
230
1.0
 70
     8
 71
     3
 72
    22
 73
    18
 74
     0
 42
0.000000001
 43
0.0000001
 40
-0.0685943757558867
 40
-0.0685943757558867
 40
-0.0685943757558867
 40
-0.0685943757558867
 40
-0.0680801043657072
 40
-0.0680801043657072
 40
-0.0675752135257832
 40
-0.0675752135257832
 40
-0.0665375070780792
 40
-0.0665375070780792
 40
-0.0644283238514732
 40
-0.0644283238514732
 40
-0.0601501775214029
 40
-0.0601501775214029
 40
-0.0514534696698498
 40
-0.0514534696698498
 40
-0.0343128348242609
 40
-0.0343128348242609
 40
0.0
 40
0.0
 40
0.0
 40
0.0
 10
112.5928026081031
 20
155.1301423521867
 30
-0.0000000000000056
 10
112.5928026081031
 20
155.1323352954926
 30
-0.0000000000000056
 10
112.5925224895716
 20
155.1344959213954
 30
0.0000000000000056
 10
112.5914612510242
 20
155.138710292351
 30
0.0000000000000056
 10
112.5906997324067
 20
155.1407241215398
 30
0.0000000000000056
 10
112.5878180903714
 20
155.1466375076489
 30
0.0000000000000056
 10
112.5851130131627
 20
155.1502817006634
 30
0.0
 10
112.5760493158913
 20
155.160168476054
 30
0.0
 10
112.5681246647274
 20
155.1659412849575
 30
0.0
 10
112.5450210549843
 20
155.1802359031546
 30
0.0
 10
112.5261324844473
 20
155.1883335443067
 30
-0.0000000000000056
 10
112.4745589440299
 20
155.2075293712283
 30
-0.0000000000000056
 10
112.4342753773756
 20
155.2181067749404
 30
0.0000000000000113
 10
112.3275520599382
 20
155.2423689254586
 30
0.0000000000000113
 10
112.2477641263085
 20
155.2549942707548
 30
0.0000000000000169
 10
112.0317049364905
 20
155.2838511767108
 30
0.0000000000000169
 10
111.8716435626999
 20
155.2973326981525
 30
0.0
 10
111.7267025681847
 20
155.3069190454257
 30
0.0
  0
LINE
  5
364
330
1F
100
AcDbEntity
  8
Sheet_View_1_Drawing_1
 62
    18
420
        0
 48
25.39999961853027
370
    50
100
AcDbLine
 10
107.7258220246202
 20
155.1189792079186
 30
0.0
 11
107.7258220246202
 21
155.1301423521867
 31
0.0
  0
SPLINE
  5
365
330
1F
100
AcDbEntity
  8
Sheet_View_1_Drawing_1
 62
    18
420
        0
 48
25.39999961853027
370
    50
100
AcDbSpline
210
0.0
220
0.0
230
1.0
 70
     8
 71
     3
 72
    20
 73
    16
 74
     0
 42
0.000000001
 43
0.0000001
 40
-0.0154698744588782
 40
-0.0154698744588782
 40
-0.0154698744588782
 40
-0.0154698744588782
 40
-0.0137298657854827
 40
-0.0137298657854827
 40
-0.0130265941762
 40
-0.0130265941762
 40
-0.0093303538155222
 40
-0.0093303538155222
 40
-0.0079684602059021
 40
-0.0079684602059021
 40
-0.0062845602422869
 40
-0.0062845602422869
 40
-0.0016917401564971
 40
-0.0016917401564971
 40
0.0
 40
0.0
 40
0.0
 40
0.0
 10
133.8575356210425
 20
155.3069190454257
 30
0.0
 10
133.8523280104394
 20
155.301711428025
 30
0.0
 10
133.8473522962832
 20
155.2962754707995
 30
0.0
 10
133.8407128722779
 20
155.2883450897484
 30
0.0
 10
133.8388426242368
 20
155.2860283488878
 30
-0.0000000000000113
 10
133.8274049836828
 20
155.2713307374476
 30
-0.0000000000000113
 10
133.8189773199612
 20
155.2581097330916
 30
0.0000000000000056
 10
133.809209880833
 20
155.2390557077251
 30
0.0000000000000056
 10
133.8067583299432
 20
155.2338362328095
 30
0.0
 10
133.801683748569
 20
155.2219833140141
 30
0.0
 10
133.7991597976836
 20
155.2153134295902
 30
-0.0000000000000282
 10
133.7908265940812
 20
155.1900818036752
 30
-0.0000000000000282
 10
133.7869036105908
 20
155.1709719203351
 30
0.0000000000000113
 10
133.7846200034059
 20
155.144462038976
 30
0.0000000000000113
 10
133.7843123163617
 20
155.1373040521825
 30
0.0
 10
133.7843123163617
 20
155.1301423521867
 30
0.0
  0
LINE
  5
366
330
1F
100
AcDbEntity
  8
Sheet_View_1_Drawing_1
 62
    18
420
        0
 48
25.39999961853027
370
    50
100
AcDbLine
 10
133.7843123163617
 20
154.2801423521867
 30
0.0
 11
133.7843123163617
 21
155.1301423521867
 31
0.0
  0
SPLINE
  5
367
330
1F
100
AcDbEntity
  8
Sheet_View_1_Drawing_1
 62
    18
420
        0
 48
25.39999961853027
370
    50
100
AcDbSpline
210
0.0
220
0.0
230
1.0
 70
     8
 71
     3
 72
    14
 73
    10
 74
     0
 42
0.000000001
 43
0.0000001
 40
-0.0092865473206367
 40
-0.0092865473206367
 40
-0.0092865473206367
 40
-0.0092865473206367
 40
-0.0058627537097201
 40
-0.0058627537097201
 40
-0.004024750232681
 40
-0.004024750232681
 40
-0.0030970598816783
 40
-0.0030970598816783
 40
0.0
 40
0.0
 40
0.0
 40
0.0
 10
133.7843123163617
 20
154.2801423521867
 30
0.0
 10
133.7843123163617
 20
154.2656465336631
 30
0.0
 10
133.7822111812702
 20
154.2512273347157
 30
-0.0000000000000056
 10
133.7758529731604
 20
154.2298750132895
 30
-0.0000000000000056
 10
133.7730550310606
 20
154.2226008483184
 30
0.0
 10
133.7680144567044
 20
154.2120309349127
 30
0.0
 10
133.766185242096
 20
154.2085535193611
 30
0.0
 10
133.757664974188
 20
154.1937936192935
 30
0.0
 10
133.7496491165925
 20
154.183347147283
 30
0.0
 10
133.7403783334813
 20
154.1740763364211
 30
0.0
  0
LINE
  5
368
330
1F
100
AcDbEntity
  8
Sheet_View_1_Drawing_1
 62
    18
420
        0
 48
25.39999961853027
370
    50
100
AcDbLine
 10
132.7843123163616
 20
155.306919047482
 30
0.0
 11
132.7843123163616
 21
155.1301423521876
 31
0.0
  0
LINE
  5
369
330
1F
100
AcDbEntity
  8
Sheet_View_1_Drawing_1
 62
    18
420
        0
 48
25.39999961853027
370
    50
100
AcDbLine
 10
112.5928026081031
 20
155.1301423521867
 30
0.0
 11
132.7843123163617
 21
155.1301423521867
 31
0.0
  0
LINE
  5
36A
330
1F
100
AcDbEntity
  8
Sheet_View_1_Drawing_1
 62
    18
420
        0
 48
25.39999961853027
370
    50
100
AcDbLine
 10
87.53431231636168
 20
155.1301423521867
 30
0.0
 11
87.53431231636168
 21
155.118992985682
 31
0.0
  0
LINE
  5
36B
330
1F
100
AcDbEntity
  8
Sheet_View_1_Drawing_1
 62
    18
420
        0
 48
25.39999961853027
370
    50
100
AcDbLine
 10
87.53431231636176
 20
155.1301423521876
 30
0.0
 11
86.82720553517571
 21
155.1301423521876
 31
0.0
  0
LINE
  5
36C
330
1F
100
AcDbEntity
  8
Sheet_View_1_Drawing_1
 62
    18
420
        0
 48
25.39999961853027
370
    50
100
AcDbLine
 10
133.7843123063239
 20
155.1301423521876
 30
0.0
 11
133.4914190975476
 21
155.1301423521876
 31
0.0
  0
LINE
  5
36D
330
1F
100
AcDbEntity
  8
Sheet_View_1_Drawing_1
 62
    18
420
        0
 48
25.39999961853027
370
    50
100
AcDbLine
 10
133.7843123063441
 20
154.2801423521864
 30
0.0
 11
133.6592780106434
 21
154.2801423521864
 31
0.0
  0
LINE
  5
36E
330
1F
100
AcDbEntity
  8
Sheet_View_1_Drawing_1
 62
    18
420
        0
 48
25.39999961853027
370
    50
100
AcDbLine
 10
124.6593123163613
 20
122.6301423521863
 30
0.0
 11
95.65931231636209
 21
122.6301423521863
 31
0.0
  0
ARC
  5
36F
330
1F
100
AcDbEntity
  8
Sheet_View_1_Drawing_1
 62
    18
420
        0
 48
25.39999961853027
370
    50
100
AcDbCircle
 10
96.78431231636168
 20
129.5668251338484
 30
0.0
 40
1.125
100
AcDbArc
 50
270.0
 51
0.000000000000573
  0
ARC
  5
370
330
1F
100
AcDbEntity
  8
Sheet_View_1_Drawing_1
 62
    18
420
        0
 48
25.39999961853027
370
    50
100
AcDbCircle
 10
96.78431231636168
 20
129.5668251338484
 30
0.0
 40
1.125
100
AcDbArc
 50
179.9999999999994
 51
270.0
  0
ARC
  5
371
330
1F
100
AcDbEntity
  8
Sheet_View_1_Drawing_1
 62
    18
420
        0
 48
25.39999961853027
370
    50
100
AcDbCircle
 10
123.5343123163617
 20
129.5668251338484
 30
0.0
 40
1.125
100
AcDbArc
 50
270.0
 51
0.000000000000573
  0
ARC
  5
372
330
1F
100
AcDbEntity
  8
Sheet_View_1_Drawing_1
 62
    18
420
        0
 48
25.39999961853027
370
    50
100
AcDbCircle
 10
123.5343123163617
 20
129.5668251338484
 30
0.0
 40
1.125
100
AcDbArc
 50
179.9999999999994
 51
270.0
  0
ARC
  5
373
330
1F
100
AcDbEntity
  8
Sheet_View_1_Drawing_1
 62
    18
420
        0
 48
25.39999961853027
370
    50
100
AcDbCircle
 10
123.5343123163617
 20
129.5668251338484
 30
0.0
 40
1.124999999999986
100
AcDbArc
 50
90.0
 51
179.9999999999994
  0
ARC
  5
374
330
1F
100
AcDbEntity
  8
Sheet_View_1_Drawing_1
 62
    18
420
        0
 48
25.39999961853027
370
    50
100
AcDbCircle
 10
123.5343123163617
 20
129.5668251338484
 30
0.0
 40
1.125
100
AcDbArc
 50
0.000000000000573
 51
90.0
  0
ARC
  5
375
330
1F
100
AcDbEntity
  8
Sheet_View_1_Drawing_1
 62
    18
420
        0
 48
25.39999961853027
370
    50
100
AcDbCircle
 10
96.78431231636168
 20
129.5668251338484
 30
0.0
 40
1.125
100
AcDbArc
 50
90.0
 51
179.9999999999994
  0
ARC
  5
376
330
1F
100
AcDbEntity
  8
Sheet_View_1_Drawing_1
 62
    18
420
        0
 48
25.39999961853027
370
    50
100
AcDbCircle
 10
96.78431231636168
 20
129.5668251338484
 30
0.0
 40
1.125
100
AcDbArc
 50
0.000000000000573
 51
90.0
  0
LINE
  5
377
330
1F
100
AcDbEntity
  8
Sheet_View_1_Drawing_1
 62
    18
420
        0
 48
25.39999961853027
370
    50
100
AcDbLine
 10
123.5343123163622
 20
128.4418251338491
 30
0.0
 11
96.78431231636111
 21
128.4418251338491
 31
0.0
  0
LINE
  5
378
330
1F
100
AcDbEntity
  8
Sheet_View_1_Drawing_1
 62
    18
420
        0
 48
25.39999961853027
370
    50
100
AcDbLine
 10
123.1686398798623
 20
130.6918251338472
 30
0.0
 11
123.5343123163622
 21
130.6918251338472
 31
0.0
  0
LINE
  5
379
330
1F
100
AcDbEntity
  8
Sheet_View_1_Drawing_1
 62
    18
420
        0
 48
25.39999961853027
370
    50
100
AcDbLine
 10
96.78431231636111
 20
130.6918251338472
 30
0.0
 11
97.15068961310538
 21
130.6918251338472
 31
0.0
  0
SPLINE
  5
37A
330
1F
100
AcDbEntity
  8
Sheet_View_1_Drawing_1
 62
    18
420
        0
 48
25.39999961853027
370
    50
100
AcDbSpline
210
0.0
220
0.0
230
1.0
 70
     8
 71
     3
 72
    12
 73
     8
 74
     0
 42
0.000000001
 43
0.0000001
 40
0.1877880857425868
 40
0.1877880857425868
 40
0.1877880857425868
 40
0.1877880857425868
 40
0.2387298569151075
 40
0.2642007425013678
 40
0.2896716280876281
 40
0.3151425136738885
 40
0.3660842848464091
 40
0.3660842848464091
 40
0.3660842848464091
 40
0.3660842848464091
 10
130.1593123163629
 20
154.0889785793386
 30
0.0
 10
130.0164571775937
 20
154.0810501053066
 30
0.0
 10
129.802140135921
 20
154.0690377072809
 30
0.0
 10
129.5164308852145
 20
154.0527733671698
 30
0.0
 10
129.3021577293954
 20
154.0404464288014
 30
0.0
 10
129.0164464801657
 20
154.0238318587527
 30
0.0
 10
128.8021933650018
 20
154.0111660235094
 30
0.0
 10
128.6593123163661
 20
154.002621250935
 30
0.0
  0
LINE
  5
37B
330
1F
100
AcDbEntity
  8
Sheet_View_1_Drawing_1
 62
    18
420
        0
 48
25.39999961853027
370
    50
100
AcDbLine
 10
130.1593123163629
 20
154.9689785793387
 30
0.0
 11
128.6593123163603
 21
154.9689785793387
 31
0.0
  0
LINE
  5
37C
330
1F
100
AcDbEntity
  8
Sheet_View_1_Drawing_1
 62
    18
420
        0
 48
25.39999961853027
370
    50
100
AcDbLine
 10
128.6593123163616
 20
154.0026212509342
 30
0.0
 11
128.6593123163616
 21
154.9689785793379
 31
0.0
  0
LINE
  5
37D
330
1F
100
AcDbEntity
  8
Sheet_View_1_Drawing_1
 62
    18
420
        0
 48
25.39999961853027
370
    50
100
AcDbLine
 10
128.0967034310115
 20
153.9689785793377
 30
0.0
 11
128.6593123163603
 21
154.0026212509339
 31
0.0
  0
LINE
  5
37E
330
1F
100
AcDbEntity
  8
Sheet_View_1_Drawing_1
 62
    18
420
        0
 48
25.39999961853027
370
    50
100
AcDbLine
 10
91.65931231636588
 20
154.0026212509332
 30
0.0
 11
92.22192120170892
 21
153.9689785793372
 31
0.0
  0
SPLINE
  5
37F
330
1F
100
AcDbEntity
  8
Sheet_View_1_Drawing_1
 62
    18
420
        0
 48
25.39999961853027
370
    50
100
AcDbSpline
210
0.0
220
0.0
230
1.0
 70
     8
 71
     3
 72
    12
 73
     8
 74
     0
 42
0.000000001
 43
0.0000001
 40
0.0094918866385854
 40
0.0094918866385854
 40
0.0094918866385854
 40
0.0094918866385854
 40
0.0604336578111572
 40
0.0859045433974431
 40
0.1113754289837291
 40
0.1368463145700149
 40
0.1877880857425868
 40
0.1877880857425868
 40
0.1877880857425868
 40
0.1877880857425868
 10
91.659312316363
 20
154.002621250935
 30
0.0
 10
91.51647070482784
 20
154.0111636769612
 30
0.0
 10
91.30221312902259
 20
154.0238298096584
 30
0.0
 10
91.0164918808632
 20
154.0404449883019
 30
0.0
 10
90.80219213505076
 20
154.0527734620872
 30
0.0
 10
90.51647965042018
 20
154.06903798446
 30
0.0
 10
90.30213168430632
 20
154.0810521067744
 30
0.0
 10
90.15931231636044
 20
154.0889785793386
 30
0.0
  0
LINE
  5
380
330
1F
100
AcDbEntity
  8
Sheet_View_1_Drawing_1
 62
    18
420
        0
 48
25.39999961853027
370
    50
100
AcDbLine
 10
117.6593123163617
 20
154.968978579338
 30
0.0
 11
128.6593123163616
 21
154.968978579338
 31
0.0
  0
LINE
  5
381
330
1F
100
AcDbEntity
  8
Sheet_View_1_Drawing_1
 62
    18
420
        0
 48
25.39999961853027
370
    50
100
AcDbLine
 10
117.6593123163617
 20
153.968978579338
 30
0.0
 11
117.6593123163617
 21
154.9689785793379
 31
0.0
  0
LINE
  5
382
330
1F
100
AcDbEntity
  8
Sheet_View_1_Drawing_1
 62
    18
420
        0
 48
25.39999961853027
370
    50
100
AcDbLine
 10
128.0967034310138
 20
153.9689785793381
 30
0.0
 11
117.6593123163617
 21
153.9689785793381
 31
0.0
  0
LINE
  5
383
330
1F
100
AcDbEntity
  8
Sheet_View_1_Drawing_1
 62
    18
420
        0
 48
25.39999961853027
370
    50
100
AcDbLine
 10
117.6593123163629
 20
154.9689785793387
 30
0.0
 11
116.1593123163603
 21
154.9689785793387
 31
0.0
  0
LINE
  5
384
330
1F
100
AcDbEntity
  8
Sheet_View_1_Drawing_1
 62
    18
420
        0
 48
25.39999961853027
370
    50
100
AcDbLine
 10
116.1593123163603
 20
153.9689785793371
 30
0.0
 11
117.6593123163629
 21
153.9689785793371
 31
0.0
  0
LINE
  5
385
330
1F
100
AcDbEntity
  8
Sheet_View_1_Drawing_1
 62
    18
420
        0
 48
25.39999961853027
370
    50
100
AcDbLine
 10
91.659312316363
 20
154.9689785793387
 30
0.0
 11
90.15931231636044
 21
154.9689785793387
 31
0.0
  0
LINE
  5
386
330
1F
100
AcDbEntity
  8
Sheet_View_1_Drawing_1
 62
    18
420
        0
 48
25.39999961853027
370
    50
100
AcDbLine
 10
91.65931231636166
 20
154.0026212509342
 30
0.0
 11
91.65931231636166
 21
154.9689785793379
 31
0.0
  0
LINE
  5
387
330
1F
100
AcDbEntity
  8
Sheet_View_1_Drawing_1
 62
    18
420
        0
 48
25.39999961853027
370
    50
100
AcDbLine
 10
102.6593123163617
 20
153.968978579338
 30
0.0
 11
102.6593123163617
 21
154.9689785793379
 31
0.0
  0
LINE
  5
388
330
1F
100
AcDbEntity
  8
Sheet_View_1_Drawing_1
 62
    18
420
        0
 48
25.39999961853027
370
    50
100
AcDbLine
 10
91.65931231636166
 20
154.968978579338
 30
0.0
 11
102.6593123163617
 21
154.968978579338
 31
0.0
  0
LINE
  5
389
330
1F
100
AcDbEntity
  8
Sheet_View_1_Drawing_1
 62
    18
420
        0
 48
25.39999961853027
370
    50
100
AcDbLine
 10
102.6593123163617
 20
153.9689785793381
 30
0.0
 11
92.22192120170956
 21
153.9689785793381
 31
0.0
  0
LINE
  5
38A
330
1F
100
AcDbEntity
  8
Sheet_View_1_Drawing_1
 62
    18
420
        0
 48
25.39999961853027
370
    50
100
AcDbLine
 10
102.6593123163605
 20
153.9689785793371
 30
0.0
 11
104.159312316363
 21
153.9689785793371
 31
0.0
  0
LINE
  5
38B
330
1F
100
AcDbEntity
  8
Sheet_View_1_Drawing_1
 62
    18
420
        0
 48
25.39999961853027
370
    50
100
AcDbLine
 10
104.159312316363
 20
154.9689785793387
 30
0.0
 11
102.6593123163605
 21
154.9689785793387
 31
0.0
  0
LINE
  5
38C
330
1F
100
AcDbEntity
  8
Sheet_View_1_Drawing_1
 62
    18
420
        0
 48
25.39999961853027
370
    50
100
AcDbLine
 10
87.15931231636112
 20
155.1189785793383
 30
0.0
 11
133.1593123163622
 21
155.1189785793383
 31
0.0
  0
LINE
  5
38D
330
1F
100
AcDbEntity
  8
Sheet_View_1_Drawing_1
 62
    18
420
        0
 48
25.39999961853027
370
    50
100
AcDbLine
 10
92.15931231636289
 20
146.9709289232813
 30
0.0
 11
128.1593123163605
 21
146.9709289232813
 31
0.0
  0
LINE
  5
38E
330
1F
100
AcDbEntity
  8
Sheet_View_1_Drawing_1
 62
    18
420
        0
 48
25.39999961853027
370
    50
100
AcDbLine
 10
123.9902362403294
 20
128.4709289232789
 30
0.0
 11
128.1593123163605
 21
128.4709289232789
 31
0.0
  0
LINE
  5
38F
330
1F
100
AcDbEntity
  8
Sheet_View_1_Drawing_1
 62
    18
420
        0
 48
25.39999961853027
370
    50
100
AcDbLine
 10
92.15931231636289
 20
128.4709289232806
 30
0.0
 11
96.33103771048086
 21
128.4709289232805
 31
0.0
  0
LINE
  5
390
330
1F
100
AcDbEntity
  8
Sheet_View_1_Drawing_1
 62
    18
420
        0
 48
25.39999961853027
370
    50
100
AcDbLine
 10
111.1593123163615
 20
153.9709289232797
 30
0.0
 11
109.1593123163619
 21
153.9709289232797
 31
0.0
  0
LINE
  5
391
330
1F
100
AcDbEntity
  8
Sheet_View_1_Drawing_1
 62
    18
420
        0
 48
25.39999961853027
370
    50
100
AcDbLine
 10
107.6593123668065
 20
152.2209289232816
 30
0.0
 11
103.6910664798089
 21
152.2209289232816
 31
0.0
  0
LINE
  5
392
330
1F
100
AcDbEntity
  8
Sheet_View_1_Drawing_1
 62
    18
420
        0
 48
25.39999961853027
370
    50
100
AcDbLine
 10
116.6275581529144
 20
152.2209289232815
 30
0.0
 11
112.6593122666359
 21
152.2209289232815
 31
0.0
  0
LINE
  5
393
330
1F
100
AcDbEntity
  8
Sheet_View_1_Drawing_1
 62
    18
420
        0
 48
25.39999961853027
370
    50
100
AcDbLine
 10
112.6593100841186
 20
149.9709289232802
 30
0.0
 11
119.5322956625678
 21
149.9709289232802
 31
0.0
  0
LINE
  5
394
330
1F
100
AcDbEntity
  8
Sheet_View_1_Drawing_1
 62
    18
420
        0
 48
25.39999961853027
370
    50
100
AcDbLine
 10
100.7863289701556
 20
149.970928923281
 30
0.0
 11
107.6593145532279
 21
149.970928923281
 31
0.0
  0
ARC
  5
395
330
1F
100
AcDbEntity
  8
Sheet_View_1_Drawing_1
 62
    18
420
        0
 48
25.39999961853027
370
    50
100
AcDbCircle
 10
86.65690700580775
 20
138.7852922637159
 30
0.0
 40
1.249999999999999
100
AcDbArc
 50
113.5781784782019
 51
179.9999999999987
  0
ARC
  5
396
330
1F
100
AcDbEntity
  8
Sheet_View_1_Drawing_1
 62
    18
420
        0
 48
25.39999961853027
370
    50
100
AcDbCircle
 10
133.6617176269156
 20
138.7852922637159
 30
0.0
 40
1.25
100
AcDbArc
 50
0.000000000000573
 51
66.42182152179815
  0
LINE
  5
397
330
1F
100
AcDbEntity
  8
Sheet_View_1_Drawing_1
 62
    18
420
        0
 48
25.39999961853027
370
    50
100
AcDbLine
 10
129.1593123129644
 20
139.930936187455
 30
0.0
 11
134.1617176269164
 21
139.930936187455
 31
0.0
  0
LINE
  5
398
330
1F
100
AcDbEntity
  8
Sheet_View_1_Drawing_1
 62
    18
420
        0
 48
25.39999961853027
370
    50
100
AcDbLine
 10
86.15690700580693
 20
139.9309361874553
 30
0.0
 11
91.15931231976187
 21
139.9309361874553
 31
0.0
  0
ARC
  5
399
330
1F
100
AcDbEntity
  8
Sheet_View_1_Drawing_1
 62
    18
420
        0
 48
25.39999961853027
370
    50
100
AcDbCircle
 10
133.6617176269156
 20
138.7852922637159
 30
0.0
 40
1.249999999999999
100
AcDbArc
 50
293.5781784782018
 51
0.000000000000573
  0
ARC
  5
39A
330
1F
100
AcDbEntity
  8
Sheet_View_1_Drawing_1
 62
    18
420
        0
 48
25.39999961853027
370
    50
100
AcDbCircle
 10
86.65690700580775
 20
138.7852922637159
 30
0.0
 40
1.249999999999986
100
AcDbArc
 50
179.9999999999994
 51
246.4218215217976
  0
LINE
  5
39B
330
1F
100
AcDbEntity
  8
Sheet_View_1_Drawing_1
 62
    18
420
        0
 48
25.39999961853027
370
    50
100
AcDbLine
 10
129.1593123129644
 20
137.639648339978
 30
0.0
 11
134.1617176269164
 21
137.639648339978
 31
0.0
  0
LINE
  5
39C
330
1F
100
AcDbEntity
  8
Sheet_View_1_Drawing_1
 62
    18
420
        0
 48
25.39999961853027
370
    50
100
AcDbLine
 10
86.15690700580693
 20
137.6396483399783
 30
0.0
 11
91.15931231976187
 21
137.6396483399783
 31
0.0
  0
LINE
  5
39D
330
1F
100
AcDbEntity
  8
Sheet_View_1_Drawing_1
 62
    18
420
        0
 48
25.39999961853027
370
    50
100
AcDbLine
 10
133.9093120791145
 20
140.7217839368184
 30
0.0
 11
134.1617176269164
 21
140.7217839368184
 31
0.0
  0
LINE
  5
39E
330
1F
100
AcDbEntity
  8
Sheet_View_1_Drawing_1
 62
    18
420
        0
 48
25.39999961853027
370
    50
100
AcDbLine
 10
86.15690700580693
 20
140.7217839368184
 30
0.0
 11
86.40931255369546
 21
140.7217839368184
 31
0.0
  0
LINE
  5
39F
330
1F
100
AcDbEntity
  8
Sheet_View_1_Drawing_1
 62
    18
420
        0
 48
25.39999961853027
370
    50
100
AcDbLine
 10
133.9093120791145
 20
136.8488005906111
 30
0.0
 11
134.1617176269164
 21
136.8488005906111
 31
0.0
  0
LINE
  5
3A0
330
1F
100
AcDbEntity
  8
Sheet_View_1_Drawing_1
 62
    18
420
        0
 48
25.39999961853027
370
    50
100
AcDbLine
 10
86.15690700580693
 20
136.8488005906111
 30
0.0
 11
86.40931255369546
 21
136.8488005906111
 31
0.0
  0
LINE
  5
3A1
330
1F
100
AcDbEntity
  8
Sheet_View_1_Drawing_1
 62
    18
420
        0
 48
12.69999980926514
100
AcDbLine
 10
89.49762380975844
 20
122.6301416369309
 30
0.0
 11
89.24762392896773
 21
122.8801415177217
 31
0.0
  0
LINE
  5
3A2
330
1F
100
AcDbEntity
  8
Sheet_View_1_Drawing_1
 62
    18
420
        0
 48
12.69999980926514
100
AcDbLine
 10
86.65931292432906
 20
125.4684555502763
 30
0.0
 11
86.40931304353835
 21
125.718455431067
 31
0.0
  0
LINE
  5
3A3
330
1F
100
AcDbEntity
  8
Sheet_View_1_Drawing_1
 62
    18
420
        0
 48
12.69999980926514
100
AcDbLine
 10
91.61894387859465
 20
122.6301416369309
 30
0.0
 11
91.36894399780394
 21
122.8801415177217
 31
0.0
  0
LINE
  5
3A4
330
1F
100
AcDbEntity
  8
Sheet_View_1_Drawing_1
 62
    18
420
        0
 48
12.69999980926514
100
AcDbLine
 10
86.65931292432906
 20
127.5897741051545
 30
0.0
 11
86.40931304353835
 21
127.8397739859452
 31
0.0
  0
LINE
  5
3A5
330
1F
100
AcDbEntity
  8
Sheet_View_1_Drawing_1
 62
    18
420
        0
 48
12.69999980926514
100
AcDbLine
 10
93.74026546138883
 20
122.6301416369309
 30
0.0
 11
93.49026406664015
 21
122.8801415177217
 31
0.0
  0
LINE
  5
3A6
330
1F
100
AcDbEntity
  8
Sheet_View_1_Drawing_1
 62
    18
420
        0
 48
12.69999980926514
100
AcDbLine
 10
86.65931292432906
 20
129.7110941739907
 30
0.0
 11
86.40931304353835
 21
129.9610940547814
 31
0.0
  0
LINE
  5
3A7
330
1F
100
AcDbEntity
  8
Sheet_View_1_Drawing_1
 62
    18
420
        0
 48
12.69999980926514
100
AcDbLine
 10
95.85225652116895
 20
122.639470645987
 30
0.0
 11
95.61158564943433
 21
122.8801415177217
 31
0.0
  0
LINE
  5
3A8
330
1F
100
AcDbEntity
  8
Sheet_View_1_Drawing_1
 62
    18
420
        0
 48
12.69999980926514
100
AcDbLine
 10
86.65931292432906
 20
131.8324157567849
 30
0.0
 11
86.40931304353835
 21
132.0824156375756
 31
0.0
  0
LINE
  5
3A9
330
1F
100
AcDbEntity
  8
Sheet_View_1_Drawing_1
 62
    18
420
        0
 48
12.69999980926514
100
AcDbLine
 10
97.22603712934614
 20
123.387011620604
 30
0.0
 11
97.04792300123334
 21
123.5651257487168
 31
0.0
  0
LINE
  5
3AA
330
1F
100
AcDbEntity
  8
Sheet_View_1_Drawing_1
 62
    18
420
        0
 48
12.69999980926514
100
AcDbLine
 10
86.65931292432906
 20
133.9537358256211
 30
0.0
 11
86.40931304353835
 21
134.2037357064118
 31
0.0
  0
LINE
  5
3AB
330
1F
100
AcDbEntity
  8
Sheet_View_1_Drawing_1
 62
    18
420
        0
 48
12.69999980926514
100
AcDbLine
 10
97.74829510110975
 20
124.9860722037187
 30
0.0
 11
97.65931222099424
 21
125.0750565977922
 31
0.0
  0
LINE
  5
3AC
330
1F
100
AcDbEntity
  8
Sheet_View_1_Drawing_1
 62
    18
420
        0
 48
12.69999980926514
100
AcDbLine
 10
86.65931292432906
 20
136.0750558944573
 30
0.0
 11
86.40931304353835
 21
136.325055775248
 31
0.0
  0
LINE
  5
3AD
330
1F
100
AcDbEntity
  8
Sheet_View_1_Drawing_1
 62
    18
420
        0
 48
12.69999980926514
100
AcDbLine
 10
97.90931210178495
 20
126.9463752718797
 30
0.0
 11
97.65931222099424
 21
127.1963751526704
 31
0.0
  0
LINE
  5
3AE
330
1F
100
AcDbEntity
  8
Sheet_View_1_Drawing_1
 62
    18
420
        0
 48
12.69999980926514
100
AcDbLine
 10
96.41223475593686
 20
128.4434526177278
 30
0.0
 11
95.72262386936308
 21
129.1330650182595
 31
0.0
  0
LINE
  5
3AF
330
1F
100
AcDbEntity
  8
Sheet_View_1_Drawing_1
 62
    18
420
        0
 48
12.69999980926514
100
AcDbLine
 10
85.90931176799894
 20
138.9463756056657
 30
0.0
 11
85.65931188720823
 21
139.1963754864564
 31
0.0
  0
LINE
  5
3B0
330
1F
100
AcDbEntity
  8
Sheet_View_1_Drawing_1
 62
    18
420
        0
 48
12.69999980926514
100
AcDbLine
 10
96.61366686481595
 20
130.3633405776849
 30
0.0
 11
96.41071171421171
 21
130.5662957282891
 31
0.0
  0
LINE
  5
3B1
330
1F
100
AcDbEntity
  8
Sheet_View_1_Drawing_1
 62
    18
420
        0
 48
12.69999980926514
100
AcDbLine
 10
86.65582476514936
 20
140.3211849482884
 30
0.0
 11
86.40931304353835
 21
140.5676966698995
 31
0.0
  0
LINE
  5
3B2
330
1F
100
AcDbEntity
  8
Sheet_View_1_Drawing_1
 62
    18
420
        0
 48
12.69999980926514
100
AcDbLine
 10
97.65931222099424
 20
131.4390168043008
 30
0.0
 11
97.40931234020353
 21
131.6890166850915
 31
0.0
  0
LINE
  5
3B3
330
1F
100
AcDbEntity
  8
Sheet_View_1_Drawing_1
 62
    18
420
        0
 48
12.69999980926514
100
AcDbLine
 10
86.65931292432906
 20
142.439016857945
 30
0.0
 11
86.40931304353835
 21
142.6890167387357
 31
0.0
  0
LINE
  5
3B4
330
1F
100
AcDbEntity
  8
Sheet_View_1_Drawing_1
 62
    18
420
        0
 48
12.69999980926514
100
AcDbLine
 10
97.65931222099424
 20
133.560336873137
 30
0.0
 11
97.40931234020353
 21
133.8103367539277
 31
0.0
  0
LINE
  5
3B5
330
1F
100
AcDbEntity
  8
Sheet_View_1_Drawing_1
 62
    18
420
        0
 48
12.69999980926514
100
AcDbLine
 10
86.65931292432906
 20
144.5603369267812
 30
0.0
 11
86.40931304353835
 21
144.8103375645509
 31
0.0
  0
LINE
  5
3B6
330
1F
100
AcDbEntity
  8
Sheet_View_1_Drawing_1
 62
    18
420
        0
 48
12.69999980926514
100
AcDbLine
 10
97.65931222099424
 20
135.6816569419732
 30
0.0
 11
97.40931234020353
 21
135.9316568227639
 31
0.0
  0
LINE
  5
3B7
330
1F
100
AcDbEntity
  8
Sheet_View_1_Drawing_1
 62
    18
420
        0
 48
12.69999980926514
100
AcDbLine
 10
86.65931292432906
 20
146.6816573741069
 30
0.0
 11
86.40931304353835
 21
146.9316576333871
 31
0.0
  0
LINE
  5
3B8
330
1F
100
AcDbEntity
  8
Sheet_View_1_Drawing_1
 62
    18
420
        0
 48
12.69999980926514
100
AcDbLine
 10
97.65931222099424
 20
137.8029785247674
 30
0.0
 11
97.40931234020353
 21
138.0529784055581
 31
0.0
  0
LINE
  5
3B9
330
1F
100
AcDbEntity
  8
Sheet_View_1_Drawing_1
 62
    18
420
        0
 48
12.69999980926514
100
AcDbLine
 10
86.65931292432906
 20
148.8029778214326
 30
0.0
 11
86.40931304353835
 21
149.0529777022233
 31
0.0
  0
LINE
  5
3BA
330
1F
100
AcDbEntity
  8
Sheet_View_1_Drawing_1
 62
    18
420
        0
 48
12.69999980926514
100
AcDbLine
 10
98.1081666972077
 20
139.4754433604112
 30
0.0
 11
97.93139015096784
 21
139.65222066363
 31
0.0
  0
LINE
  5
3BB
330
1F
100
AcDbEntity
  8
Sheet_View_1_Drawing_1
 62
    18
420
        0
 48
12.69999980926514
100
AcDbLine
 10
86.65931292432906
 20
150.9242982687583
 30
0.0
 11
86.40931304353835
 21
151.174298149549
 31
0.0
  0
LINE
  5
3BC
330
1F
100
AcDbEntity
  8
Sheet_View_1_Drawing_1
 62
    18
420
        0
 48
12.69999980926514
100
AcDbLine
 10
99.11674809116484
 20
140.5881827922692
 30
0.0
 11
98.90770758647085
 21
140.7972232969632
 31
0.0
  0
LINE
  5
3BD
330
1F
100
AcDbEntity
  8
Sheet_View_1_Drawing_1
 62
    18
420
        0
 48
12.69999980926514
100
AcDbLine
 10
86.65931292432906
 20
153.0456185741504
 30
0.0
 11
86.40931304353835
 21
153.2956185495635
 31
0.0
  0
LINE
  5
3BE
330
1F
100
AcDbEntity
  8
Sheet_View_1_Drawing_1
 62
    18
420
        0
 48
12.69999980926514
100
AcDbLine
 10
85.40931200641752
 20
154.2956185931494
 30
0.0
 11
85.15931212562681
 21
154.5456185685625
 31
0.0
  0
LINE
  5
3BF
330
1F
100
AcDbEntity
  8
Sheet_View_1_Drawing_1
 62
    18
420
        0
 48
12.69999980926514
100
AcDbLine
 10
99.15931226271749
 20
142.6669386895528
 30
0.0
 11
98.90931238192678
 21
142.9169385703435
 31
0.0
  0
LINE
  5
3C0
330
1F
100
AcDbEntity
  8
Sheet_View_1_Drawing_1
 62
    18
420
        0
 48
12.69999980926514
100
AcDbLine
 10
125.560069521848
 20
122.6301416369309
 30
0.0
 11
125.3100696410573
 21
122.8801415177217
 31
0.0
  0
LINE
  5
3C1
330
1F
100
AcDbEntity
  8
Sheet_View_1_Drawing_1
 62
    18
420
        0
 48
12.69999980926514
100
AcDbLine
 10
122.6593124117291
 20
125.5309002610078
 30
0.0
 11
122.4093125309384
 21
125.7809001417985
 31
0.0
  0
LINE
  5
3C2
330
1F
100
AcDbEntity
  8
Sheet_View_1_Drawing_1
 62
    18
420
        0
 48
12.69999980926514
100
AcDbLine
 10
127.6813895906842
 20
122.6301416369309
 30
0.0
 11
127.4313897098935
 21
122.8801415177217
 31
0.0
  0
LINE
  5
3C3
330
1F
100
AcDbEntity
  8
Sheet_View_1_Drawing_1
 62
    18
420
        0
 48
12.69999980926514
100
AcDbLine
 10
122.6593124117291
 20
127.652220329844
 30
0.0
 11
122.4096281911767
 21
127.9019037934175
 31
0.0
  0
LINE
  5
3C4
330
1F
100
AcDbEntity
  8
Sheet_View_1_Drawing_1
 62
    18
420
        0
 48
12.69999980926514
100
AcDbLine
 10
129.8027111734784
 20
122.6301416369309
 30
0.0
 11
129.5527112926877
 21
122.8801415177217
 31
0.0
  0
LINE
  5
3C5
330
1F
100
AcDbEntity
  8
Sheet_View_1_Drawing_1
 62
    18
420
        0
 48
12.69999980926514
100
AcDbLine
 10
123.9664167966283
 20
128.4664360137811
 30
0.0
 11
123.7702895965016
 21
128.6625632139077
 31
0.0
  0
LINE
  5
3C6
330
1F
100
AcDbEntity
  8
Sheet_View_1_Drawing_1
 62
    18
420
        0
 48
12.69999980926514
100
AcDbLine
 10
131.9239767398274
 20
122.6301961394181
 30
0.0
 11
131.6740313615239
 21
122.8801415177217
 31
0.0
  0
LINE
  5
3C7
330
1F
100
AcDbEntity
  8
Sheet_View_1_Drawing_1
 62
    18
420
        0
 48
12.69999980926514
100
AcDbLine
 10
124.5350215639508
 20
130.0191513152947
 30
0.0
 11
124.0483219231999
 21
130.5058524700036
 31
0.0
  0
LINE
  5
3C8
330
1F
100
AcDbEntity
  8
Sheet_View_1_Drawing_1
 62
    18
420
        0
 48
12.69999980926514
100
AcDbLine
 10
122.9093122925198
 20
131.6448605867257
 30
0.0
 11
122.6593124117291
 21
131.8948604675164
 31
0.0
  0
LINE
  5
3C9
330
1F
100
AcDbEntity
  8
Sheet_View_1_Drawing_1
 62
    18
420
        0
 48
12.69999980926514
100
AcDbLine
 10
133.3899089421666
 20
123.2855855198731
 30
0.0
 11
133.2128984894192
 21
123.4625944586625
 31
0.0
  0
LINE
  5
3CA
330
1F
100
AcDbEntity
  8
Sheet_View_1_Drawing_1
 62
    18
420
        0
 48
12.69999980926514
100
AcDbLine
 10
122.9093122925198
 20
133.7661806555619
 30
0.0
 11
122.6593124117291
 21
134.0161820503106
 31
0.0
  0
LINE
  5
3CB
330
1F
100
AcDbEntity
  8
Sheet_View_1_Drawing_1
 62
    18
420
        0
 48
12.69999980926514
100
AcDbLine
 10
133.909311589185
 20
124.8875014277329
 30
0.0
 11
133.6593117083943
 21
125.1375013085237
 31
0.0
  0
LINE
  5
3CC
330
1F
100
AcDbEntity
  8
Sheet_View_1_Drawing_1
 62
    18
420
        0
 48
12.69999980926514
100
AcDbLine
 10
122.9093122925198
 20
135.8875022383561
 30
0.0
 11
122.6593124117291
 21
136.1375021191468
 31
0.0
  0
LINE
  5
3CD
330
1F
100
AcDbEntity
  8
Sheet_View_1_Drawing_1
 62
    18
420
        0
 48
12.69999980926514
100
AcDbLine
 10
133.909311589185
 20
127.0088230105271
 30
0.0
 11
133.6593117083943
 21
127.2588228913178
 31
0.0
  0
LINE
  5
3CE
330
1F
100
AcDbEntity
  8
Sheet_View_1_Drawing_1
 62
    18
420
        0
 48
12.69999980926514
100
AcDbLine
 10
122.9093122925198
 20
138.0088223071923
 30
0.0
 11
122.6593124117291
 21
138.258822187983
 31
0.0
  0
LINE
  5
3CF
330
1F
100
AcDbEntity
  8
Sheet_View_1_Drawing_1
 62
    18
420
        0
 48
12.69999980926514
100
AcDbLine
 10
133.909311589185
 20
129.1301430793633
 30
0.0
 11
133.6593117083943
 21
129.380142960154
 31
0.0
  0
LINE
  5
3D0
330
1F
100
AcDbEntity
  8
Sheet_View_1_Drawing_1
 62
    18
420
        0
 48
12.69999980926514
100
AcDbLine
 10
121.4093122507966
 20
141.6301424177518
 30
0.0
 11
121.1593123700058
 21
141.8801422985425
 31
0.0
  0
LINE
  5
3D1
330
1F
100
AcDbEntity
  8
Sheet_View_1_Drawing_1
 62
    18
420
        0
 48
12.69999980926514
100
AcDbLine
 10
133.909311589185
 20
131.2514631481995
 30
0.0
 11
133.6593117083943
 21
131.5014630289903
 31
0.0
  0
LINE
  5
3D2
330
1F
100
AcDbEntity
  8
Sheet_View_1_Drawing_1
 62
    18
420
        0
 48
12.69999980926514
100
AcDbLine
 10
121.4093122507966
 20
143.751462486588
 30
0.0
 11
121.1593123700058
 21
144.0014623673787
 31
0.0
  0
LINE
  5
3D3
330
1F
100
AcDbEntity
  8
Sheet_View_1_Drawing_1
 62
    18
420
        0
 48
12.69999980926514
100
AcDbLine
 10
133.909311589185
 20
133.3727832170358
 30
0.0
 11
133.6593117083943
 21
133.6227830978265
 31
0.0
  0
LINE
  5
3D4
330
1F
100
AcDbEntity
  8
Sheet_View_1_Drawing_1
 62
    18
420
        0
 48
12.69999980926514
100
AcDbLine
 10
133.909311589185
 20
135.494103285872
 30
0.0
 11
133.6593117083943
 21
135.7441031666627
 31
0.0
  0
LINE
  5
3D5
330
1F
100
AcDbEntity
  8
Sheet_View_1_Drawing_1
 62
    18
420
        0
 48
12.69999980926514
100
AcDbLine
 10
134.1308142389691
 20
137.3939222188821
 30
0.0
 11
133.9435452069676
 21
137.5811912508836
 31
0.0
  0
LINE
  5
3D6
330
1F
100
AcDbEntity
  8
Sheet_View_1_Drawing_1
 62
    18
420
        0
 48
12.69999980926514
100
AcDbLine
 10
134.6593127455151
 20
138.9867437811723
 30
0.0
 11
134.4093083228505
 21
139.2367466898789
 31
0.0
  0
LINE
  5
3D7
330
1F
100
AcDbEntity
  8
Sheet_View_1_Drawing_1
 62
    18
420
        0
 48
12.69999980926514
100
AcDbLine
 10
133.909311589185
 20
141.8580642493596
 30
0.0
 11
133.6593117083943
 21
142.1080641301503
 31
0.0
  0
LINE
  5
3D8
330
1F
100
AcDbEntity
  8
Sheet_View_1_Drawing_1
 62
    18
420
        0
 48
12.69999980926514
100
AcDbLine
 10
133.909311589185
 20
143.9793850751748
 30
0.0
 11
133.6593117083943
 21
144.2293849559655
 31
0.0
  0
LINE
  5
3D9
330
1F
100
AcDbEntity
  8
Sheet_View_1_Drawing_1
 62
    18
420
        0
 48
12.69999980926514
100
AcDbLine
 10
133.909311589185
 20
146.100705144011
 30
0.0
 11
133.6593117083943
 21
146.3507050248017
 31
0.0
  0
LINE
  5
3DA
330
1F
100
AcDbEntity
  8
Sheet_View_1_Drawing_1
 62
    18
420
        0
 48
12.69999980926514
100
AcDbLine
 10
133.909311589185
 20
148.2220255913367
 30
0.0
 11
133.6593117083943
 21
148.4720254721274
 31
0.0
  0
LINE
  5
3DB
330
1F
100
AcDbEntity
  8
Sheet_View_1_Drawing_1
 62
    18
420
        0
 48
12.69999980926514
100
AcDbLine
 10
133.909311589185
 20
150.3433458494177
 30
0.0
 11
133.6593117083943
 21
150.5933457302084
 31
0.0
  0
LINE
  5
3DC
330
1F
100
AcDbEntity
  8
Sheet_View_1_Drawing_1
 62
    18
420
        0
 48
12.69999980926514
100
AcDbLine
 10
133.909311589185
 20
152.4646661548098
 30
0.0
 11
133.6593117083943
 21
152.7146661302229
 31
0.0
  0
LINE
  5
3DD
330
1F
100
AcDbEntity
  8
Sheet_View_1_Drawing_1
 62
    18
420
        0
 48
12.69999980926514
100
AcDbLine
 10
135.1593125070965
 20
153.3359864885142
 30
0.0
 11
134.9093126263058
 21
153.5859864639273
 31
0.0
  0
LINE
  5
3DE
330
1F
100
AcDbEntity
  8
Sheet_View_1_Drawing_1
 62
    18
420
        0
 48
12.69999980926514
100
AcDbLine
 10
134.0343130435383
 20
154.4609865198066
 30
0.0
 11
133.909311589185
 21
154.5859865548244
 31
0.0
  0
LINE
  5
3DF
330
1F
100
AcDbEntity
  8
Sheet_View_1_Drawing_1
 62
    18
420
        0
 48
12.69999980926514
100
AcDbLine
 10
95.73378173965574
 20
129.9693299861779
 30
0.0
 11
96.3818072285092
 21
130.6173554750314
 31
0.0
  0
LINE
  5
3E0
330
1F
100
AcDbEntity
  8
Sheet_View_1_Drawing_1
 62
    18
420
        0
 48
12.69999980926514
100
AcDbLine
 10
95.70870302576185
 20
129.2371450873246
 30
0.0
 11
97.1139921273625
 21
130.6424341889253
 31
0.0
  0
LINE
  5
3E1
330
1F
100
AcDbEntity
  8
Sheet_View_1_Drawing_1
 62
    18
420
        0
 48
12.69999980926514
100
AcDbLine
 10
95.9696427668965
 20
128.7909786434998
 30
0.0
 11
97.56015932816625
 21
130.3814944477906
 31
0.0
  0
LINE
  5
3E2
330
1F
100
AcDbEntity
  8
Sheet_View_1_Drawing_1
 62
    18
420
        0
 48
12.69999980926514
100
AcDbLine
 10
96.39653955358625
 20
128.5107677312722
 30
0.0
 11
97.8403694834149
 21
129.9545976611009
 31
0.0
  0
LINE
  5
3E3
330
1F
100
AcDbEntity
  8
Sheet_View_1_Drawing_1
 62
    18
420
        0
 48
12.69999980926514
100
AcDbLine
 10
97.07214935678603
 20
128.4792698355546
 30
0.0
 11
97.87186662215353
 21
129.2789878579011
 31
0.0
  0
LINE
  5
3E4
330
1F
100
AcDbEntity
  8
Sheet_View_1_Drawing_1
 62
    18
420
        0
 48
12.69999980926514
100
AcDbLine
 10
122.4335366155541
 20
129.799027881228
 30
0.0
 11
123.302110203687
 21
130.6676007123818
 31
0.0
  0
LINE
  5
3E5
330
1F
100
AcDbEntity
  8
Sheet_View_1_Drawing_1
 62
    18
420
        0
 48
12.69999980926514
100
AcDbLine
 10
122.490019359771
 20
129.1484029265275
 30
0.0
 11
123.9527336444295
 21
130.6111179681649
 31
0.0
  0
LINE
  5
3E6
330
1F
100
AcDbEntity
  8
Sheet_View_1_Drawing_1
 62
    18
420
        0
 48
12.69999980926514
100
AcDbLine
 10
122.7804721977151
 20
128.7317495795121
 30
0.0
 11
124.3693869914448
 21
130.3206651302209
 31
0.0
  0
LINE
  5
3E7
330
1F
100
AcDbEntity
  8
Sheet_View_1_Drawing_1
 62
    18
420
        0
 48
12.69999980926514
100
AcDbLine
 10
123.2375111307538
 20
128.4816830845704
 30
0.0
 11
124.6194550003445
 21
129.8636254402032
 31
0.0
  0
LINE
  5
3E8
330
1F
100
AcDbEntity
  8
Sheet_View_1_Drawing_1
 62
    18
420
        0
 48
12.69999980926514
100
AcDbLine
 10
124.0105214204228
 20
128.5475856753221
 30
0.0
 11
124.5535524095929
 21
129.0906166644921
 31
0.0
  0
LINE
  5
3E9
330
1F
100
AcDbEntity
  8
Sheet_View_1_Drawing_1
 62
    18
420
        0
 48
12.69999980926514
100
AcDbLine
 10
111.7344600278473
 20
151.3049946407011
 30
0.0
 11
111.9093122388756
 21
151.1301424296727
 31
0.0
  0
LINE
  5
3EA
330
1F
100
AcDbEntity
  8
Sheet_View_1_Drawing_1
 62
    18
420
        0
 48
12.69999980926514
100
AcDbLine
 10
133.6113525475895
 20
155.118978488647
 30
0.0
 11
132.6113515104687
 21
154.1189785869946
 31
0.0
  0
LINE
  5
3EB
330
1F
100
AcDbEntity
  8
Sheet_View_1_Drawing_1
 62
    18
420
        0
 48
12.69999980926514
100
AcDbLine
 10
131.3834816302693
 20
155.0124287756314
 30
0.0
 11
130.4792263235486
 21
154.1081734689107
 31
0.0
  0
LINE
  5
3EC
330
1F
100
AcDbEntity
  8
Sheet_View_1_Drawing_1
 62
    18
420
        0
 48
12.69999980926514
100
AcDbLine
 10
116.1593124832547
 20
154.6375016244283
 30
0.0
 11
115.4907891388571
 21
153.9689785638978
 31
0.0
  0
LINE
  5
3ED
330
1F
100
AcDbEntity
  8
Sheet_View_1_Drawing_1
 62
    18
420
        0
 48
12.69999980926514
100
AcDbLine
 10
111.1593123126364
 20
149.6375017376771
 30
0.0
 11
110.6407892278916
 21
149.1189787002435
 31
0.0
  0
LINE
  5
3EE
330
1F
100
AcDbEntity
  8
Sheet_View_1_Drawing_1
 62
    18
420
        0
 48
12.69999980926514
100
AcDbLine
 10
114.3694689716733
 20
154.9689785601726
 30
0.0
 11
113.3694690700209
 21
153.9689785638978
 31
0.0
  0
LINE
  5
3EF
330
1F
100
AcDbEntity
  8
Sheet_View_1_Drawing_1
 62
    18
420
        0
 48
12.69999980926514
100
AcDbLine
 10
111.1593123126364
 20
151.7588219957581
 30
0.0
 11
109.159312320087
 21
149.7588220032086
 31
0.0
  0
LINE
  5
3F0
330
1F
100
AcDbEntity
  8
Sheet_View_1_Drawing_1
 62
    18
420
        0
 48
12.69999980926514
100
AcDbLine
 10
112.2481485243476
 20
154.9689785601726
 30
0.0
 11
111.2481485280728
 21
153.9689785638978
 31
0.0
  0
LINE
  5
3F1
330
1F
100
AcDbEntity
  8
Sheet_View_1_Drawing_1
 62
    18
420
        0
 48
12.69999980926514
100
AcDbLine
 10
111.1593123126364
 20
153.8801423484614
 30
0.0
 11
109.159312320087
 21
151.880142355912
 31
0.0
  0
LINE
  5
3F2
330
1F
100
AcDbEntity
  8
Sheet_View_1_Drawing_1
 62
    18
420
        0
 48
12.69999980926514
100
AcDbLine
 10
110.1268282012137
 20
154.9689785601726
 30
0.0
 11
109.1268281753695
 21
153.9689785638978
 31
0.0
  0
LINE
  5
3F3
330
1F
100
AcDbEntity
  8
Sheet_View_1_Drawing_1
 62
    18
420
        0
 48
12.69999980926514
100
AcDbLine
 10
108.0055078189409
 20
154.9689785601726
 30
0.0
 11
107.0055079172886
 21
153.9689785638978
 31
0.0
  0
LINE
  5
3F4
330
1F
100
AcDbEntity
  8
Sheet_View_1_Drawing_1
 62
    18
420
        0
 48
12.69999980926514
100
AcDbLine
 10
105.8841875608599
 20
154.9689785601726
 30
0.0
 11
104.8841876592076
 21
153.9689785638978
 31
0.0
  0
LINE
  5
3F5
330
1F
100
AcDbEntity
  8
Sheet_View_1_Drawing_1
 62
    18
420
        0
 48
12.69999980926514
100
AcDbLine
 10
90.15931276935697
 20
154.0933457644811
 30
0.0
 11
90.15519177574278
 21
154.089225811713
 31
0.0
  0
LINE
  5
3F6
330
1F
100
AcDbEntity
  8
Sheet_View_1_Drawing_1
 62
    18
420
        0
 48
12.69999980926514
100
AcDbLine
 10
88.95583275217176
 20
155.0111873300901
 30
0.0
 11
88.06362400907636
 21
154.1189785869946
 31
0.0
  0
LINE
  5
3F7
330
1F
100
AcDbEntity
  8
Sheet_View_1_Drawing_1
 62
    18
420
        0
 48
12.69999980926514
100
AcDbLine
 10
86.94230497736098
 20
155.118978488647
 30
0.0
 11
86.65931292432906
 21
154.8359864356151
 31
0.0
  0
LINE
  5
3F8
330
1F
100
AcDbEntity
  8
Sheet_View_1_Drawing_1
 62
    18
420
        0
 48
12.69999980926514
100
AcDbLine
 10
92.1421193088925
 20
128.4709294410577
 30
0.0
 11
91.15931229251981
 21
129.4537349434724
 31
0.0
  0
LINE
  5
3F9
330
1F
100
AcDbEntity
  8
Sheet_View_1_Drawing_1
 62
    18
420
        0
 48
12.69999980926514
100
AcDbLine
 10
92.15931181568266
 20
130.5750554891458
 30
0.0
 11
91.15931229251981
 21
131.5750565262666
 31
0.0
  0
LINE
  5
3FA
330
1F
100
AcDbEntity
  8
Sheet_View_1_Drawing_1
 62
    18
420
        0
 48
12.69999980926514
100
AcDbLine
 10
92.15931181568266
 20
132.696375557982
 30
0.0
 11
91.15931229251981
 21
133.6963765951028
 31
0.0
  0
LINE
  5
3FB
330
1F
100
AcDbEntity
  8
Sheet_View_1_Drawing_1
 62
    18
420
        0
 48
12.69999980926514
100
AcDbLine
 10
92.15931181568266
 20
134.8176971407761
 30
0.0
 11
91.15931229251981
 21
135.817696663939
 31
0.0
  0
LINE
  5
3FC
330
1F
100
AcDbEntity
  8
Sheet_View_1_Drawing_1
 62
    18
420
        0
 48
12.69999980926514
100
AcDbLine
 10
92.15931181568266
 20
136.9390172096124
 30
0.0
 11
91.15931229251981
 21
137.9390167327752
 31
0.0
  0
LINE
  5
3FD
330
1F
100
AcDbEntity
  8
Sheet_View_1_Drawing_1
 62
    18
420
        0
 48
12.69999980926514
100
AcDbLine
 10
92.15931181568266
 20
139.0603372784486
 30
0.0
 11
91.15931229251981
 21
140.0603368016114
 31
0.0
  0
LINE
  5
3FE
330
1F
100
AcDbEntity
  8
Sheet_View_1_Drawing_1
 62
    18
420
        0
 48
12.69999980926514
100
AcDbLine
 10
92.15931181568266
 20
141.1816573472848
 30
0.0
 11
91.15931229251981
 21
142.1816576274266
 31
0.0
  0
LINE
  5
3FF
330
1F
100
AcDbEntity
  8
Sheet_View_1_Drawing_1
 62
    18
420
        0
 48
12.69999980926514
100
AcDbLine
 10
92.15931181568266
 20
143.3029781731
 30
0.0
 11
91.15931229251981
 21
144.3029776962628
 31
0.0
  0
LINE
  5
400
330
1F
100
AcDbEntity
  8
Sheet_View_1_Drawing_1
 62
    18
420
        0
 48
12.69999980926514
100
AcDbLine
 10
92.15931181568266
 20
145.4242982419362
 30
0.0
 11
91.15931229251981
 21
146.424298522078
 31
0.0
  0
LINE
  5
401
330
1F
100
AcDbEntity
  8
Sheet_View_1_Drawing_1
 62
    18
420
        0
 48
12.69999980926514
100
AcDbLine
 10
92.20612036842466
 20
147.4988101365199
 30
0.0
 11
91.39137479919553
 21
148.3135560842385
 31
0.0
  0
LINE
  5
402
330
1F
100
AcDbEntity
  8
Sheet_View_1_Drawing_1
 62
    18
420
        0
 48
12.69999980926514
100
AcDbLine
 10
92.89144978183866
 20
148.9348019274106
 30
0.0
 11
92.18297649282576
 21
149.643274080955
 31
0.0
  0
LINE
  5
403
330
1F
100
AcDbEntity
  8
Sheet_View_1_Drawing_1
 62
    18
420
        0
 48
12.69999980926514
100
AcDbLine
 10
94.15112337726713
 20
149.7964476438394
 30
0.0
 11
93.38948442596556
 21
150.5580875413647
 31
0.0
  0
LINE
  5
404
330
1F
100
AcDbEntity
  8
Sheet_View_1_Drawing_1
 62
    18
420
        0
 48
12.69999980926514
100
AcDbLine
 10
96.09796281713606
 20
149.9709288405409
 30
0.0
 11
95.09842656511427
 21
150.9704654710522
 31
0.0
  0
LINE
  5
405
330
1F
100
AcDbEntity
  8
Sheet_View_1_Drawing_1
 62
    18
420
        0
 48
12.69999980926514
100
AcDbLine
 10
98.21928364295125
 20
149.9709288405409
 30
0.0
 11
97.21928336280943
 21
150.970928931438
 31
0.0
  0
LINE
  5
406
330
1F
100
AcDbEntity
  8
Sheet_View_1_Drawing_1
 62
    18
420
        0
 48
12.69999980926514
100
AcDbLine
 10
100.3406037117875
 20
149.9709288405409
 30
0.0
 11
99.34060343164565
 21
150.970928931438
 31
0.0
  0
LINE
  5
407
330
1F
100
AcDbEntity
  8
Sheet_View_1_Drawing_1
 62
    18
420
        0
 48
12.69999980926514
100
AcDbLine
 10
102.139440133754
 20
150.2934130551448
 30
0.0
 11
101.3737218226826
 21
151.0591313662162
 31
0.0
  0
LINE
  5
408
330
1F
100
AcDbEntity
  8
Sheet_View_1_Drawing_1
 62
    18
420
        0
 48
12.69999980926514
100
AcDbLine
 10
103.2683486368096
 20
151.2858244316807
 30
0.0
 11
102.5417063381112
 21
152.0124668250015
 31
0.0
  0
LINE
  5
409
330
1F
100
AcDbEntity
  8
Sheet_View_1_Drawing_1
 62
    18
420
        0
 48
12.69999980926514
100
AcDbLine
 10
128.204565020982
 20
128.4709294410577
 30
0.0
 11
128.1593128170407
 21
128.516181644999
 31
0.0
  0
LINE
  5
40A
330
1F
100
AcDbEntity
  8
Sheet_View_1_Drawing_1
 62
    18
420
        0
 48
12.69999980926514
100
AcDbLine
 10
103.9751936640179
 20
152.7002998163147
 30
0.0
 11
103.2679058041012
 21
153.4075876644036
 31
0.0
  0
LINE
  5
40B
330
1F
100
AcDbEntity
  8
Sheet_View_1_Drawing_1
 62
    18
420
        0
 48
12.69999980926514
100
AcDbLine
 10
129.1593123402035
 20
129.6375021906724
 30
0.0
 11
128.1593128170407
 21
130.6375017138352
 31
0.0
  0
LINE
  5
40C
330
1F
100
AcDbEntity
  8
Sheet_View_1_Drawing_1
 62
    18
420
        0
 48
12.69999980926514
100
AcDbLine
 10
108.9361916277146
 20
149.8606224300494
 30
0.0
 11
107.6593123729861
 21
151.1375015901556
 31
0.0
  0
LINE
  5
40D
330
1F
100
AcDbEntity
  8
Sheet_View_1_Drawing_1
 62
    18
420
        0
 48
12.69999980926514
100
AcDbLine
 10
105.8258850391543
 20
152.9709289239874
 30
0.0
 11
104.825885137502
 21
153.9709289202621
 31
0.0
  0
LINE
  5
40E
330
1F
100
AcDbEntity
  8
Sheet_View_1_Drawing_1
 62
    18
420
        0
 48
12.69999980926514
100
AcDbLine
 10
129.1593123402035
 20
131.7588222595086
 30
0.0
 11
128.1593128170407
 21
132.7588217826714
 31
0.0
  0
LINE
  5
40F
330
1F
100
AcDbEntity
  8
Sheet_View_1_Drawing_1
 62
    18
420
        0
 48
12.69999980926514
100
AcDbLine
 10
109.159312320087
 20
151.7588219957581
 30
0.0
 11
106.9472055848277
 21
153.9709289202621
 31
0.0
  0
LINE
  5
410
330
1F
100
AcDbEntity
  8
Sheet_View_1_Drawing_1
 62
    18
420
        0
 48
12.69999980926514
100
AcDbLine
 10
129.1593123402035
 20
133.8801423283448
 30
0.0
 11
128.1593128170407
 21
134.8801418515077
 31
0.0
  0
LINE
  5
411
330
1F
100
AcDbEntity
  8
Sheet_View_1_Drawing_1
 62
    18
420
        0
 48
12.69999980926514
100
AcDbLine
 10
112.6593122597373
 20
150.3801424088111
 30
0.0
 11
111.1593123126364
 21
151.880142355912
 31
0.0
  0
LINE
  5
412
330
1F
100
AcDbEntity
  8
Sheet_View_1_Drawing_1
 62
    18
420
        0
 48
12.69999980926514
100
AcDbLine
 10
109.159312320087
 20
153.8801423484614
 30
0.0
 11
109.0685257482863
 21
153.9709289202621
 31
0.0
  0
LINE
  5
413
330
1F
100
AcDbEntity
  8
Sheet_View_1_Drawing_1
 62
    18
420
        0
 48
12.69999980926514
100
AcDbLine
 10
129.1593123402035
 20
136.001462397181
 30
0.0
 11
128.1593128170407
 21
137.0014634343019
 31
0.0
  0
LINE
  5
414
330
1F
100
AcDbEntity
  8
Sheet_View_1_Drawing_1
 62
    18
420
        0
 48
12.69999980926514
100
AcDbLine
 10
112.6593122597373
 20
152.5014626905476
 30
0.0
 11
111.1898461009896
 21
153.9709289202621
 31
0.0
  0
LINE
  5
415
330
1F
100
AcDbEntity
  8
Sheet_View_1_Drawing_1
 62
    18
420
        0
 48
12.69999980926514
100
AcDbLine
 10
129.1593123402035
 20
138.1227824660172
 30
0.0
 11
128.1593128170407
 21
139.1227835031381
 31
0.0
  0
LINE
  5
416
330
1F
100
AcDbEntity
  8
Sheet_View_1_Drawing_1
 62
    18
420
        0
 48
12.69999980926514
100
AcDbLine
 10
114.3111664499676
 20
152.9709289239874
 30
0.0
 11
113.3111663590706
 21
153.9709289202621
 31
0.0
  0
LINE
  5
417
330
1F
100
AcDbEntity
  8
Sheet_View_1_Drawing_1
 62
    18
420
        0
 48
12.69999980926514
100
AcDbLine
 10
129.1593123402035
 20
140.2441032918325
 30
0.0
 11
128.1593128170407
 21
141.2441035719743
 31
0.0
  0
LINE
  5
418
330
1F
100
AcDbEntity
  8
Sheet_View_1_Drawing_1
 62
    18
420
        0
 48
12.69999980926514
100
AcDbLine
 10
119.4307682599461
 20
149.9726473720899
 30
0.0
 11
115.4324866171515
 21
153.9709289202621
 31
0.0
  0
LINE
  5
419
330
1F
100
AcDbEntity
  8
Sheet_View_1_Drawing_1
 62
    18
420
        0
 48
12.69999980926514
100
AcDbLine
 10
129.1593123402035
 20
142.3654233606687
 30
0.0
 11
128.1593128170407
 21
143.3654236408105
 31
0.0
  0
LINE
  5
41A
330
1F
100
AcDbEntity
  8
Sheet_View_1_Drawing_1
 62
    18
420
        0
 48
12.69999980926514
100
AcDbLine
 10
121.5538074280656
 20
149.9709288405409
 30
0.0
 11
120.5538071479237
 21
150.970928931438
 31
0.0
  0
LINE
  5
41B
330
1F
100
AcDbEntity
  8
Sheet_View_1_Drawing_1
 62
    18
420
        0
 48
12.69999980926514
100
AcDbLine
 10
129.1593123402035
 20
144.4867441864839
 30
0.0
 11
128.1593128170407
 21
145.4867437096467
 31
0.0
  0
LINE
  5
41C
330
1F
100
AcDbEntity
  8
Sheet_View_1_Drawing_1
 62
    18
420
        0
 48
12.69999980926514
100
AcDbLine
 10
123.6751267399228
 20
149.9709288405409
 30
0.0
 11
122.6751272167599
 21
150.970928931438
 31
0.0
  0
LINE
  5
41D
330
1F
100
AcDbEntity
  8
Sheet_View_1_Drawing_1
 62
    18
420
        0
 48
12.69999980926514
100
AcDbLine
 10
129.1593123402035
 20
146.6080642553201
 30
0.0
 11
128.0700392569935
 21
147.6973377170196
 31
0.0
  0
LINE
  5
41E
330
1F
100
AcDbEntity
  8
Sheet_View_1_Drawing_1
 62
    18
420
        0
 48
12.69999980926514
100
AcDbLine
 10
125.8857203688061
 20
149.8816556589832
 30
0.0
 11
124.7964472855961
 21
150.970928931438
 31
0.0
  0
LINE
  5
41F
330
1F
100
AcDbEntity
  8
Sheet_View_1_Drawing_1
 62
    18
420
        0
 48
12.69999980926514
100
AcDbLine
 10
83.15931307930113
 20
138.6080650421014
 30
0.0
 11
83.83653978962064
 21
139.2852917524209
 31
0.0
  0
LINE
  5
420
330
1F
100
AcDbEntity
  8
Sheet_View_1_Drawing_1
 62
    18
420
        0
 48
12.69999980926514
100
AcDbLine
 10
83.54364645141722
 20
138.2852922292581
 30
0.0
 11
84.54364597458006
 21
139.2852917524209
 31
0.0
  0
LINE
  5
421
330
1F
100
AcDbEntity
  8
Sheet_View_1_Drawing_1
 62
    18
420
        0
 48
12.69999980926514
100
AcDbLine
 10
84.8092532481587
 20
139.5508990259995
 30
0.0
 11
85.89024952310682
 21
140.6318953009477
 31
0.0
  0
LINE
  5
422
330
1F
100
AcDbEntity
  8
Sheet_View_1_Drawing_1
 62
    18
420
        0
 48
12.69999980926514
100
AcDbLine
 10
84.25075263637663
 20
138.2852922292581
 30
0.0
 11
86.1569074835217
 21
140.1914455624452
 31
0.0
  0
LINE
  5
423
330
1F
100
AcDbEntity
  8
Sheet_View_1_Drawing_1
 62
    18
420
        0
 48
12.69999980926514
100
AcDbLine
 10
84.77549198526502
 20
138.1029238792291
 30
0.0
 11
85.40790553945662
 21
138.7353374334207
 31
0.0
  0
LINE
  5
424
330
1F
100
AcDbEntity
  8
Sheet_View_1_Drawing_1
 62
    18
420
        0
 48
12.69999980926514
100
AcDbLine
 10
85.01885013240934
 20
137.639175841414
 30
0.0
 11
85.56196741718412
 21
138.1822931261888
 31
0.0
  0
LINE
  5
425
330
1F
100
AcDbEntity
  8
Sheet_View_1_Drawing_1
 62
    18
420
        0
 48
12.69999980926514
100
AcDbLine
 10
85.35437804121138
 20
137.2675975652566
 30
0.0
 11
85.88717921632887
 21
137.8003972264161
 31
0.0
  0
LINE
  5
426
330
1F
100
AcDbEntity
  8
Sheet_View_1_Drawing_1
 62
    18
420
        0
 48
12.69999980926514
100
AcDbLine
 10
85.78169419426085
 20
136.9878045054307
 30
0.0
 11
86.1569074835217
 21
137.3630177946916
 31
0.0
  0
LINE
  5
427
330
1F
100
AcDbEntity
  8
Sheet_View_1_Drawing_1
 62
    18
420
        0
 48
12.69999980926514
100
AcDbLine
 10
134.1617171492016
 20
140.1129952879777
 30
0.0
 11
134.5995916451848
 21
140.5508690269818
 31
0.0
  0
LINE
  5
428
330
1F
100
AcDbEntity
  8
Sheet_View_1_Drawing_1
 62
    18
420
        0
 48
12.69999980926514
100
AcDbLine
 10
134.4832439746297
 20
139.7274144144883
 30
0.0
 11
135.0143283214009
 21
140.2584987612595
 31
0.0
  0
LINE
  5
429
330
1F
100
AcDbEntity
  8
Sheet_View_1_Drawing_1
 62
    18
420
        0
 48
12.69999980926514
100
AcDbLine
 10
134.7887909736073
 20
139.3258537145486
 30
0.0
 11
135.3378989900982
 21
139.8749632449975
 31
0.0
  0
LINE
  5
42A
330
1F
100
AcDbEntity
  8
Sheet_View_1_Drawing_1
 62
    18
420
        0
 48
12.69999980926514
100
AcDbLine
 10
134.9109280194676
 20
138.7408860894074
 30
0.0
 11
135.5703732933438
 21
139.4003313632836
 31
0.0
  0
LINE
  5
42B
330
1F
100
AcDbEntity
  8
Sheet_View_1_Drawing_1
 62
    18
420
        0
 48
12.69999980926514
100
AcDbLine
 10
134.1617171492016
 20
137.2845675202241
 30
0.0
 11
136.1624428953564
 21
139.2852917524209
 31
0.0
  0
LINE
  5
42C
330
1F
100
AcDbEntity
  8
Sheet_View_1_Drawing_1
 62
    18
420
        0
 48
12.69999980926514
100
AcDbLine
 10
134.6089963521397
 20
137.0247405382028
 30
0.0
 11
135.423130282346
 21
137.8388744684091
 31
0.0
  0
LINE
  5
42D
330
1F
100
AcDbEntity
  8
Sheet_View_1_Drawing_1
 62
    18
420
        0
 48
12.69999980926514
100
AcDbLine
 10
135.869549557153
 20
138.2852922292581
 30
0.0
 11
136.8695490803158
 21
139.2852917524209
 31
0.0
  0
LINE
  5
42E
330
1F
100
AcDbEntity
  8
Sheet_View_1_Drawing_1
 62
    18
420
        0
 48
12.69999980926514
100
AcDbLine
 10
136.5766557421124
 20
138.2852922292581
 30
0.0
 11
137.1593115534222
 21
138.8679495545259
 31
0.0
  0
LINE
  5
42F
330
1F
100
AcDbEntity
  8
Sheet_View_1_Drawing_1
  6
CENTER
 62
    18
420
        0
 48
5.079999923706055
100
AcDbLine
 10
110.1593123163616
 20
157.070204120545
 30
0.0
 11
110.1593123163617
 21
120.818197831023
 31
0.0
  0
LINE
  5
430
330
1F
100
AcDbEntity
  8
Sheet_View_1_Drawing_1
  6
CENTER
 62
    18
420
        0
 48
5.079999923706055
100
AcDbLine
 10
110.1593123163616
 20
157.070204120545
 30
0.0
 11
110.1593123163617
 21
144.370204120545
 31
0.0
  0
LINE
  5
431
330
1F
100
AcDbEntity
  8
Sheet_View_1_Drawing_1
  6
CENTER
 62
    18
420
        0
 48
5.079999923706055
100
AcDbLine
 10
110.1593123163617
 20
120.818197831023
 30
0.0
 11
110.1593123163617
 21
133.518197831023
 31
0.0
  0
DIMENSION
  5
433
330
1F
100
AcDbEntity
  8
Sheet_View_1_Drawing_1
 62
    18
420
        0
 48
12.69999980926514
100
AcDbDimension
280
     0
  2
*D2
 10
135.1593123163617
 20
165.1301423521867
 30
0.0
 11
110.1593123163617
 21
165.1301423521867
 31
0.0
 70
   160
  1
100
 71
     5
 42
50.0
 73
     0
 74
     0
 75
     0
  3
RotatedDim28
100
AcDbAlignedDimension
 13
85.15931231636168
 23
155.1301423521867
 33
0.0
 14
135.1593123163617
 24
155.1301423521867
 34
0.0
100
AcDbRotatedDimension
  0
DIMENSION
  5
442
330
1F
100
AcDbEntity
  8
Sheet_View_1_Drawing_1
 62
    18
420
        0
 48
12.69999980926514
100
AcDbDimension
280
     0
  2
*D3
 10
142.5969111170008
 20
152.8801423521867
 30
0.0
 11
142.5969111170008
 21
162.5212619244054
 31
0.0
 70
   160
  1
5
 71
     5
 42
2.5
 73
     0
 74
     0
 75
     0
  3
RotatedDim29
100
AcDbAlignedDimension
 13
134.9093123163617
 23
155.3801423521867
 33
0.0
 14
135.1593123163617
 24
152.8801423521867
 34
0.0
 50
90.0
100
AcDbRotatedDimension
  0
DIMENSION
  5
453
330
1F
100
AcDbEntity
  8
Sheet_View_1_Drawing_1
 62
    18
420
        0
 48
12.69999980926514
100
AcDbDimension
280
     0
  2
*D4
 10
77.51602115633705
 20
138.7852922637159
 30
0.0
 11
77.51602115633705
 21
147.0827173079513
 31
0.0
 70
   160
  1
30
 71
     5
 42
16.59485008847079
 73
     0
 74
     0
 75
     0
  3
RotatedDim30
100
AcDbAlignedDimension
 13
85.40931231636168
 23
155.3801423521867
 33
0.0
 14
83.15931231636168
 24
138.7852922637159
 34
0.0
 50
90.0
100
AcDbRotatedDimension
  0
DIMENSION
  5
462
330
1F
100
AcDbEntity
  8
Sheet_View_1_Drawing_1
 62
    18
420
        0
 48
12.69999980926514
100
AcDbDimension
280
     0
  2
*D5
 10
57.3866505881881
 20
122.6301423521867
 30
0.0
 11
57.3866505881881
 21
140.3069190474833
 31
0.0
 70
   160
  1
63
 71
     5
 42
32.75
 73
     0
 74
     0
 75
     0
  3
RotatedDim31
100
AcDbAlignedDimension
 13
85.40931231636168
 23
155.3801423521867
 33
0.0
 14
88.40931231636168
 24
122.6301423521867
 34
0.0
 50
90.0
100
AcDbRotatedDimension
  0
DIMENSION
  5
471
330
1F
100
AcDbEntity
  8
Sheet_View_1_Drawing_1
 62
    18
420
        0
 48
12.69999980926514
100
AcDbDimension
280
     0
  2
*D6
 10
68.00502487438327
 20
144.3801423521867
 30
0.0
 11
68.00502487438327
 21
136.4255356377336
 31
0.0
 70
   160
  1
37
 71
     5
 42
15.90921342890604
 73
     0
 74
     0
 75
     0
  3
RotatedDim32
100
AcDbAlignedDimension
 13
91.15931231636168
 23
128.4709289232806
 33
0.0
 14
98.90931231636168
 24
144.3801423521867
 34
0.0
 50
90.0
100
AcDbRotatedDimension
  0
DIMENSION
  5
480
330
1F
100
AcDbEntity
  8
Sheet_View_1_Drawing_1
 62
    18
420
        0
 48
12.69999980926514
100
AcDbDimension
280
     0
  2
*D7
 10
122.4093123163617
 20
115.2697537137385
 30
-0.0000000000001212
 11
110.1593123163617
 21
115.2697537137385
 31
-0.0000000000001212
 70
   160
  1
%%c50
 71
     5
 42
24.50000000000001
 73
     0
 74
     0
 75
     0
  3
RotatedDim33
100
AcDbAlignedDimension
 13
97.90931231636168
 23
125.6301423521867
 33
-0.0000000000001212
 14
122.4093123163617
 24
125.6301423521867
 34
-0.0000000000001212
100
AcDbRotatedDimension
  0
DIMENSION
  5
48F
330
1F
100
AcDbEntity
  8
Sheet_View_1_Drawing_1
 62
    18
420
        0
 48
12.69999980926514
100
AcDbDimension
280
     0
  2
*D8
 10
133.9093123163617
 20
108.8359884079959
 30
0.0
 11
110.1151940929411
 21
108.8359884079959
 31
0.0
 70
   160
  1
%%c95
 71
     5
 42
47.5
 73
     0
 74
     0
 75
     0
  3
RotatedDim34
100
AcDbAlignedDimension
 13
86.40931231636168
 23
124.6301423521867
 33
0.0
 14
133.9093123163617
 24
124.6301423521867
 34
0.0
100
AcDbRotatedDimension
  0
DIMENSION
  5
49E
330
1F
100
AcDbEntity
  8
Sheet_View_1_Drawing_1
 62
    18
420
        0
 48
12.69999980926514
100
AcDbDimension
280
     0
  2
*D9
 10
137.1593123163617
 20
100.9198289564862
 30
0.0
 11
110.1593123163616
 21
100.9198289564862
 31
0.0
 70
   160
  1
%%c108
 71
     5
 42
54.0
 73
     0
 74
     0
 75
     0
  3
RotatedDim35
100
AcDbAlignedDimension
 13
83.15931231636168
 23
138.7852922637159
 33
0.0
 14
137.1593123163617
 24
138.7852922637159
 34
0.0
100
AcDbRotatedDimension
  0
ENDSEC
  0
SECTION
  2
OBJECTS
  0
DICTIONARY
  5
C
330
0
100
AcDbDictionary
281
     1
  3
ACAD_DETAILVIEWSTYLE
350
4B3
  3
ACAD_GROUP
350
D
  3
ACAD_LAYOUT
350
1A
  3
ACAD_MATERIAL
350
43
  3
ACAD_MLEADERSTYLE
350
6B
  3
ACAD_MLINESTYLE
350
17
  3
ACAD_PLOTSETTINGS
350
19
  3
ACAD_PLOTSTYLENAME
350
E
  3
ACAD_SCALELIST
350
47
  3
ACAD_SECTIONVIEWSTYLE
350
4B4
  3
ACAD_TABLESTYLE
350
69
  3
ACAD_VISUALSTYLE
350
2A
  3
ACDB_RECOMPOSE_DATA
350
4B0
  3
AcDbVariableDictionary
350
4AC
  0
SUN
  5
6D
330
29
100
AcDbSun
 90
        1
290
     0
 63
     7
421
 16777215
 40
1.0
291
     1
 91
  2455826
 92
 54000000
292
     0
 70
     2
 71
   256
280
     1
  0
DICTIONARY
  5
4B3
102
{ACAD_REACTORS
330
C
102
}
330
C
100
AcDbDictionary
281
     1
  0
DICTIONARY
  5
D
102
{ACAD_REACTORS
330
C
102
}
330
C
100
AcDbDictionary
281
     1
  0
DICTIONARY
  5
1A
102
{ACAD_REACTORS
330
C
102
}
330
C
100
AcDbDictionary
281
     1
  3
Layout1
350
1E
  3
Layout2
350
26
  3
Model
350
22
  0
DICTIONARY
  5
43
102
{ACAD_REACTORS
330
C
102
}
330
C
100
AcDbDictionary
281
     1
  3
ByBlock
350
45
  3
ByLayer
350
44
  3
Global
350
46
  0
DICTIONARY
  5
6B
102
{ACAD_REACTORS
330
C
102
}
330
C
100
AcDbDictionary
281
     1
  3
Standard
350
6C
  0
DICTIONARY
  5
17
102
{ACAD_REACTORS
330
C
102
}
330
C
100
AcDbDictionary
281
     1
  3
Standard
350
18
  0
DICTIONARY
  5
19
102
{ACAD_REACTORS
330
C
102
}
330
C
100
AcDbDictionary
281
     1
  0
ACDBDICTIONARYWDFLT
  5
E
102
{ACAD_REACTORS
330
C
102
}
330
C
100
AcDbDictionary
281
     1
  3
Normal
350
F
100
AcDbDictionaryWithDefault
340
F
  0
DICTIONARY
  5
47
102
{ACAD_REACTORS
330
C
102
}
330
C
100
AcDbDictionary
281
     1
  3
A0
350
48
  3
A1
350
49
  3
A2
350
4A
  3
A3
350
4B
  3
A4
350
4C
  3
A5
350
4D
  3
A6
350
4E
  3
A7
350
4F
  3
A8
350
50
  3
A9
350
51
  3
B0
350
52
  3
B1
350
53
  3
B2
350
54
  3
B3
350
55
  3
B4
350
56
  3
B5
350
57
  3
B6
350
58
  3
B7
350
59
  3
B8
350
5A
  3
B9
350
5B
  3
C0
350
5C
  3
C1
350
5D
  3
C2
350
5E
  3
C3
350
5F
  3
C4
350
60
  3
C5
350
61
  3
C6
350
62
  3
C7
350
63
  3
C8
350
64
  3
C9
350
65
  3
D0
350
66
  3
D1
350
67
  3
D2
350
68
  0
DICTIONARY
  5
4B4
102
{ACAD_REACTORS
330
C
102
}
330
C
100
AcDbDictionary
281
     1
  0
DICTIONARY
  5
69
102
{ACAD_REACTORS
330
C
102
}
330
C
100
AcDbDictionary
281
     1
  3
Standard
350
6A
  0
DICTIONARY
  5
2A
102
{ACAD_REACTORS
330
C
102
}
330
C
100
AcDbDictionary
281
     1
  3
2dWireframe
350
2F
  3
Basic
350
32
  3
Brighten
350
36
  3
ColorChange
350
3A
  3
Conceptual
350
34
  3
Dim
350
35
  3
EdgeColorOff
350
3D
  3
Facepattern
350
39
  3
Flat
350
2B
  3
FlatWithEdges
350
2C
  3
Gouraud
350
2D
  3
GouraudWithEdges
350
2E
  3
Hidden
350
31
  3
JitterOff
350
3B
  3
Linepattern
350
38
  3
OverhangOff
350
3C
  3
Realistic
350
33
  3
Shaded
350
42
  3
Shaded with edges
350
41
  3
Shades of Gray
350
3E
  3
Sketchy
350
3F
  3
Thicken
350
37
  3
Wireframe
350
30
  3
X-Ray
350
40
  0
XRECORD
  5
4B0
102
{ACAD_REACTORS
330
C
102
}
330
C
100
AcDbXrecord
280
     1
 90
        1
330
6A
  0
DICTIONARY
  5
4AC
102
{ACAD_REACTORS
330
C
102
}
330
C
100
AcDbDictionary
281
     1
  3
CANNOSCALE
350
4AD
  3
CENTEREXE
350
4B5
  3
CENTERLTYPEFILE
350
4B6
  3
CMLEADERSTYLE
350
4B2
  3
CTABLESTYLE
350
4B1
  0
LAYOUT
  5
1E
102
{ACAD_REACTORS
330
1A
102
}
330
1A
100
AcDbPlotSettings
  1

  2
none_device
  4

  6

 40
0.0
 41
0.0
 42
0.0
 43
0.0
 44
0.0
 45
0.0
 46
0.0
 47
0.0
 48
0.0
 49
0.0
140
0.0
141
0.0
142
1.0
143
1.0
 70
   688
 72
     1
 73
     0
 74
     5
  7

 75
    16
 76
     0
 77
     2
 78
   300
147
1.0
148
0.0
149
0.0
100
AcDbLayout
  1
Layout1
 70
     1
 71
     1
 10
0.0
 20
0.0
 11
420.0
 21
297.0
 12
0.0
 22
0.0
 32
0.0
 14
1.000000000000000E+20
 24
1.000000000000000E+20
 34
1.000000000000000E+20
 15
-1.000000000000000E+20
 25
-1.000000000000000E+20
 35
-1.000000000000000E+20
146
0.0
 13
0.0
 23
0.0
 33
0.0
 16
1.0
 26
0.0
 36
0.0
 17
0.0
 27
1.0
 37
0.0
 76
     0
330
1B
  0
LAYOUT
  5
26
102
{ACAD_REACTORS
330
1A
102
}
330
1A
100
AcDbPlotSettings
  1

  2
none_device
  4

  6

 40
0.0
 41
0.0
 42
0.0
 43
0.0
 44
0.0
 45
0.0
 46
0.0
 47
0.0
 48
0.0
 49
0.0
140
0.0
141
0.0
142
1.0
143
1.0
 70
   688
 72
     1
 73
     0
 74
     5
  7

 75
    16
 76
     0
 77
     2
 78
   300
147
1.0
148
0.0
149
0.0
100
AcDbLayout
  1
Layout2
 70
     1
 71
     2
 10
0.0
 20
0.0
 11
0.0
 21
0.0
 12
0.0
 22
0.0
 32
0.0
 14
0.0
 24
0.0
 34
0.0
 15
0.0
 25
0.0
 35
0.0
146
0.0
 13
0.0
 23
0.0
 33
0.0
 16
1.0
 26
0.0
 36
0.0
 17
0.0
 27
1.0
 37
0.0
 76
     0
330
23
  0
LAYOUT
  5
22
102
{ACAD_REACTORS
330
1A
102
}
330
1A
100
AcDbPlotSettings
  1

  2
none_device
  4
Letter_(8.50_x_11.00_Inches)
  6

 40
6.35
 41
6.35
 42
6.35000508
 43
6.35000508
 44
215.9
 45
279.4
 46
0.0
 47
0.0
 48
0.0
 49
0.0
140
0.0
141
0.0
142
1.0
143
1.0
 70
  1712
 72
     1
 73
     0
 74
     0
  7

 75
     0
 76
     0
 77
     2
 78
   300
147
1.0
148
0.0
149
0.0
100
AcDbLayout
  1
Model
 70
     1
 71
     0
 10
0.0
 20
0.0
 11
420.0
 21
297.0
 12
0.0
 22
0.0
 32
0.0
 14
-111.8953234563471
 24
0.0
 34
-60.5
 15
205.1728336909396
 25
296.99999999932
 35
66.49531617744076
146
0.0
 13
0.0
 23
0.0
 33
0.0
 16
1.0
 26
0.0
 36
0.0
 17
0.0
 27
1.0
 37
0.0
 76
     0
330
1F
331
29
  0
MATERIAL
  5
45
102
{ACAD_REACTORS
330
43
102
}
330
43
100
AcDbMaterial
  1
ByBlock
 72
     1
 94
      127
  0
MATERIAL
  5
44
102
{ACAD_REACTORS
330
43
102
}
330
43
100
AcDbMaterial
  1
ByLayer
 72
     1
 94
      127
  0
MATERIAL
  5
46
102
{ACAD_REACTORS
330
43
102
}
330
43
100
AcDbMaterial
  1
Global
 72
     1
 94
      127
  0
MLEADERSTYLE
  5
6C
102
{ACAD_REACTORS
330
6B
102
}
330
6B
100
AcDbMLeaderStyle
179
     2
170
     2
171
     1
172
     0
 90
        2
 40
0.0
 41
0.0
173
     1
 91
-1056964608
340
14
 92
       -2
290
     1
 42
2.0
291
     1
 43
8.0
  3
Standard
341
0
 44
4.0
300

342
11
174
     1
178
     6
175
     1
176
     0
 93
-1056964608
 45
4.0
292
     0
297
     0
 46
4.0
343
0
 94
-1056964608
 47
1.0
 49
1.0
140
1.0
293
     1
141
0.0
294
     1
177
     0
142
1.0
295
     0
296
     0
143
3.75
271
     0
272
     9
273
     9
298
     0
  0
MLINESTYLE
  5
18
102
{ACAD_REACTORS
330
17
102
}
330
17
100
AcDbMlineStyle
  2
Standard
 70
     0
  3

 62
   256
 51
90.0
 52
90.0
 71
     2
 49
0.5
 62
   256
  6
BYLAYER
 49
-0.5
 62
   256
  6
BYLAYER
  0
ACDBPLACEHOLDER
  5
F
102
{ACAD_REACTORS
330
E
102
}
330
E
  0
SCALE
  5
48
102
{ACAD_REACTORS
330
47
102
}
330
47
100
AcDbScale
 70
     0
300
1:1
140
1.0
141
1.0
290
     1
  0
SCALE
  5
49
102
{ACAD_REACTORS
330
47
102
}
330
47
100
AcDbScale
 70
     0
300
1:2
140
1.0
141
2.0
290
     0
  0
SCALE
  5
4A
102
{ACAD_REACTORS
330
47
102
}
330
47
100
AcDbScale
 70
     0
300
1:4
140
1.0
141
4.0
290
     0
  0
SCALE
  5
4B
102
{ACAD_REACTORS
330
47
102
}
330
47
100
AcDbScale
 70
     0
300
1:5
140
1.0
141
5.0
290
     0
  0
SCALE
  5
4C
102
{ACAD_REACTORS
330
47
102
}
330
47
100
AcDbScale
 70
     0
300
1:8
140
1.0
141
8.0
290
     0
  0
SCALE
  5
4D
102
{ACAD_REACTORS
330
47
102
}
330
47
100
AcDbScale
 70
     0
300
1:10
140
1.0
141
10.0
290
     0
  0
SCALE
  5
4E
102
{ACAD_REACTORS
330
47
102
}
330
47
100
AcDbScale
 70
     0
300
1:16
140
1.0
141
16.0
290
     0
  0
SCALE
  5
4F
102
{ACAD_REACTORS
330
47
102
}
330
47
100
AcDbScale
 70
     0
300
1:20
140
1.0
141
20.0
290
     0
  0
SCALE
  5
50
102
{ACAD_REACTORS
330
47
102
}
330
47
100
AcDbScale
 70
     0
300
1:30
140
1.0
141
30.0
290
     0
  0
SCALE
  5
51
102
{ACAD_REACTORS
330
47
102
}
330
47
100
AcDbScale
 70
     0
300
1:40
140
1.0
141
40.0
290
     0
  0
SCALE
  5
52
102
{ACAD_REACTORS
330
47
102
}
330
47
100
AcDbScale
 70
     0
300
1:50
140
1.0
141
50.0
290
     0
  0
SCALE
  5
53
102
{ACAD_REACTORS
330
47
102
}
330
47
100
AcDbScale
 70
     0
300
1:100
140
1.0
141
100.0
290
     0
  0
SCALE
  5
54
102
{ACAD_REACTORS
330
47
102
}
330
47
100
AcDbScale
 70
     0
300
2:1
140
2.0
141
1.0
290
     0
  0
SCALE
  5
55
102
{ACAD_REACTORS
330
47
102
}
330
47
100
AcDbScale
 70
     0
300
4:1
140
4.0
141
1.0
290
     0
  0
SCALE
  5
56
102
{ACAD_REACTORS
330
47
102
}
330
47
100
AcDbScale
 70
     0
300
8:1
140
8.0
141
1.0
290
     0
  0
SCALE
  5
57
102
{ACAD_REACTORS
330
47
102
}
330
47
100
AcDbScale
 70
     0
300
10:1
140
10.0
141
1.0
290
     0
  0
SCALE
  5
58
102
{ACAD_REACTORS
330
47
102
}
330
47
100
AcDbScale
 70
     0
300
100:1
140
100.0
141
1.0
290
     0
  0
SCALE
  5
59
102
{ACAD_REACTORS
330
47
102
}
330
47
100
AcDbScale
 70
     0
300
1/128" = 1'-0"
140
0.0078125
141
12.0
290
     0
  0
SCALE
  5
5A
102
{ACAD_REACTORS
330
47
102
}
330
47
100
AcDbScale
 70
     0
300
1/64" = 1'-0"
140
0.015625
141
12.0
290
     0
  0
SCALE
  5
5B
102
{ACAD_REACTORS
330
47
102
}
330
47
100
AcDbScale
 70
     0
300
1/32" = 1'-0"
140
0.03125
141
12.0
290
     0
  0
SCALE
  5
5C
102
{ACAD_REACTORS
330
47
102
}
330
47
100
AcDbScale
 70
     0
300
1/16" = 1'-0"
140
0.0625
141
12.0
290
     0
  0
SCALE
  5
5D
102
{ACAD_REACTORS
330
47
102
}
330
47
100
AcDbScale
 70
     0
300
3/32" = 1'-0"
140
0.09375
141
12.0
290
     0
  0
SCALE
  5
5E
102
{ACAD_REACTORS
330
47
102
}
330
47
100
AcDbScale
 70
     0
300
1/8" = 1'-0"
140
0.125
141
12.0
290
     0
  0
SCALE
  5
5F
102
{ACAD_REACTORS
330
47
102
}
330
47
100
AcDbScale
 70
     0
300
3/16" = 1'-0"
140
0.1875
141
12.0
290
     0
  0
SCALE
  5
60
102
{ACAD_REACTORS
330
47
102
}
330
47
100
AcDbScale
 70
     0
300
1/4" = 1'-0"
140
0.25
141
12.0
290
     0
  0
SCALE
  5
61
102
{ACAD_REACTORS
330
47
102
}
330
47
100
AcDbScale
 70
     0
300
3/8" = 1'-0"
140
0.375
141
12.0
290
     0
  0
SCALE
  5
62
102
{ACAD_REACTORS
330
47
102
}
330
47
100
AcDbScale
 70
     0
300
1/2" = 1'-0"
140
0.5
141
12.0
290
     0
  0
SCALE
  5
63
102
{ACAD_REACTORS
330
47
102
}
330
47
100
AcDbScale
 70
     0
300
3/4" = 1'-0"
140
0.75
141
12.0
290
     0
  0
SCALE
  5
64
102
{ACAD_REACTORS
330
47
102
}
330
47
100
AcDbScale
 70
     0
300
1" = 1'-0"
140
1.0
141
12.0
290
     0
  0
SCALE
  5
65
102
{ACAD_REACTORS
330
47
102
}
330
47
100
AcDbScale
 70
     0
300
1-1/2" = 1'-0"
140
1.5
141
12.0
290
     0
  0
SCALE
  5
66
102
{ACAD_REACTORS
330
47
102
}
330
47
100
AcDbScale
 70
     0
300
3" = 1'-0"
140
3.0
141
12.0
290
     0
  0
SCALE
  5
67
102
{ACAD_REACTORS
330
47
102
}
330
47
100
AcDbScale
 70
     0
300
6" = 1'-0"
140
6.0
141
12.0
290
     0
  0
SCALE
  5
68
102
{ACAD_REACTORS
330
47
102
}
330
47
100
AcDbScale
 70
     0
300
1'-0" = 1'-0"
140
12.0
141
12.0
290
     0
  0
TABLESTYLE
  5
6A
102
{ACAD_REACTORS
330
69
102
}
102
{ACAD_XDICTIONARY
360
4AE
102
}
330
69
100
AcDbTableStyle
  3
Standard
 70
     0
 71
     0
 40
0.06
 41
0.06
280
     0
281
     0
  7
Standard
140
4.5
170
     2
 62
     0
 63
   257
283
     0
 90
        4
 91
        0
  1

274
    -2
284
     1
 64
     0
275
    -2
285
     1
 65
     0
276
    -2
286
     1
 66
     0
277
    -2
287
     1
 67
     0
278
    -2
288
     1
 68
     0
279
    -2
289
     1
 69
     0
  7
Standard
140
6.0
170
     5
 62
     0
 63
   257
283
     0
 90
        4
 91
        0
  1

274
    -2
284
     1
 64
     0
275
    -2
285
     1
 65
     0
276
    -2
286
     1
 66
     0
277
    -2
287
     1
 67
     0
278
    -2
288
     1
 68
     0
279
    -2
289
     1
 69
     0
  7
Standard
140
4.5
170
     5
 62
     0
 63
   257
283
     0
 90
        4
 91
        0
  1

274
    -2
284
     1
 64
     0
275
    -2
285
     1
 65
     0
276
    -2
286
     1
 66
     0
277
    -2
287
     1
 67
     0
278
    -2
288
     1
 68
     0
279
    -2
289
     1
 69
     0
  0
VISUALSTYLE
  5
2F
102
{ACAD_REACTORS
330
2A
102
}
330
2A
100
AcDbVisualStyle
  2
2dWireframe
 70
     4
177
     3
291
     0
 70
    58
 90
        0
176
     1
 90
        2
176
     1
 90
        0
176
     1
 90
        0
176
     1
 40
0.6
176
     1
 40
30.0
176
     1
 62
     7
420
 16777215
176
     1
 90
        1
176
     1
 90
        4
176
     1
 62
     7
176
     1
 62
   257
176
     1
 90
        1
176
     1
 90
        1
176
     1
 40
1.0
176
     1
 90
        0
176
     1
 62
   257
176
     1
 40
1.0
176
     1
 90
        1
176
     1
 90
        6
176
     1
 90
        2
176
     1
 62
     7
176
     1
 90
        5
176
     1
 90
        0
176
     1
 90
        0
176
     1
290
     0
176
     1
 90
        1
176
     1
 40
0.0
176
     1
 90
        0
176
     1
290
     1
176
     1
290
     1
176
     1
290
     0
176
     1
290
     0
176
     1
290
     0
176
     1
290
     0
176
     1
290
     0
176
     1
290
     0
176
     1
290
     0
176
     1
 90
       50
176
     1
 40
0.0
176
     1
 40
1.0
176
     1
 90
        0
176
     1
 62
    18
420
        0
176
     1
 90
       50
176
     1
 90
        3
176
     1
 62
     5
420
      255
176
     1
290
     0
176
     1
 90
       50
176
     1
 90
       50
176
     1
 90
       50
176
     1
290
     0
176
     1
 90
       50
176
     1
 62
   256
176
     0
 40
1.0
176
     0
 90
        2
176
     1
  1
strokes_ogs.tif
176
     1
290
     0
176
     1
 40
1.0
176
     1
 40
1.0
176
     1
  0
VISUALSTYLE
  5
32
102
{ACAD_REACTORS
330
2A
102
}
330
2A
100
AcDbVisualStyle
  2
Basic
 70
     7
177
     3
291
     1
 70
    58
 90
        1
176
     1
 90
        0
176
     1
 90
        1
176
     1
 90
        0
176
     1
 40
0.6
176
     1
 40
30.0
176
     1
 62
     7
420
 16777215
176
     1
 90
        0
176
     1
 90
        4
176
     1
 62
     7
176
     1
 62
   257
176
     1
 90
        1
176
     1
 90
        1
176
     1
 40
1.0
176
     1
 90
        8
176
     1
 62
     7
176
     1
 40
1.0
176
     1
 90
        1
176
     1
 90
        6
176
     1
 90
        2
176
     1
 62
     7
176
     1
 90
        5
176
     1
 90
        0
176
     1
 90
        0
176
     1
290
     0
176
     1
 90
        1
176
     1
 40
0.0
176
     1
 90
        0
176
     1
290
     0
176
     1
290
     1
176
     1
290
     1
176
     1
290
     0
176
     1
290
     0
176
     1
290
     0
176
     1
290
     0
176
     1
290
     0
176
     1
290
     0
176
     1
 90
       50
176
     1
 40
0.0
176
     1
 40
1.0
176
     1
 90
        0
176
     1
 62
    18
420
        0
176
     1
 90
       50
176
     1
 90
        3
176
     1
 62
     5
420
      255
176
     1
290
     0
176
     1
 90
       50
176
     1
 90
       50
176
     1
 90
       50
176
     1
290
     0
176
     1
 90
       50
176
     1
 62
   256
176
     0
 40
1.0
176
     0
 90
        2
176
     1
  1
strokes_ogs.tif
176
     1
290
     0
176
     1
 40
1.0
176
     1
 40
1.0
176
     1
  0
VISUALSTYLE
  5
36
102
{ACAD_REACTORS
330
2A
102
}
330
2A
100
AcDbVisualStyle
  2
Brighten
 70
    12
177
     3
291
     1
 70
    58
 90
        2
176
     1
 90
        2
176
     1
 90
        0
176
     1
 90
        0
176
     1
 40
0.6
176
     1
 40
30.0
176
     1
 62
     7
420
 16777215
176
     1
 90
        1
176
     1
 90
        4
176
     1
 62
     7
176
     1
 62
   257
176
     1
 90
        1
176
     1
 90
        1
176
     1
 40
1.0
176
     1
 90
        8
176
     1
 62
     7
176
     1
 40
1.0
176
     1
 90
        1
176
     1
 90
        6
176
     1
 90
        2
176
     1
 62
     7
176
     1
 90
        5
176
     1
 90
        0
176
     1
 90
        0
176
     1
290
     0
176
     1
 90
        1
176
     1
 40
50.0
176
     1
 90
        0
176
     1
290
     0
176
     1
290
     1
176
     1
290
     1
176
     1
290
     0
176
     1
290
     0
176
     1
290
     0
176
     1
290
     0
176
     1
290
     0
176
     1
290
     0
176
     1
 90
       50
176
     1
 40
0.0
176
     1
 40
1.0
176
     1
 90
        0
176
     1
 62
    18
420
        0
176
     1
 90
       50
176
     1
 90
        3
176
     1
 62
     5
420
      255
176
     1
290
     0
176
     1
 90
       50
176
     1
 90
       50
176
     1
 90
       50
176
     1
290
     0
176
     1
 90
       50
176
     1
 62
   256
176
     0
 40
1.0
176
     0
 90
        2
176
     1
  1
strokes_ogs.tif
176
     1
290
     0
176
     1
 40
1.0
176
     1
 40
1.0
176
     1
  0
VISUALSTYLE
  5
3A
102
{ACAD_REACTORS
330
2A
102
}
330
2A
100
AcDbVisualStyle
  2
ColorChange
 70
    16
177
     3
291
     1
 70
    58
 90
        2
176
     1
 90
        2
176
     1
 90
        3
176
     1
 90
        0
176
     1
 40
0.6
176
     1
 40
30.0
176
     1
 62
     8
420
  8421504
176
     1
 90
        1
176
     1
 90
        4
176
     1
 62
     7
176
     1
 62
   257
176
     1
 90
        1
176
     1
 90
        1
176
     1
 40
1.0
176
     1
 90
        8
176
     1
 62
     8
420
  8421504
176
     1
 40
1.0
176
     1
 90
        1
176
     1
 90
        6
176
     1
 90
        2
176
     1
 62
     7
176
     1
 90
        5
176
     1
 90
        0
176
     1
 90
        0
176
     1
290
     0
176
     1
 90
        1
176
     1
 40
0.0
176
     1
 90
        0
176
     1
290
     0
176
     1
290
     1
176
     1
290
     1
176
     1
290
     0
176
     1
290
     0
176
     1
290
     0
176
     1
290
     0
176
     1
290
     0
176
     1
290
     0
176
     1
 90
       50
176
     1
 40
0.0
176
     1
 40
1.0
176
     1
 90
        0
176
     1
 62
    18
420
        0
176
     1
 90
       50
176
     1
 90
        3
176
     1
 62
     5
420
      255
176
     1
290
     0
176
     1
 90
       50
176
     1
 90
       50
176
     1
 90
       50
176
     1
290
     0
176
     1
 90
       50
176
     1
 62
   256
176
     0
 40
1.0
176
     0
 90
        2
176
     1
  1
strokes_ogs.tif
176
     1
290
     0
176
     1
 40
1.0
176
     1
 40
1.0
176
     1
  0
VISUALSTYLE
  5
34
102
{ACAD_REACTORS
330
2A
102
}
330
2A
100
AcDbVisualStyle
  2
Conceptual
 70
     9
177
     3
291
     0
 70
    58
 90
        3
176
     1
 90
        2
176
     1
 90
        0
176
     1
 90
        0
176
     1
 40
0.6
176
     1
 40
30.0
176
     1
 62
     7
420
 16777215
176
     1
 90
        2
176
     1
 90
        2
176
     1
 62
     7
176
     1
 62
   257
176
     1
 90
        1
176
     1
 90
        1
176
     1
 40
179.0
176
     1
 90
        8
176
     1
 62
     7
176
     1
 40
1.0
176
     1
 90
        1
176
     1
 90
        6
176
     1
 90
        2
176
     1
 62
     7
176
     1
 90
        3
176
     1
 90
        0
176
     1
 90
        0
176
     1
290
     0
176
     1
 90
        1
176
     1
 40
0.0
176
     1
 90
        0
176
     1
290
     0
176
     1
290
     1
176
     1
290
     1
176
     1
290
     0
176
     1
290
     0
176
     1
290
     0
176
     1
290
     0
176
     1
290
     0
176
     1
290
     0
176
     1
 90
       50
176
     1
 40
0.0
176
     1
 40
1.0
176
     1
 90
        0
176
     1
 62
    18
420
        0
176
     1
 90
       50
176
     1
 90
        3
176
     1
 62
     5
420
      255
176
     1
290
     0
176
     1
 90
       50
176
     1
 90
       50
176
     1
 90
       50
176
     1
290
     0
176
     1
 90
       50
176
     1
 62
   256
176
     0
 40
1.0
176
     0
 90
        2
176
     1
  1
strokes_ogs.tif
176
     1
290
     0
176
     1
 40
1.0
176
     1
 40
1.0
176
     1
  0
VISUALSTYLE
  5
35
102
{ACAD_REACTORS
330
2A
102
}
330
2A
100
AcDbVisualStyle
  2
Dim
 70
    11
177
     3
291
     1
 70
    58
 90
        2
176
     1
 90
        2
176
     1
 90
        0
176
     1
 90
        0
176
     1
 40
0.6
176
     1
 40
30.0
176
     1
 62
     7
420
 16777215
176
     1
 90
        1
176
     1
 90
        4
176
     1
 62
     7
176
     1
 62
   257
176
     1
 90
        1
176
     1
 90
        1
176
     1
 40
1.0
176
     1
 90
        8
176
     1
 62
     7
176
     1
 40
1.0
176
     1
 90
        1
176
     1
 90
        6
176
     1
 90
        2
176
     1
 62
     7
176
     1
 90
        5
176
     1
 90
        0
176
     1
 90
        0
176
     1
290
     0
176
     1
 90
        1
176
     1
 40
-50.0
176
     1
 90
        0
176
     1
290
     0
176
     1
290
     1
176
     1
290
     1
176
     1
290
     0
176
     1
290
     0
176
     1
290
     0
176
     1
290
     0
176
     1
290
     0
176
     1
290
     0
176
     1
 90
       50
176
     1
 40
0.0
176
     1
 40
1.0
176
     1
 90
        0
176
     1
 62
    18
420
        0
176
     1
 90
       50
176
     1
 90
        3
176
     1
 62
     5
420
      255
176
     1
290
     0
176
     1
 90
       50
176
     1
 90
       50
176
     1
 90
       50
176
     1
290
     0
176
     1
 90
       50
176
     1
 62
   256
176
     0
 40
1.0
176
     0
 90
        2
176
     1
  1
strokes_ogs.tif
176
     1
290
     0
176
     1
 40
1.0
176
     1
 40
1.0
176
     1
  0
VISUALSTYLE
  5
3D
102
{ACAD_REACTORS
330
2A
102
}
330
2A
100
AcDbVisualStyle
  2
EdgeColorOff
 70
    22
177
     3
291
     1
 70
    58
 90
        2
176
     0
 90
        2
176
     0
 90
        0
176
     0
 90
        0
176
     0
 40
0.6
176
     0
 40
30.0
176
     0
 62
     7
420
 16777215
176
     0
 90
        1
176
     0
 90
        4
176
     0
 62
     7
176
     0
 62
   257
176
     0
 90
        1
176
     0
 90
        1
176
     0
 40
1.0
176
     0
 90
        8
176
     2
 62
     7
176
     0
 40
1.0
176
     0
 90
        1
176
     0
 90
        6
176
     0
 90
        2
176
     0
 62
     7
176
     0
 90
        5
176
     0
 90
        0
176
     0
 90
        0
176
     0
290
     0
176
     0
 90
        1
176
     0
 40
0.0
176
     0
 90
        0
176
     0
290
     0
176
     0
290
     1
176
     0
290
     1
176
     0
290
     0
176
     0
290
     0
176
     0
290
     0
176
     0
290
     0
176
     0
290
     0
176
     0
290
     0
176
     0
 90
       50
176
     0
 40
0.0
176
     0
 40
1.0
176
     0
 90
        0
176
     0
 62
    18
420
        0
176
     0
 90
       50
176
     0
 90
        3
176
     0
 62
     5
420
      255
176
     0
290
     0
176
     0
 90
       50
176
     0
 90
       50
176
     0
 90
       50
176
     0
290
     0
176
     0
 90
       50
176
     0
 62
   256
176
     0
 40
1.0
176
     0
 90
        2
176
     0
  1
strokes_ogs.tif
176
     0
290
     0
176
     0
 40
1.0
176
     0
 40
1.0
176
     0
  0
VISUALSTYLE
  5
39
102
{ACAD_REACTORS
330
2A
102
}
330
2A
100
AcDbVisualStyle
  2
Facepattern
 70
    15
177
     3
291
     1
 70
    58
 90
        2
176
     1
 90
        2
176
     1
 90
        0
176
     1
 90
        0
176
     1
 40
0.6
176
     1
 40
30.0
176
     1
 62
     7
420
 16777215
176
     1
 90
        1
176
     1
 90
        4
176
     1
 62
     7
176
     1
 62
   257
176
     1
 90
        1
176
     1
 90
        1
176
     1
 40
1.0
176
     1
 90
        8
176
     1
 62
     7
176
     1
 40
1.0
176
     1
 90
        1
176
     1
 90
        6
176
     1
 90
        2
176
     1
 62
     7
176
     1
 90
        5
176
     1
 90
        0
176
     1
 90
        0
176
     1
290
     0
176
     1
 90
        1
176
     1
 40
0.0
176
     1
 90
        0
176
     1
290
     0
176
     1
290
     1
176
     1
290
     1
176
     1
290
     0
176
     1
290
     0
176
     1
290
     0
176
     1
290
     0
176
     1
290
     0
176
     1
290
     0
176
     1
 90
       50
176
     1
 40
0.0
176
     1
 40
1.0
176
     1
 90
        0
176
     1
 62
    18
420
        0
176
     1
 90
       50
176
     1
 90
        3
176
     1
 62
     5
420
      255
176
     1
290
     0
176
     1
 90
       50
176
     1
 90
       50
176
     1
 90
       50
176
     1
290
     0
176
     1
 90
       50
176
     1
 62
   256
176
     0
 40
1.0
176
     0
 90
        2
176
     1
  1
strokes_ogs.tif
176
     1
290
     0
176
     1
 40
1.0
176
     1
 40
1.0
176
     1
  0
VISUALSTYLE
  5
2B
102
{ACAD_REACTORS
330
2A
102
}
330
2A
100
AcDbVisualStyle
  2
Flat
 70
     0
177
     3
291
     1
 70
    58
 90
        2
176
     1
 90
        1
176
     1
 90
        1
176
     1
 90
        2
176
     1
 40
0.6
176
     1
 40
30.0
176
     1
 62
     7
420
 16777215
176
     1
 90
        0
176
     1
 90
        0
176
     1
 62
     7
176
     1
 62
   257
176
     1
 90
        1
176
     1
 90
        1
176
     1
 40
1.0
176
     1
 90
        8
176
     1
 62
     7
176
     1
 40
1.0
176
     1
 90
        1
176
     1
 90
        6
176
     1
 90
        2
176
     1
 62
     7
176
     1
 90
        5
176
     1
 90
        0
176
     1
 90
        0
176
     1
290
     0
176
     1
 90
       13
176
     1
 40
0.0
176
     1
 90
        0
176
     1
290
     0
176
     1
290
     1
176
     1
290
     1
176
     1
290
     0
176
     1
290
     0
176
     1
290
     0
176
     1
290
     0
176
     1
290
     0
176
     1
290
     0
176
     1
 90
       50
176
     1
 40
0.0
176
     1
 40
1.0
176
     1
 90
        0
176
     1
 62
    18
420
        0
176
     1
 90
       50
176
     1
 90
        3
176
     1
 62
     5
420
      255
176
     1
290
     0
176
     1
 90
       50
176
     1
 90
       50
176
     1
 90
       50
176
     1
290
     0
176
     1
 90
       50
176
     1
 62
   256
176
     0
 40
1.0
176
     0
 90
        2
176
     1
  1
strokes_ogs.tif
176
     1
290
     0
176
     1
 40
1.0
176
     1
 40
1.0
176
     1
  0
VISUALSTYLE
  5
2C
102
{ACAD_REACTORS
330
2A
102
}
330
2A
100
AcDbVisualStyle
  2
FlatWithEdges
 70
     1
177
     3
291
     1
 70
    58
 90
        2
176
     1
 90
        1
176
     1
 90
        1
176
     1
 90
        2
176
     1
 40
0.6
176
     1
 40
30.0
176
     1
 62
     7
420
 16777215
176
     1
 90
        1
176
     1
 90
        0
176
     1
 62
     7
176
     1
 62
   257
176
     1
 90
        1
176
     1
 90
        1
176
     1
 40
1.0
176
     1
 90
        0
176
     1
 62
   257
176
     1
 40
1.0
176
     1
 90
        1
176
     1
 90
        6
176
     1
 90
        2
176
     1
 62
     7
176
     1
 90
        5
176
     1
 90
        0
176
     1
 90
        0
176
     1
290
     0
176
     1
 90
       13
176
     1
 40
0.0
176
     1
 90
        0
176
     1
290
     0
176
     1
290
     1
176
     1
290
     1
176
     1
290
     0
176
     1
290
     0
176
     1
290
     0
176
     1
290
     0
176
     1
290
     0
176
     1
290
     0
176
     1
 90
       50
176
     1
 40
0.0
176
     1
 40
1.0
176
     1
 90
        0
176
     1
 62
    18
420
        0
176
     1
 90
       50
176
     1
 90
        3
176
     1
 62
     5
420
      255
176
     1
290
     0
176
     1
 90
       50
176
     1
 90
       50
176
     1
 90
       50
176
     1
290
     0
176
     1
 90
       50
176
     1
 62
   256
176
     0
 40
1.0
176
     0
 90
        2
176
     1
  1
strokes_ogs.tif
176
     1
290
     0
176
     1
 40
1.0
176
     1
 40
1.0
176
     1
  0
VISUALSTYLE
  5
2D
102
{ACAD_REACTORS
330
2A
102
}
330
2A
100
AcDbVisualStyle
  2
Gouraud
 70
     2
177
     3
291
     1
 70
    58
 90
        2
176
     1
 90
        2
176
     1
 90
        1
176
     1
 90
        2
176
     1
 40
0.6
176
     1
 40
30.0
176
     1
 62
     7
420
 16777215
176
     1
 90
        0
176
     1
 90
        0
176
     1
 62
     7
176
     1
 62
   257
176
     1
 90
        1
176
     1
 90
        1
176
     1
 40
1.0
176
     1
 90
        0
176
     1
 62
     7
176
     1
 40
1.0
176
     1
 90
        1
176
     1
 90
        6
176
     1
 90
        2
176
     1
 62
     7
176
     1
 90
        5
176
     1
 90
        0
176
     1
 90
        0
176
     1
290
     0
176
     1
 90
       13
176
     1
 40
0.0
176
     1
 90
        0
176
     1
290
     0
176
     1
290
     1
176
     1
290
     1
176
     1
290
     0
176
     1
290
     0
176
     1
290
     0
176
     1
290
     0
176
     1
290
     0
176
     1
290
     0
176
     1
 90
       50
176
     1
 40
0.0
176
     1
 40
1.0
176
     1
 90
        0
176
     1
 62
    18
420
        0
176
     1
 90
       50
176
     1
 90
        3
176
     1
 62
     5
420
      255
176
     1
290
     0
176
     1
 90
       50
176
     1
 90
       50
176
     1
 90
       50
176
     1
290
     0
176
     1
 90
       50
176
     1
 62
   256
176
     0
 40
1.0
176
     0
 90
        2
176
     1
  1
strokes_ogs.tif
176
     1
290
     0
176
     1
 40
1.0
176
     1
 40
1.0
176
     1
  0
VISUALSTYLE
  5
2E
102
{ACAD_REACTORS
330
2A
102
}
330
2A
100
AcDbVisualStyle
  2
GouraudWithEdges
 70
     3
177
     3
291
     1
 70
    58
 90
        2
176
     1
 90
        2
176
     1
 90
        1
176
     1
 90
        2
176
     1
 40
0.6
176
     1
 40
30.0
176
     1
 62
     7
420
 16777215
176
     1
 90
        1
176
     1
 90
        0
176
     1
 62
     7
176
     1
 62
   257
176
     1
 90
        1
176
     1
 90
        1
176
     1
 40
1.0
176
     1
 90
        0
176
     1
 62
   257
176
     1
 40
1.0
176
     1
 90
        1
176
     1
 90
        6
176
     1
 90
        2
176
     1
 62
     7
176
     1
 90
        5
176
     1
 90
        0
176
     1
 90
        0
176
     1
290
     0
176
     1
 90
       13
176
     1
 40
0.0
176
     1
 90
        0
176
     1
290
     0
176
     1
290
     1
176
     1
290
     1
176
     1
290
     0
176
     1
290
     0
176
     1
290
     0
176
     1
290
     0
176
     1
290
     0
176
     1
290
     0
176
     1
 90
       50
176
     1
 40
0.0
176
     1
 40
1.0
176
     1
 90
        0
176
     1
 62
    18
420
        0
176
     1
 90
       50
176
     1
 90
        3
176
     1
 62
     5
420
      255
176
     1
290
     0
176
     1
 90
       50
176
     1
 90
       50
176
     1
 90
       50
176
     1
290
     0
176
     1
 90
       50
176
     1
 62
   256
176
     0
 40
1.0
176
     0
 90
        2
176
     1
  1
strokes_ogs.tif
176
     1
290
     0
176
     1
 40
1.0
176
     1
 40
1.0
176
     1
  0
VISUALSTYLE
  5
31
102
{ACAD_REACTORS
330
2A
102
}
330
2A
100
AcDbVisualStyle
  2
Hidden
 70
     6
177
     3
291
     0
 70
    58
 90
        1
176
     1
 90
        2
176
     1
 90
        2
176
     1
 90
        0
176
     1
 40
0.6
176
     1
 40
30.0
176
     1
 62
     7
420
 16777215
176
     1
 90
        2
176
     1
 90
        2
176
     1
 62
     7
176
     1
 62
   257
176
     1
 90
        2
176
     1
 90
        1
176
     1
 40
40.0
176
     1
 90
        0
176
     1
 62
   257
176
     1
 40
1.0
176
     1
 90
        1
176
     1
 90
        6
176
     1
 90
        2
176
     1
 62
     7
176
     1
 90
        3
176
     1
 90
        0
176
     1
 90
        0
176
     1
290
     0
176
     1
 90
        1
176
     1
 40
0.0
176
     1
 90
        0
176
     1
290
     0
176
     1
290
     1
176
     1
290
     1
176
     1
290
     0
176
     1
290
     0
176
     1
290
     0
176
     1
290
     0
176
     1
290
     0
176
     1
290
     0
176
     1
 90
       50
176
     1
 40
0.0
176
     1
 40
1.0
176
     1
 90
        0
176
     1
 62
    18
420
        0
176
     1
 90
       50
176
     1
 90
        3
176
     1
 62
     5
420
      255
176
     1
290
     0
176
     1
 90
       50
176
     1
 90
       50
176
     1
 90
       50
176
     1
290
     0
176
     1
 90
       50
176
     1
 62
   256
176
     0
 40
1.0
176
     0
 90
        2
176
     1
  1
strokes_ogs.tif
176
     1
290
     0
176
     1
 40
1.0
176
     1
 40
1.0
176
     1
  0
VISUALSTYLE
  5
3B
102
{ACAD_REACTORS
330
2A
102
}
330
2A
100
AcDbVisualStyle
  2
JitterOff
 70
    20
177
     3
291
     1
 70
    58
 90
        2
176
     0
 90
        2
176
     0
 90
        0
176
     0
 90
        0
176
     0
 40
0.6
176
     0
 40
30.0
176
     0
 62
     7
420
 16777215
176
     0
 90
        1
176
     0
 90
        4
176
     0
 62
     7
176
     0
 62
   257
176
     0
 90
        1
176
     0
 90
        1
176
     0
 40
1.0
176
     0
 90
       10
176
     2
 62
     7
176
     0
 40
1.0
176
     0
 90
        1
176
     0
 90
        6
176
     0
 90
        2
176
     0
 62
     7
176
     0
 90
        5
176
     0
 90
        0
176
     0
 90
        0
176
     0
290
     0
176
     0
 90
        1
176
     0
 40
0.0
176
     0
 90
        0
176
     0
290
     0
176
     0
290
     1
176
     0
290
     1
176
     0
290
     0
176
     0
290
     0
176
     0
290
     0
176
     0
290
     0
176
     0
290
     0
176
     0
290
     0
176
     0
 90
       50
176
     0
 40
0.0
176
     0
 40
1.0
176
     0
 90
        0
176
     0
 62
    18
420
        0
176
     0
 90
       50
176
     0
 90
        3
176
     0
 62
     5
420
      255
176
     0
290
     0
176
     0
 90
       50
176
     0
 90
       50
176
     0
 90
       50
176
     0
290
     0
176
     0
 90
       50
176
     0
 62
   256
176
     0
 40
1.0
176
     0
 90
        2
176
     0
  1
strokes_ogs.tif
176
     0
290
     0
176
     0
 40
1.0
176
     0
 40
1.0
176
     0
  0
VISUALSTYLE
  5
38
102
{ACAD_REACTORS
330
2A
102
}
330
2A
100
AcDbVisualStyle
  2
Linepattern
 70
    14
177
     3
291
     1
 70
    58
 90
        2
176
     1
 90
        2
176
     1
 90
        0
176
     1
 90
        0
176
     1
 40
0.6
176
     1
 40
30.0
176
     1
 62
     7
420
 16777215
176
     1
 90
        1
176
     1
 90
        4
176
     1
 62
     7
176
     1
 62
   257
176
     1
 90
        7
176
     1
 90
        7
176
     1
 40
1.0
176
     1
 90
        8
176
     1
 62
     7
176
     1
 40
1.0
176
     1
 90
        1
176
     1
 90
        6
176
     1
 90
        2
176
     1
 62
     7
176
     1
 90
        5
176
     1
 90
        0
176
     1
 90
        0
176
     1
290
     0
176
     1
 90
        1
176
     1
 40
0.0
176
     1
 90
        0
176
     1
290
     0
176
     1
290
     1
176
     1
290
     1
176
     1
290
     0
176
     1
290
     0
176
     1
290
     0
176
     1
290
     0
176
     1
290
     0
176
     1
290
     0
176
     1
 90
       50
176
     1
 40
0.0
176
     1
 40
1.0
176
     1
 90
        0
176
     1
 62
    18
420
        0
176
     1
 90
       50
176
     1
 90
        3
176
     1
 62
     5
420
      255
176
     1
290
     0
176
     1
 90
       50
176
     1
 90
       50
176
     1
 90
       50
176
     1
290
     0
176
     1
 90
       50
176
     1
 62
   256
176
     0
 40
1.0
176
     0
 90
        2
176
     1
  1
strokes_ogs.tif
176
     1
290
     0
176
     1
 40
1.0
176
     1
 40
1.0
176
     1
  0
VISUALSTYLE
  5
3C
102
{ACAD_REACTORS
330
2A
102
}
330
2A
100
AcDbVisualStyle
  2
OverhangOff
 70
    21
177
     3
291
     1
 70
    58
 90
        2
176
     0
 90
        2
176
     0
 90
        0
176
     0
 90
        0
176
     0
 40
0.6
176
     0
 40
30.0
176
     0
 62
     7
420
 16777215
176
     0
 90
        1
176
     0
 90
        4
176
     0
 62
     7
176
     0
 62
   257
176
     0
 90
        1
176
     0
 90
        1
176
     0
 40
1.0
176
     0
 90
        9
176
     2
 62
     7
176
     0
 40
1.0
176
     0
 90
        1
176
     0
 90
        6
176
     0
 90
        2
176
     0
 62
     7
176
     0
 90
        5
176
     0
 90
        0
176
     0
 90
        0
176
     0
290
     0
176
     0
 90
        1
176
     0
 40
0.0
176
     0
 90
        0
176
     0
290
     0
176
     0
290
     1
176
     0
290
     1
176
     0
290
     0
176
     0
290
     0
176
     0
290
     0
176
     0
290
     0
176
     0
290
     0
176
     0
290
     0
176
     0
 90
       50
176
     0
 40
0.0
176
     0
 40
1.0
176
     0
 90
        0
176
     0
 62
    18
420
        0
176
     0
 90
       50
176
     0
 90
        3
176
     0
 62
     5
420
      255
176
     0
290
     0
176
     0
 90
       50
176
     0
 90
       50
176
     0
 90
       50
176
     0
290
     0
176
     0
 90
       50
176
     0
 62
   256
176
     0
 40
1.0
176
     0
 90
        2
176
     0
  1
strokes_ogs.tif
176
     0
290
     0
176
     0
 40
1.0
176
     0
 40
1.0
176
     0
  0
VISUALSTYLE
  5
33
102
{ACAD_REACTORS
330
2A
102
}
330
2A
100
AcDbVisualStyle
  2
Realistic
 70
     8
177
     3
291
     0
 70
    58
 90
        2
176
     1
 90
        3
176
     1
 90
        0
176
     1
 90
        2
176
     1
 40
0.6
176
     1
 40
30.0
176
     1
 62
     7
420
 16777215
176
     1
 90
        0
176
     1
 90
        0
176
     1
 62
     7
176
     1
 62
   257
176
     1
 90
        1
176
     1
 90
        1
176
     1
 40
1.0
176
     1
 90
        8
176
     1
 62
   257
176
     1
 40
1.0
176
     1
 90
        1
176
     1
 90
        6
176
     1
 90
        2
176
     1
 62
     7
176
     1
 90
        3
176
     1
 90
        0
176
     1
 90
        0
176
     1
290
     0
176
     1
 90
       13
176
     1
 40
0.0
176
     1
 90
        0
176
     1
290
     0
176
     1
290
     1
176
     1
290
     1
176
     1
290
     0
176
     1
290
     0
176
     1
290
     0
176
     1
290
     0
176
     1
290
     0
176
     1
290
     0
176
     1
 90
       50
176
     1
 40
0.0
176
     1
 40
1.0
176
     1
 90
        0
176
     1
 62
    18
420
        0
176
     1
 90
       50
176
     1
 90
        3
176
     1
 62
     5
420
      255
176
     1
290
     0
176
     1
 90
       50
176
     1
 90
       50
176
     1
 90
       50
176
     1
290
     0
176
     1
 90
       50
176
     1
 62
   256
176
     0
 40
1.0
176
     0
 90
        2
176
     1
  1
strokes_ogs.tif
176
     1
290
     0
176
     1
 40
1.0
176
     1
 40
1.0
176
     1
  0
VISUALSTYLE
  5
42
102
{ACAD_REACTORS
330
2A
102
}
330
2A
100
AcDbVisualStyle
  2
Shaded
 70
    27
177
     3
291
     0
 70
    58
 90
        2
176
     1
 90
        2
176
     1
 90
        1
176
     1
 90
        2
176
     1
 40
0.6
176
     1
 40
30.0
176
     1
 62
     7
420
 16777215
176
     1
 90
        0
176
     1
 90
        4
176
     1
 62
     7
176
     1
 62
   257
176
     1
 90
        1
176
     1
 90
        1
176
     1
 40
1.0
176
     1
 90
        8
176
     1
 62
   257
176
     1
 40
1.0
176
     1
 90
        1
176
     1
 90
        6
176
     1
 90
        2
176
     1
 62
     8
420
  7895160
176
     1
 90
        3
176
     1
 90
        0
176
     1
 90
        0
176
     1
290
     0
176
     1
 90
        5
176
     1
 40
0.0
176
     1
 90
        0
176
     1
290
     0
176
     1
290
     1
176
     1
290
     1
176
     1
290
     0
176
     1
290
     0
176
     1
290
     0
176
     1
290
     0
176
     1
290
     0
176
     1
290
     0
176
     1
 90
       50
176
     1
 40
0.0
176
     1
 40
1.0
176
     1
 90
        0
176
     1
 62
    18
420
        0
176
     1
 90
       50
176
     1
 90
        3
176
     1
 62
     5
420
      255
176
     1
290
     0
176
     1
 90
       50
176
     1
 90
       50
176
     1
 90
       50
176
     1
290
     0
176
     1
 90
       50
176
     1
 62
   256
176
     0
 40
1.0
176
     0
 90
        2
176
     1
  1
strokes_ogs.tif
176
     1
290
     0
176
     1
 40
1.0
176
     1
 40
1.0
176
     1
  0
VISUALSTYLE
  5
41
102
{ACAD_REACTORS
330
2A
102
}
330
2A
100
AcDbVisualStyle
  2
Shaded with edges
 70
    26
177
     3
291
     0
 70
    58
 90
        2
176
     1
 90
        2
176
     1
 90
        1
176
     1
 90
        2
176
     1
 40
0.6
176
     1
 40
30.0
176
     1
 62
     7
420
 16777215
176
     1
 90
        1
176
     1
 90
       10
176
     1
 62
     7
176
     1
 62
   257
176
     1
 90
        2
176
     1
 90
        1
176
     1
 40
1.0
176
     1
 90
        8
176
     1
 62
   257
176
     1
 40
1.0
176
     1
 90
        1
176
     1
 90
        6
176
     1
 90
        2
176
     1
 62
     7
176
     1
 90
        3
176
     1
 90
        0
176
     1
 90
        0
176
     1
290
     0
176
     1
 90
        5
176
     1
 40
0.0
176
     1
 90
        0
176
     1
290
     0
176
     1
290
     1
176
     1
290
     1
176
     1
290
     0
176
     1
290
     0
176
     1
290
     0
176
     1
290
     0
176
     1
290
     0
176
     1
290
     0
176
     1
 90
       50
176
     1
 40
0.0
176
     1
 40
1.0
176
     1
 90
        0
176
     1
 62
    18
420
        0
176
     1
 90
       50
176
     1
 90
        3
176
     1
 62
     5
420
      255
176
     1
290
     0
176
     1
 90
       50
176
     1
 90
       50
176
     1
 90
       50
176
     1
290
     0
176
     1
 90
       50
176
     1
 62
   256
176
     0
 40
1.0
176
     0
 90
        2
176
     1
  1
strokes_ogs.tif
176
     1
290
     0
176
     1
 40
1.0
176
     1
 40
1.0
176
     1
  0
VISUALSTYLE
  5
3E
102
{ACAD_REACTORS
330
2A
102
}
330
2A
100
AcDbVisualStyle
  2
Shades of Gray
 70
    23
177
     3
291
     0
 70
    58
 90
        2
176
     1
 90
        2
176
     1
 90
        3
176
     1
 90
        0
176
     1
 40
0.6
176
     1
 40
30.0
176
     1
 62
     7
420
 16777215
176
     1
 90
        2
176
     1
 90
        2
176
     1
 62
     7
176
     1
 62
     7
176
     1
 90
        1
176
     1
 90
        1
176
     1
 40
40.0
176
     1
 90
        8
176
     1
 62
     7
176
     1
 40
1.0
176
     1
 90
        1
176
     1
 90
        6
176
     1
 90
        2
176
     1
 62
     7
176
     1
 90
        3
176
     1
 90
        0
176
     1
 90
        0
176
     1
290
     0
176
     1
 90
        1
176
     1
 40
0.0
176
     1
 90
        0
176
     1
290
     0
176
     1
290
     1
176
     1
290
     1
176
     1
290
     0
176
     1
290
     0
176
     1
290
     0
176
     1
290
     0
176
     1
290
     0
176
     1
290
     0
176
     1
 90
       50
176
     1
 40
0.0
176
     1
 40
1.0
176
     1
 90
        0
176
     1
 62
    18
420
        0
176
     1
 90
       50
176
     1
 90
        3
176
     1
 62
     5
420
      255
176
     1
290
     0
176
     1
 90
       50
176
     1
 90
       50
176
     1
 90
       50
176
     1
290
     0
176
     1
 90
       50
176
     1
 62
   256
176
     0
 40
1.0
176
     0
 90
        2
176
     1
  1
strokes_ogs.tif
176
     1
290
     0
176
     1
 40
1.0
176
     1
 40
1.0
176
     1
  0
VISUALSTYLE
  5
3F
102
{ACAD_REACTORS
330
2A
102
}
330
2A
100
AcDbVisualStyle
  2
Sketchy
 70
    24
177
     3
291
     0
 70
    58
 90
        1
176
     1
 90
        2
176
     1
 90
        2
176
     1
 90
        0
176
     1
 40
0.6
176
     1
 40
30.0
176
     1
 62
     7
420
 16777215
176
     1
 90
        2
176
     1
 90
        2
176
     1
 62
     7
176
     1
 62
     7
176
     1
 90
        1
176
     1
 90
        1
176
     1
 40
40.0
176
     1
 90
       11
176
     1
 62
     7
176
     1
 40
1.0
176
     1
 90
        1
176
     1
 90
        6
176
     1
 90
        2
176
     1
 62
     7
176
     1
 90
        6
176
     1
 90
        0
176
     1
 90
        0
176
     1
290
     0
176
     1
 90
        1
176
     1
 40
0.0
176
     1
 90
        0
176
     1
290
     0
176
     1
290
     1
176
     1
290
     1
176
     1
290
     0
176
     1
290
     0
176
     1
290
     0
176
     1
290
     0
176
     1
290
     0
176
     1
290
     0
176
     1
 90
       50
176
     1
 40
0.0
176
     1
 40
1.0
176
     1
 90
        0
176
     1
 62
    18
420
        0
176
     1
 90
       50
176
     1
 90
        3
176
     1
 62
     5
420
      255
176
     1
290
     0
176
     1
 90
       50
176
     1
 90
       50
176
     1
 90
       50
176
     1
290
     0
176
     1
 90
       50
176
     1
 62
   256
176
     0
 40
1.0
176
     0
 90
        2
176
     1
  1
strokes_ogs.tif
176
     1
290
     0
176
     1
 40
1.0
176
     1
 40
1.0
176
     1
  0
VISUALSTYLE
  5
37
102
{ACAD_REACTORS
330
2A
102
}
330
2A
100
AcDbVisualStyle
  2
Thicken
 70
    13
177
     3
291
     1
 70
    58
 90
        2
176
     1
 90
        2
176
     1
 90
        0
176
     1
 90
        0
176
     1
 40
0.6
176
     1
 40
30.0
176
     1
 62
     7
420
 16777215
176
     1
 90
        1
176
     1
 90
        4
176
     1
 62
     7
176
     1
 62
   257
176
     1
 90
        1
176
     1
 90
        1
176
     1
 40
1.0
176
     1
 90
       12
176
     1
 62
     7
176
     1
 40
1.0
176
     1
 90
        1
176
     1
 90
        6
176
     1
 90
        2
176
     1
 62
     7
176
     1
 90
        5
176
     1
 90
        0
176
     1
 90
        0
176
     1
290
     0
176
     1
 90
        1
176
     1
 40
0.0
176
     1
 90
        0
176
     1
290
     0
176
     1
290
     1
176
     1
290
     1
176
     1
290
     0
176
     1
290
     0
176
     1
290
     0
176
     1
290
     0
176
     1
290
     0
176
     1
290
     0
176
     1
 90
       50
176
     1
 40
0.0
176
     1
 40
1.0
176
     1
 90
        0
176
     1
 62
    18
420
        0
176
     1
 90
       50
176
     1
 90
        3
176
     1
 62
     5
420
      255
176
     1
290
     0
176
     1
 90
       50
176
     1
 90
       50
176
     1
 90
       50
176
     1
290
     0
176
     1
 90
       50
176
     1
 62
   256
176
     0
 40
1.0
176
     0
 90
        2
176
     1
  1
strokes_ogs.tif
176
     1
290
     0
176
     1
 40
1.0
176
     1
 40
1.0
176
     1
  0
VISUALSTYLE
  5
30
102
{ACAD_REACTORS
330
2A
102
}
330
2A
100
AcDbVisualStyle
  2
Wireframe
 70
     5
177
     3
291
     0
 70
    58
 90
        0
176
     1
 90
        2
176
     1
 90
        0
176
     1
 90
        0
176
     1
 40
0.6
176
     1
 40
30.0
176
     1
 62
     7
420
 16777215
176
     1
 90
        1
176
     1
 90
        4
176
     1
 62
     7
176
     1
 62
   257
176
     1
 90
        1
176
     1
 90
        1
176
     1
 40
1.0
176
     1
 90
        0
176
     1
 62
   257
176
     1
 40
1.0
176
     1
 90
        1
176
     1
 90
        6
176
     1
 90
        2
176
     1
 62
     7
176
     1
 90
        3
176
     1
 90
        0
176
     1
 90
        0
176
     1
290
     0
176
     1
 90
        1
176
     1
 40
0.0
176
     1
 90
        0
176
     1
290
     0
176
     1
290
     1
176
     1
290
     1
176
     1
290
     0
176
     1
290
     0
176
     1
290
     0
176
     1
290
     0
176
     1
290
     0
176
     1
290
     0
176
     1
 90
       50
176
     1
 40
0.0
176
     1
 40
1.0
176
     1
 90
        0
176
     1
 62
    18
420
        0
176
     1
 90
       50
176
     1
 90
        3
176
     1
 62
     5
420
      255
176
     1
290
     0
176
     1
 90
       50
176
     1
 90
       50
176
     1
 90
       50
176
     1
290
     0
176
     1
 90
       50
176
     1
 62
   256
176
     0
 40
1.0
176
     0
 90
        2
176
     1
  1
strokes_ogs.tif
176
     1
290
     0
176
     1
 40
1.0
176
     1
 40
1.0
176
     1
  0
VISUALSTYLE
  5
40
102
{ACAD_REACTORS
330
2A
102
}
330
2A
100
AcDbVisualStyle
  2
X-Ray
 70
    25
177
     3
291
     0
 70
    58
 90
        2
176
     1
 90
        2
176
     1
 90
        1
176
     1
 90
        1
176
     1
 40
0.5
176
     1
 40
30.0
176
     1
 62
     7
420
 16777215
176
     1
 90
        1
176
     1
 90
        0
176
     1
 62
     7
176
     1
 62
   257
176
     1
 90
        1
176
     1
 90
        1
176
     1
 40
1.0
176
     1
 90
        8
176
     1
 62
     7
176
     1
 40
1.0
176
     1
 90
        1
176
     1
 90
        6
176
     1
 90
        2
176
     1
 62
     7
176
     1
 90
        3
176
     1
 90
        0
176
     1
 90
        0
176
     1
290
     0
176
     1
 90
       13
176
     1
 40
0.0
176
     1
 90
        0
176
     1
290
     0
176
     1
290
     1
176
     1
290
     1
176
     1
290
     0
176
     1
290
     0
176
     1
290
     0
176
     1
290
     0
176
     1
290
     0
176
     1
290
     0
176
     1
 90
       50
176
     1
 40
0.0
176
     1
 40
1.0
176
     1
 90
        0
176
     1
 62
    18
420
        0
176
     1
 90
       50
176
     1
 90
        3
176
     1
 62
     5
420
      255
176
     1
290
     0
176
     1
 90
       50
176
     1
 90
       50
176
     1
 90
       50
176
     1
290
     0
176
     1
 90
       50
176
     1
 62
   256
176
     0
 40
1.0
176
     0
 90
        2
176
     1
  1
strokes_ogs.tif
176
     1
290
     0
176
     1
 40
1.0
176
     1
 40
1.0
176
     1
  0
DICTIONARYVAR
  5
4AD
102
{ACAD_REACTORS
330
4AC
102
}
330
4AC
100
DictionaryVariables
280
     0
  1
1:1
  0
DICTIONARYVAR
  5
4B5
102
{ACAD_REACTORS
330
4AC
102
}
330
4AC
100
DictionaryVariables
280
     0
  1
3.500000
  0
DICTIONARYVAR
  5
4B6
102
{ACAD_REACTORS
330
4AC
102
}
330
4AC
100
DictionaryVariables
280
     0
  1
acadiso.lin
  0
DICTIONARYVAR
  5
4B2
102
{ACAD_REACTORS
330
4AC
102
}
330
4AC
100
DictionaryVariables
280
     0
  1
Standard
  0
DICTIONARYVAR
  5
4B1
102
{ACAD_REACTORS
330
4AC
102
}
330
4AC
100
DictionaryVariables
280
     0
  1
Standard
  0
DICTIONARY
  5
4AE
330
6A
100
AcDbDictionary
280
     1
281
     1
  3
ACAD_ROUNDTRIP_2008_TABLESTYLE_CELLSTYLEMAP
360
4AF
  0
CELLSTYLEMAP
  5
4AF
102
{ACAD_REACTORS
330
4AE
102
}
330
4AE
100
AcDbCellStyleMap
 90
        3
300
CELLSTYLE
  1
TABLEFORMAT_BEGIN
 90
        5
170
     1
 91
        0
 92
    32768
 62
   257
 93
        1
300
CONTENTFORMAT
  1
CONTENTFORMAT_BEGIN
 90
        0
 91
        0
 92
        4
 93
        0
300

 40
0.0
140
1.0
 94
        5
 62
     0
340
11
144
6.0
309
CONTENTFORMAT_END
171
     1
301
MARGIN
  1
CELLMARGIN_BEGIN
 40
1.5
 40
1.5
 40
1.5
 40
1.5
 40
1.5
 40
1.5
309
CELLMARGIN_END
 94
        6
 95
        1
302
GRIDFORMAT
  1
GRIDFORMAT_BEGIN
 90
        0
 91
        1
 62
     0
 92
       -2
340
14
 93
        0
 40
0.045
309
GRIDFORMAT_END
 95
        2
302
GRIDFORMAT
  1
GRIDFORMAT_BEGIN
 90
        0
 91
        1
 62
     0
 92
       -2
340
14
 93
        0
 40
0.045
309
GRIDFORMAT_END
 95
        4
302
GRIDFORMAT
  1
GRIDFORMAT_BEGIN
 90
        0
 91
        1
 62
     0
 92
       -2
340
14
 93
        0
 40
0.045
309
GRIDFORMAT_END
 95
        8
302
GRIDFORMAT
  1
GRIDFORMAT_BEGIN
 90
        0
 91
        1
 62
     0
 92
       -2
340
14
 93
        0
 40
0.045
309
GRIDFORMAT_END
 95
       16
302
GRIDFORMAT
  1
GRIDFORMAT_BEGIN
 90
        0
 91
        1
 62
     0
 92
       -2
340
14
 93
        0
 40
0.045
309
GRIDFORMAT_END
 95
       32
302
GRIDFORMAT
  1
GRIDFORMAT_BEGIN
 90
        0
 91
        1
 62
     0
 92
       -2
340
14
 93
        0
 40
0.045
309
GRIDFORMAT_END
309
TABLEFORMAT_END
  1
CELLSTYLE_BEGIN
 90
        1
 91
        1
300
_TITLE
309
CELLSTYLE_END
300
CELLSTYLE
  1
TABLEFORMAT_BEGIN
 90
        5
170
     1
 91
        0
 92
        0
 62
   257
 93
        1
300
CONTENTFORMAT
  1
CONTENTFORMAT_BEGIN
 90
        0
 91
        0
 92
        4
 93
        0
300

 40
0.0
140
1.0
 94
        5
 62
     0
340
11
144
4.5
309
CONTENTFORMAT_END
171
     1
301
MARGIN
  1
CELLMARGIN_BEGIN
 40
1.5
 40
1.5
 40
1.5
 40
1.5
 40
1.5
 40
1.5
309
CELLMARGIN_END
 94
        6
 95
        1
302
GRIDFORMAT
  1
GRIDFORMAT_BEGIN
 90
        0
 91
        1
 62
     0
 92
       -2
340
14
 93
        0
 40
0.045
309
GRIDFORMAT_END
 95
        2
302
GRIDFORMAT
  1
GRIDFORMAT_BEGIN
 90
        0
 91
        1
 62
     0
 92
       -2
340
14
 93
        0
 40
0.045
309
GRIDFORMAT_END
 95
        4
302
GRIDFORMAT
  1
GRIDFORMAT_BEGIN
 90
        0
 91
        1
 62
     0
 92
       -2
340
14
 93
        0
 40
0.045
309
GRIDFORMAT_END
 95
        8
302
GRIDFORMAT
  1
GRIDFORMAT_BEGIN
 90
        0
 91
        1
 62
     0
 92
       -2
340
14
 93
        0
 40
0.045
309
GRIDFORMAT_END
 95
       16
302
GRIDFORMAT
  1
GRIDFORMAT_BEGIN
 90
        0
 91
        1
 62
     0
 92
       -2
340
14
 93
        0
 40
0.045
309
GRIDFORMAT_END
 95
       32
302
GRIDFORMAT
  1
GRIDFORMAT_BEGIN
 90
        0
 91
        1
 62
     0
 92
       -2
340
14
 93
        0
 40
0.045
309
GRIDFORMAT_END
309
TABLEFORMAT_END
  1
CELLSTYLE_BEGIN
 90
        2
 91
        1
300
_HEADER
309
CELLSTYLE_END
300
CELLSTYLE
  1
TABLEFORMAT_BEGIN
 90
        5
170
     1
 91
        0
 92
        0
 62
   257
 93
        1
300
CONTENTFORMAT
  1
CONTENTFORMAT_BEGIN
 90
        0
 91
        0
 92
        4
 93
        0
300

 40
0.0
140
1.0
 94
        2
 62
     0
340
11
144
4.5
309
CONTENTFORMAT_END
171
     1
301
MARGIN
  1
CELLMARGIN_BEGIN
 40
1.5
 40
1.5
 40
1.5
 40
1.5
 40
1.5
 40
1.5
309
CELLMARGIN_END
 94
        6
 95
        1
302
GRIDFORMAT
  1
GRIDFORMAT_BEGIN
 90
        0
 91
        1
 62
     0
 92
       -2
340
14
 93
        0
 40
0.045
309
GRIDFORMAT_END
 95
        2
302
GRIDFORMAT
  1
GRIDFORMAT_BEGIN
 90
        0
 91
        1
 62
     0
 92
       -2
340
14
 93
        0
 40
0.045
309
GRIDFORMAT_END
 95
        4
302
GRIDFORMAT
  1
GRIDFORMAT_BEGIN
 90
        0
 91
        1
 62
     0
 92
       -2
340
14
 93
        0
 40
0.045
309
GRIDFORMAT_END
 95
        8
302
GRIDFORMAT
  1
GRIDFORMAT_BEGIN
 90
        0
 91
        1
 62
     0
 92
       -2
340
14
 93
        0
 40
0.045
309
GRIDFORMAT_END
 95
       16
302
GRIDFORMAT
  1
GRIDFORMAT_BEGIN
 90
        0
 91
        1
 62
     0
 92
       -2
340
14
 93
        0
 40
0.045
309
GRIDFORMAT_END
 95
       32
302
GRIDFORMAT
  1
GRIDFORMAT_BEGIN
 90
        0
 91
        1
 62
     0
 92
       -2
340
14
 93
        0
 40
0.045
309
GRIDFORMAT_END
309
TABLEFORMAT_END
  1
CELLSTYLE_BEGIN
 90
        3
 91
        2
300
_DATA
309
CELLSTYLE_END
  0
ENDSEC
  0
EOF
