  0
SECTION
  2
HEADER
  9
$ACADVER
  1
AC1027
  9
$ACADMAINTVER
 70
   105
  9
$DWGCODEPAGE
  3
ANSI_1252
  9
$REQUIREDVERSIONS
160
                 0
  9
$INSBASE
 10
0.0
 20
0.0
 30
0.0
  9
$EXTMIN
 10
-57.00000000000018
 20
-37.29988270759056
 30
-53.56311914253449
  9
$EXTMAX
 10
205.1728336909396
 20
296.99999999932
 30
72.24337293503562
  9
$LIMMIN
 10
0.0
 20
0.0
  9
$LIMMAX
 10
420.0
 20
297.0
  9
$ORTHOMODE
 70
     0
  9
$REGENMODE
 70
     1
  9
$FILLMODE
 70
     1
  9
$QTEXTMODE
 70
     0
  9
$MIRRTEXT
 70
     1
  9
$LTSCALE
 40
1.0
  9
$ATTMODE
 70
     1
  9
$TEXTSIZE
 40
2.5
  9
$TRACEWID
 40
1.0
  9
$TEXTSTYLE
  7
Standard
  9
$CLAYER
  8
0
  9
$CELTYPE
  6
ByLayer
  9
$CECOLOR
 62
   256
  9
$CELTSCALE
 40
1.0
  9
$DISPSILH
 70
     0
  9
$DIMSCALE
 40
1.0
  9
$DIMASZ
 40
2.5
  9
$DIMEXO
 40
0.625
  9
$DIMDLI
 40
3.75
  9
$DIMRND
 40
0.0
  9
$DIMDLE
 40
0.0
  9
$DIMEXE
 40
1.25
  9
$DIMTP
 40
0.0
  9
$DIMTM
 40
0.0
  9
$DIMTXT
 40
2.5
  9
$DIMCEN
 40
2.5
  9
$DIMTSZ
 40
0.0
  9
$DIMTOL
 70
     0
  9
$DIMLIM
 70
     0
  9
$DIMTIH
 70
     0
  9
$DIMTOH
 70
     0
  9
$DIMSE1
 70
     0
  9
$DIMSE2
 70
     0
  9
$DIMTAD
 70
     1
  9
$DIMZIN
 70
     8
  9
$DIMBLK
  1

  9
$DIMASO
 70
     1
  9
$DIMSHO
 70
     1
  9
$DIMPOST
  1

  9
$DIMAPOST
  1

  9
$DIMALT
 70
     0
  9
$DIMALTD
 70
     3
  9
$DIMALTF
 40
0.03937007874016
  9
$DIMLFAC
 40
1.0
  9
$DIMTOFL
 70
     1
  9
$DIMTVP
 40
0.0
  9
$DIMTIX
 70
     0
  9
$DIMSOXD
 70
     0
  9
$DIMSAH
 70
     0
  9
$DIMBLK1
  1

  9
$DIMBLK2
  1

  9
$DIMSTYLE
  2
ISO-25
  9
$DIMCLRD
 70
     0
  9
$DIMCLRE
 70
     0
  9
$DIMCLRT
 70
     0
  9
$DIMTFAC
 40
1.0
  9
$DIMGAP
 40
0.625
  9
$DIMJUST
 70
     0
  9
$DIMSD1
 70
     0
  9
$DIMSD2
 70
     0
  9
$DIMTOLJ
 70
     0
  9
$DIMTZIN
 70
     8
  9
$DIMALTZ
 70
     0
  9
$DIMALTTZ
 70
     0
  9
$DIMUPT
 70
     0
  9
$DIMDEC
 70
     2
  9
$DIMTDEC
 70
     2
  9
$DIMALTU
 70
     2
  9
$DIMALTTD
 70
     3
  9
$DIMTXSTY
  7
Standard
  9
$DIMAUNIT
 70
     0
  9
$DIMADEC
 70
     0
  9
$DIMALTRND
 40
0.0
  9
$DIMAZIN
 70
     0
  9
$DIMDSEP
 70
    44
  9
$DIMATFIT
 70
     3
  9
$DIMFRAC
 70
     0
  9
$DIMLDRBLK
  1

  9
$DIMLUNIT
 70
     2
  9
$DIMLWD
 70
    -2
  9
$DIMLWE
 70
    -2
  9
$DIMTMOVE
 70
     0
  9
$DIMFXL
 40
1.0
  9
$DIMFXLON
 70
     0
  9
$DIMJOGANG
 40
0.7853981633974483
  9
$DIMTFILL
 70
     0
  9
$DIMTFILLCLR
 70
     0
  9
$DIMARCSYM
 70
     0
  9
$DIMLTYPE
  6

  9
$DIMLTEX1
  6

  9
$DIMLTEX2
  6

  9
$DIMTXTDIRECTION
 70
     0
  9
$LUNITS
 70
     2
  9
$LUPREC
 70
     4
  9
$SKETCHINC
 40
1.0
  9
$FILLETRAD
 40
10.0
  9
$AUNITS
 70
     0
  9
$AUPREC
 70
     0
  9
$MENU
  1
.
  9
$ELEVATION
 40
0.0
  9
$PELEVATION
 40
0.0
  9
$THICKNESS
 40
0.0
  9
$LIMCHECK
 70
     0
  9
$CHAMFERA
 40
0.0
  9
$CHAMFERB
 40
0.0
  9
$CHAMFERC
 40
0.0
  9
$CHAMFERD
 40
0.0
  9
$SKPOLY
 70
     0
  9
$TDCREATE
 40
2305814.782326389
  9
$TDUCREATE
 40
1800874.698993056
  9
$TDUPDATE
 40
2458311.699003808
  9
$TDUUPDATE
 40
2458311.615670475
  9
$TDINDWG
 40
0.0000000116
  9
$TDUSRTIMER
 40
0.0000000116
  9
$USRTIMER
 70
     1
  9
$ANGBASE
 50
0.0
  9
$ANGDIR
 70
     0
  9
$PDMODE
 70
     0
  9
$PDSIZE
 40
0.0
  9
$PLINEWID
 40
0.0
  9
$SPLFRAME
 70
     0
  9
$SPLINETYPE
 70
     6
  9
$SPLINESEGS
 70
     8
  9
$HANDSEED
  5
385
  9
$SURFTAB1
 70
     6
  9
$SURFTAB2
 70
     6
  9
$SURFTYPE
 70
     6
  9
$SURFU
 70
     6
  9
$SURFV
 70
     6
  9
$UCSBASE
  2

  9
$UCSNAME
  2

  9
$UCSORG
 10
0.0
 20
0.0
 30
0.0
  9
$UCSXDIR
 10
1.0
 20
0.0
 30
0.0
  9
$UCSYDIR
 10
0.0
 20
1.0
 30
0.0
  9
$UCSORTHOREF
  2

  9
$UCSORTHOVIEW
 70
     0
  9
$UCSORGTOP
 10
0.0
 20
0.0
 30
0.0
  9
$UCSORGBOTTOM
 10
0.0
 20
0.0
 30
0.0
  9
$UCSORGLEFT
 10
0.0
 20
0.0
 30
0.0
  9
$UCSORGRIGHT
 10
0.0
 20
0.0
 30
0.0
  9
$UCSORGFRONT
 10
0.0
 20
0.0
 30
0.0
  9
$UCSORGBACK
 10
0.0
 20
0.0
 30
0.0
  9
$PUCSBASE
  2

  9
$PUCSNAME
  2

  9
$PUCSORG
 10
0.0
 20
0.0
 30
0.0
  9
$PUCSXDIR
 10
1.0
 20
0.0
 30
0.0
  9
$PUCSYDIR
 10
0.0
 20
1.0
 30
0.0
  9
$PUCSORTHOREF
  2

  9
$PUCSORTHOVIEW
 70
     0
  9
$PUCSORGTOP
 10
0.0
 20
0.0
 30
0.0
  9
$PUCSORGBOTTOM
 10
0.0
 20
0.0
 30
0.0
  9
$PUCSORGLEFT
 10
0.0
 20
0.0
 30
0.0
  9
$PUCSORGRIGHT
 10
0.0
 20
0.0
 30
0.0
  9
$PUCSORGFRONT
 10
0.0
 20
0.0
 30
0.0
  9
$PUCSORGBACK
 10
0.0
 20
0.0
 30
0.0
  9
$USERI1
 70
     0
  9
$USERI2
 70
     0
  9
$USERI3
 70
     0
  9
$USERI4
 70
     0
  9
$USERI5
 70
     0
  9
$USERR1
 40
0.0
  9
$USERR2
 40
0.0
  9
$USERR3
 40
0.0
  9
$USERR4
 40
0.0
  9
$USERR5
 40
0.0
  9
$WORLDVIEW
 70
     1
  9
$SHADEDGE
 70
     3
  9
$SHADEDIF
 70
    70
  9
$TILEMODE
 70
     1
  9
$MAXACTVP
 70
    64
  9
$PINSBASE
 10
0.0
 20
0.0
 30
0.0
  9
$PLIMCHECK
 70
     0
  9
$PEXTMIN
 10
1.000000000000000E+20
 20
1.000000000000000E+20
 30
1.000000000000000E+20
  9
$PEXTMAX
 10
-1.000000000000000E+20
 20
-1.000000000000000E+20
 30
-1.000000000000000E+20
  9
$PLIMMIN
 10
0.0
 20
0.0
  9
$PLIMMAX
 10
420.0
 20
297.0
  9
$UNITMODE
 70
     0
  9
$VISRETAIN
 70
     1
  9
$PLINEGEN
 70
     0
  9
$PSLTSCALE
 70
     1
  9
$TREEDEPTH
 70
  3020
  9
$CMLSTYLE
  2
Standard
  9
$CMLJUST
 70
     0
  9
$CMLSCALE
 40
20.0
  9
$PROXYGRAPHICS
 70
     1
  9
$MEASUREMENT
 70
     1
  9
$CELWEIGHT
370
    -1
  9
$ENDCAPS
280
     0
  9
$JOINSTYLE
280
     0
  9
$LWDISPLAY
290
     0
  9
$INSUNITS
 70
     4
  9
$HYPERLINKBASE
  1

  9
$STYLESHEET
  1

  9
$XEDIT
290
     1
  9
$CEPSNTYPE
380
     0
  9
$PSTYLEMODE
290
     1
  9
$FINGERPRINTGUID
  2
{0A2F0E5E-CFA6-4D74-B0A3-44A8A86CFAAA}
  9
$VERSIONGUID
  2
{FAEB1C32-E019-11D5-929B-00C0DF256EC4}
  9
$EXTNAMES
290
     1
  9
$PSVPSCALE
 40
0.0
  9
$OLESTARTUP
290
     0
  9
$SORTENTS
280
   127
  9
$INDEXCTL
280
     0
  9
$HIDETEXT
280
     1
  9
$XCLIPFRAME
280
     2
  9
$HALOGAP
280
     0
  9
$OBSCOLOR
 70
   257
  9
$OBSLTYPE
280
     0
  9
$INTERSECTIONDISPLAY
280
     0
  9
$INTERSECTIONCOLOR
 70
   257
  9
$DIMASSOC
280
     2
  9
$PROJECTNAME
  1

  9
$CAMERADISPLAY
290
     0
  9
$LENSLENGTH
 40
50.0
  9
$CAMERAHEIGHT
 40
0.0
  9
$STEPSPERSEC
 40
2.0
  9
$STEPSIZE
 40
6.0
  9
$3DDWFPREC
 40
2.0
  9
$PSOLWIDTH
 40
5.0
  9
$PSOLHEIGHT
 40
80.0
  9
$LOFTANG1
 40
1.570796326794897
  9
$LOFTANG2
 40
1.570796326794897
  9
$LOFTMAG1
 40
0.0
  9
$LOFTMAG2
 40
0.0
  9
$LOFTPARAM
 70
     7
  9
$LOFTNORMALS
280
     1
  9
$LATITUDE
 40
37.795
  9
$LONGITUDE
 40
-122.394
  9
$NORTHDIRECTION
 40
0.0
  9
$TIMEZONE
 70
 -8000
  9
$LIGHTGLYPHDISPLAY
280
     1
  9
$TILEMODELIGHTSYNCH
280
     1
  9
$CMATERIAL
347
44
  9
$SOLIDHIST
280
     0
  9
$SHOWHIST
280
     1
  9
$DWFFRAME
280
     2
  9
$DGNFRAME
280
     2
  9
$REALWORLDSCALE
290
     1
  9
$INTERFERECOLOR
 62
   256
  9
$CSHADOW
280
     0
  9
$SHADOWPLANELOCATION
 40
0.0
  0
ENDSEC
  0
SECTION
  2
CLASSES
  0
CLASS
  1
ACDBDICTIONARYWDFLT
  2
AcDbDictionaryWithDefault
  3
ObjectDBX Classes
 90
        0
 91
        4
280
     0
281
     0
  0
CLASS
  1
VISUALSTYLE
  2
AcDbVisualStyle
  3
ObjectDBX Classes
 90
     4095
 91
        4
280
     0
281
     0
  0
CLASS
  1
MATERIAL
  2
AcDbMaterial
  3
ObjectDBX Classes
 90
     1153
 91
        4
280
     0
281
     0
  0
CLASS
  1
SCALE
  2
AcDbScale
  3
ObjectDBX Classes
 90
     1153
 91
        4
280
     0
281
     0
  0
CLASS
  1
TABLESTYLE
  2
AcDbTableStyle
  3
ObjectDBX Classes
 90
     4095
 91
        4
280
     0
281
     0
  0
CLASS
  1
MLEADERSTYLE
  2
AcDbMLeaderStyle
  3
ACDB_MLEADERSTYLE_CLASS
 90
     4095
 91
        4
280
     0
281
     0
  0
CLASS
  1
SUN
  2
AcDbSun
  3
SCENEOE
 90
     1153
 91
        4
280
     0
281
     0
  0
CLASS
  1
DICTIONARYVAR
  2
AcDbDictionaryVar
  3
ObjectDBX Classes
 90
        0
 91
        4
280
     0
281
     0
  0
CLASS
  1
CELLSTYLEMAP
  2
AcDbCellStyleMap
  3
ObjectDBX Classes
 90
     1152
 91
        4
280
     0
281
     0
  0
ENDSEC
  0
SECTION
  2
TABLES
  0
TABLE
  2
VPORT
  5
8
330
0
100
AcDbSymbolTable
 70
     1
  0
VPORT
  5
29
330
8
100
AcDbSymbolTableRecord
100
AcDbViewportTableRecord
  2
*Active
 70
     0
 10
0.0
 20
0.0
 11
1.0
 21
1.0
 12
344.1869158878504
 22
148.5
 13
0.0
 23
0.0
 14
10.0
 24
10.0
 15
10.0
 25
10.0
 16
0.0
 26
0.0
 36
1.0
 17
0.0
 27
0.0
 37
0.0
 40
297.0
 41
1.972972972850329
 42
50.0
 43
0.0
 44
0.0
 50
0.0
 51
0.0
 71
     0
 72
   100
 73
     1
 74
     3
 75
     0
 76
     0
 77
     0
 78
     0
281
     0
 65
     1
110
0.0
120
0.0
130
0.0
111
1.0
121
0.0
131
0.0
112
0.0
122
1.0
132
0.0
 79
     0
146
0.0
348
2F
 60
     3
 61
     5
292
     1
282
     1
141
0.0
142
0.0
 63
   250
361
6D
  0
ENDTAB
  0
TABLE
  2
LTYPE
  5
5
330
0
100
AcDbSymbolTable
 70
    11
  0
LTYPE
  5
14
330
5
100
AcDbSymbolTableRecord
100
AcDbLinetypeTableRecord
  2
ByBlock
 70
     0
  3

 72
    65
 73
     0
 40
0.0
  0
LTYPE
  5
15
330
5
100
AcDbSymbolTableRecord
100
AcDbLinetypeTableRecord
  2
ByLayer
 70
     0
  3

 72
    65
 73
     0
 40
0.0
  0
LTYPE
  5
16
330
5
100
AcDbSymbolTableRecord
100
AcDbLinetypeTableRecord
  2
Continuous
 70
     0
  3
Solid line
 72
    65
 73
     0
 40
0.0
  0
LTYPE
  5
7A
330
5
100
AcDbSymbolTableRecord
100
AcDbLinetypeTableRecord
  2
BORDER
 70
     0
  3
__ __ . __ __ . __ 
 72
    65
 73
     6
 40
0.875
 49
0.25
 74
     0
 49
-0.125
 74
     0
 49
0.25
 74
     0
 49
-0.125
 74
     0
 49
0.0
 74
     0
 49
-0.125
 74
     0
  0
LTYPE
  5
7B
330
5
100
AcDbSymbolTableRecord
100
AcDbLinetypeTableRecord
  2
CENTER
 70
     0
  3
___ _ ___ _ ___ _ _
 72
    65
 73
     4
 40
1.125
 49
0.75
 74
     0
 49
-0.125
 74
     0
 49
0.125
 74
     0
 49
-0.125
 74
     0
  0
LTYPE
  5
7C
330
5
100
AcDbSymbolTableRecord
100
AcDbLinetypeTableRecord
  2
DASHDOT
 70
     0
  3
_._._._._._._._._._
 72
    65
 73
     4
 40
0.5
 49
0.25
 74
     0
 49
-0.125
 74
     0
 49
0.0
 74
     0
 49
-0.125
 74
     0
  0
LTYPE
  5
7D
330
5
100
AcDbSymbolTableRecord
100
AcDbLinetypeTableRecord
  2
DASHED
 70
     0
  3
_ _ _ _ _ _ _ _ _ _
 72
    65
 73
     2
 40
0.375
 49
0.25
 74
     0
 49
-0.125
 74
     0
  0
LTYPE
  5
7E
330
5
100
AcDbSymbolTableRecord
100
AcDbLinetypeTableRecord
  2
DIVIDE
 70
     0
  3
__..__..__..__..__.
 72
    65
 73
     6
 40
0.625
 49
0.25
 74
     0
 49
-0.125
 74
     0
 49
0.0
 74
     0
 49
-0.125
 74
     0
 49
0.0
 74
     0
 49
-0.125
 74
     0
  0
LTYPE
  5
7F
330
5
100
AcDbSymbolTableRecord
100
AcDbLinetypeTableRecord
  2
DOT
 70
     0
  3
...................
 72
    65
 73
     2
 40
0.125
 49
0.0
 74
     0
 49
-0.125
 74
     0
  0
LTYPE
  5
80
330
5
100
AcDbSymbolTableRecord
100
AcDbLinetypeTableRecord
  2
HIDDEN
 70
     0
  3
__ __ __ __ __ __ _
 72
    65
 73
     2
 40
0.1875
 49
0.125
 74
     0
 49
-0.0625
 74
     0
  0
LTYPE
  5
81
330
5
100
AcDbSymbolTableRecord
100
AcDbLinetypeTableRecord
  2
PHANTOM
 70
     0
  3
___ _ _ ___ _ _ ___
 72
    65
 73
     6
 40
1.25
 49
0.625
 74
     0
 49
-0.125
 74
     0
 49
0.125
 74
     0
 49
-0.125
 74
     0
 49
0.125
 74
     0
 49
-0.125
 74
     0
  0
LTYPE
  5
82
330
5
100
AcDbSymbolTableRecord
100
AcDbLinetypeTableRecord
  2
CUTTING
 70
     0
  3
________ _ _ ______
 72
    65
 73
     6
 40
1.4675
 49
1.0
 74
     0
 49
-0.0725
 74
     0
 49
0.125
 74
     0
 49
-0.0725
 74
     0
 49
0.125
 74
     0
 49
-0.0725
 74
     0
  0
LTYPE
  5
83
330
5
100
AcDbSymbolTableRecord
100
AcDbLinetypeTableRecord
  2
STITCH
 70
     0
  3
_ _ _ _ _ _ _ _ _ _
 72
    65
 73
     2
 40
0.145
 49
0.0725
 74
     0
 49
-0.0725
 74
     0
  0
ENDTAB
  0
TABLE
  2
LAYER
  5
2
330
0
100
AcDbSymbolTable
 70
    13
  0
LAYER
  5
10
330
2
100
AcDbSymbolTableRecord
100
AcDbLayerTableRecord
  2
0
 70
     0
 62
     7
  6
Continuous
370
    -3
390
F
347
46
348
0
  0
LAYER
  5
6F
330
2
100
AcDbSymbolTableRecord
100
AcDbLayerTableRecord
  2
Construction
 70
     0
 62
    -7
420
 16777215
  6
Continuous
370
    -3
390
F
347
46
348
0
  0
LAYER
  5
70
330
2
100
AcDbSymbolTableRecord
100
AcDbLayerTableRecord
  2
Layer1
 70
     0
 62
    -7
420
 16777215
  6
Continuous
370
    -3
390
F
347
46
348
0
  0
LAYER
  5
71
330
2
100
AcDbSymbolTableRecord
100
AcDbLayerTableRecord
  2
4210_waterslot
 70
     0
 62
    -7
420
 16777215
  6
Continuous
370
    -3
390
F
347
46
348
0
  0
LAYER
  5
72
330
2
100
AcDbSymbolTableRecord
100
AcDbLayerTableRecord
  2
4210_waterslot_Layer1
 70
     0
 62
    -7
420
 16777215
  6
Continuous
370
    -3
390
F
347
46
348
0
  0
LAYER
  5
73
330
2
100
AcDbSymbolTableRecord
100
AcDbLayerTableRecord
  2
4210_rooster
 70
     0
 62
    -7
420
 16777215
  6
Continuous
370
    -3
390
F
347
46
348
0
  0
LAYER
  5
74
330
2
100
AcDbSymbolTableRecord
100
AcDbLayerTableRecord
  2
4210_rooster_Construction
 70
     0
 62
    -7
420
 16777215
  6
Continuous
370
    -3
390
F
347
46
348
0
  0
LAYER
  5
75
330
2
100
AcDbSymbolTableRecord
100
AcDbLayerTableRecord
  2
4210_rooster_Layer1
 70
     0
 62
    -7
420
 16777215
  6
Continuous
370
    -3
390
F
347
46
348
0
  0
LAYER
  5
76
330
2
100
AcDbSymbolTableRecord
100
AcDbLayerTableRecord
  2
Sheet_View_1
 70
     0
 62
     7
420
 16777215
  6
Continuous
370
    -3
390
F
347
46
348
0
  0
LAYER
  5
77
330
2
100
AcDbSymbolTableRecord
100
AcDbLayerTableRecord
  2
Sheet_View_1_Title_Block_1
 70
     0
 62
     7
420
 16777215
  6
Continuous
370
    -3
390
F
347
46
348
0
  0
LAYER
  5
78
330
2
100
AcDbSymbolTableRecord
100
AcDbLayerTableRecord
  2
Sheet_View_1_Dimension_1
 70
     0
 62
     7
420
 16777215
  6
Continuous
370
    -3
390
F
347
46
348
0
  0
LAYER
  5
79
330
2
100
AcDbSymbolTableRecord
100
AcDbLayerTableRecord
  2
Sheet_View_1_Drawing_1
 70
     0
 62
     7
420
 16777215
  6
Continuous
370
    -3
390
F
347
46
348
0
  0
LAYER
  5
15E
330
2
100
AcDbSymbolTableRecord
100
AcDbLayerTableRecord
  2
Defpoints
 70
     0
 62
     7
  6
Continuous
290
     0
370
    -3
390
F
347
46
348
0
  0
ENDTAB
  0
TABLE
  2
STYLE
  5
3
330
0
100
AcDbSymbolTable
 70
    51
  0
STYLE
  5
11
330
3
100
AcDbSymbolTableRecord
100
AcDbTextStyleTableRecord
  2
Standard
 70
     0
 40
0.0
 41
1.0
 50
0.0
 71
     0
 42
2.5
  3
txt
  4

  0
STYLE
  5
94
330
3
100
AcDbSymbolTableRecord
100
AcDbTextStyleTableRecord
  2
text79153
 70
     0
 40
0.2
 41
1.0
 50
0.0
 71
     0
 42
2.5
  3
arialbd.ttf
  4

1001
ACAD
1000
Arial
1071
 33554432
  0
STYLE
  5
96
330
3
100
AcDbSymbolTableRecord
100
AcDbTextStyleTableRecord
  2
text79156
 70
     0
 40
0.2
 41
1.0
 50
0.0
 71
     0
 42
2.5
  3

  4

1001
ACAD
1000
Arial
1071
 33554432
  0
STYLE
  5
98
330
3
100
AcDbSymbolTableRecord
100
AcDbTextStyleTableRecord
  2
text79159
 70
     0
 40
0.2
 41
1.0
 50
0.0
 71
     0
 42
2.5
  3

  4

1001
ACAD
1000
Arial
1071
 33554432
  0
STYLE
  5
9A
330
3
100
AcDbSymbolTableRecord
100
AcDbTextStyleTableRecord
  2
text79162
 70
     0
 40
0.2
 41
1.0
 50
0.0
 71
     0
 42
2.5
  3

  4

1001
ACAD
1000
Arial
1071
 33554432
  0
STYLE
  5
9C
330
3
100
AcDbSymbolTableRecord
100
AcDbTextStyleTableRecord
  2
text79165
 70
     0
 40
0.2
 41
1.0
 50
0.0
 71
     0
 42
2.5
  3

  4

1001
ACAD
1000
Arial
1071
 33554432
  0
STYLE
  5
9E
330
3
100
AcDbSymbolTableRecord
100
AcDbTextStyleTableRecord
  2
text79168
 70
     0
 40
0.2
 41
1.0
 50
0.0
 71
     0
 42
2.5
  3

  4

1001
ACAD
1000
Arial
1071
 33554432
  0
STYLE
  5
A0
330
3
100
AcDbSymbolTableRecord
100
AcDbTextStyleTableRecord
  2
text79171
 70
     0
 40
0.2
 41
1.0
 50
0.0
 71
     0
 42
2.5
  3

  4

1001
ACAD
1000
Arial
1071
 33554432
  0
STYLE
  5
A2
330
3
100
AcDbSymbolTableRecord
100
AcDbTextStyleTableRecord
  2
text79174
 70
     0
 40
0.2
 41
1.0
 50
0.0
 71
     0
 42
2.5
  3

  4

1001
ACAD
1000
Arial
1071
 33554432
  0
STYLE
  5
A4
330
3
100
AcDbSymbolTableRecord
100
AcDbTextStyleTableRecord
  2
text79177
 70
     0
 40
0.2
 41
1.0
 50
0.0
 71
     0
 42
2.5
  3

  4

1001
ACAD
1000
Arial
1071
 33554432
  0
STYLE
  5
A6
330
3
100
AcDbSymbolTableRecord
100
AcDbTextStyleTableRecord
  2
text79180
 70
     0
 40
0.2
 41
1.0
 50
0.0
 71
     0
 42
2.5
  3

  4

1001
ACAD
1000
Arial
1071
 33554432
  0
STYLE
  5
147
330
3
100
AcDbSymbolTableRecord
100
AcDbTextStyleTableRecord
  2
text79791
 70
     0
 40
0.2
 41
1.0
 50
0.0
 71
     0
 42
2.5
  3
arial.ttf
  4

1001
ACAD
1000
Arial
1071
        0
  0
STYLE
  5
149
330
3
100
AcDbSymbolTableRecord
100
AcDbTextStyleTableRecord
  2
text79793
 70
     0
 40
0.2
 41
1.0
 50
0.0
 71
     0
 42
2.5
  3

  4

1001
ACAD
1000
Arial
1071
        0
  0
STYLE
  5
178
330
3
100
AcDbSymbolTableRecord
100
AcDbTextStyleTableRecord
  2
text79839
 70
     0
 40
0.2
 41
1.0
 50
0.0
 71
     0
 42
2.5
  3

  4

1001
ACAD
1000
Arial
1071
 33554432
  0
STYLE
  5
17E
330
3
100
AcDbSymbolTableRecord
100
AcDbTextStyleTableRecord
  2
text79850
 70
     0
 40
0.2
 41
1.0
 50
0.0
 71
     0
 42
2.5
  3

  4

1001
ACAD
1000
Arial
1071
 33554432
  0
STYLE
  5
180
330
3
100
AcDbSymbolTableRecord
100
AcDbTextStyleTableRecord
  2
text79853
 70
     0
 40
0.2
 41
1.0
 50
0.0
 71
     0
 42
2.5
  3

  4

1001
ACAD
1000
Arial
1071
 33554432
  0
STYLE
  5
182
330
3
100
AcDbSymbolTableRecord
100
AcDbTextStyleTableRecord
  2
text79856
 70
     0
 40
0.2
 41
1.0
 50
0.0
 71
     0
 42
2.5
  3

  4

1001
ACAD
1000
Arial
1071
 33554432
  0
STYLE
  5
184
330
3
100
AcDbSymbolTableRecord
100
AcDbTextStyleTableRecord
  2
text79859
 70
     0
 40
0.2
 41
1.0
 50
0.0
 71
     0
 42
2.5
  3

  4

1001
ACAD
1000
Arial
1071
 33554432
  0
STYLE
  5
186
330
3
100
AcDbSymbolTableRecord
100
AcDbTextStyleTableRecord
  2
text79862
 70
     0
 40
0.2
 41
1.0
 50
0.0
 71
     0
 42
2.5
  3

  4

1001
ACAD
1000
Arial
1071
 33554432
  0
STYLE
  5
188
330
3
100
AcDbSymbolTableRecord
100
AcDbTextStyleTableRecord
  2
text79865
 70
     0
 40
0.2
 41
1.0
 50
0.0
 71
     0
 42
2.5
  3

  4

1001
ACAD
1000
Arial
1071
 33554432
  0
STYLE
  5
18A
330
3
100
AcDbSymbolTableRecord
100
AcDbTextStyleTableRecord
  2
text79868
 70
     0
 40
0.2
 41
1.0
 50
0.0
 71
     0
 42
2.5
  3

  4

1001
ACAD
1000
Arial
1071
 33554432
  0
STYLE
  5
18C
330
3
100
AcDbSymbolTableRecord
100
AcDbTextStyleTableRecord
  2
text79871
 70
     0
 40
0.2
 41
1.0
 50
0.0
 71
     0
 42
2.5
  3

  4

1001
ACAD
1000
Arial
1071
 33554432
  0
STYLE
  5
18E
330
3
100
AcDbSymbolTableRecord
100
AcDbTextStyleTableRecord
  2
text79874
 70
     0
 40
0.2
 41
1.0
 50
0.0
 71
     0
 42
2.5
  3

  4

1001
ACAD
1000
Arial
1071
 33554432
  0
STYLE
  5
190
330
3
100
AcDbSymbolTableRecord
100
AcDbTextStyleTableRecord
  2
text79877
 70
     0
 40
0.2
 41
1.0
 50
0.0
 71
     0
 42
2.5
  3

  4

1001
ACAD
1000
Arial
1071
 33554432
  0
STYLE
  5
192
330
3
100
AcDbSymbolTableRecord
100
AcDbTextStyleTableRecord
  2
text79880
 70
     0
 40
0.2
 41
1.0
 50
0.0
 71
     0
 42
2.5
  3

  4

1001
ACAD
1000
Arial
1071
 33554432
  0
STYLE
  5
194
330
3
100
AcDbSymbolTableRecord
100
AcDbTextStyleTableRecord
  2
text79883
 70
     0
 40
0.2
 41
1.0
 50
0.0
 71
     0
 42
2.5
  3

  4

1001
ACAD
1000
Arial
1071
 33554432
  0
STYLE
  5
196
330
3
100
AcDbSymbolTableRecord
100
AcDbTextStyleTableRecord
  2
text79886
 70
     0
 40
0.2
 41
1.0
 50
0.0
 71
     0
 42
2.5
  3

  4

1001
ACAD
1000
Arial
1071
        0
  0
STYLE
  5
1A0
330
3
100
AcDbSymbolTableRecord
100
AcDbTextStyleTableRecord
  2
text79905
 70
     0
 40
0.2
 41
1.0
 50
0.0
 71
     0
 42
2.5
  3

  4

1001
ACAD
1000
Arial
1071
 33554432
  0
STYLE
  5
1A2
330
3
100
AcDbSymbolTableRecord
100
AcDbTextStyleTableRecord
  2
text79908
 70
     0
 40
0.2
 41
1.0
 50
0.0
 71
     0
 42
2.5
  3

  4

1001
ACAD
1000
Arial
1071
 33554432
  0
STYLE
  5
1A4
330
3
100
AcDbSymbolTableRecord
100
AcDbTextStyleTableRecord
  2
text79911
 70
     0
 40
0.2
 41
1.0
 50
0.0
 71
     0
 42
2.5
  3

  4

1001
ACAD
1000
Arial
1071
 33554432
  0
STYLE
  5
1A6
330
3
100
AcDbSymbolTableRecord
100
AcDbTextStyleTableRecord
  2
text79914
 70
     0
 40
0.2
 41
1.0
 50
0.0
 71
     0
 42
2.5
  3

  4

1001
ACAD
1000
Arial
1071
 33554432
  0
STYLE
  5
1A8
330
3
100
AcDbSymbolTableRecord
100
AcDbTextStyleTableRecord
  2
text79917
 70
     0
 40
0.2
 41
1.0
 50
0.0
 71
     0
 42
2.5
  3

  4

1001
ACAD
1000
Arial
1071
 33554432
  0
STYLE
  5
1AA
330
3
100
AcDbSymbolTableRecord
100
AcDbTextStyleTableRecord
  2
text79920
 70
     0
 40
0.2
 41
1.0
 50
0.0
 71
     0
 42
2.5
  3

  4

1001
ACAD
1000
Arial
1071
 33554432
  0
STYLE
  5
1AC
330
3
100
AcDbSymbolTableRecord
100
AcDbTextStyleTableRecord
  2
text79923
 70
     0
 40
0.2
 41
1.0
 50
0.0
 71
     0
 42
2.5
  3

  4

1001
ACAD
1000
Arial
1071
 33554432
  0
STYLE
  5
1AE
330
3
100
AcDbSymbolTableRecord
100
AcDbTextStyleTableRecord
  2
text79926
 70
     0
 40
0.2
 41
1.0
 50
0.0
 71
     0
 42
2.5
  3

  4

1001
ACAD
1000
Arial
1071
 33554432
  0
STYLE
  5
1B0
330
3
100
AcDbSymbolTableRecord
100
AcDbTextStyleTableRecord
  2
text79929
 70
     0
 40
0.2
 41
1.0
 50
0.0
 71
     0
 42
2.5
  3

  4

1001
ACAD
1000
Arial
1071
        0
  0
STYLE
  5
1B2
330
3
100
AcDbSymbolTableRecord
100
AcDbTextStyleTableRecord
  2
text79932
 70
     0
 40
0.2
 41
1.0
 50
0.0
 71
     0
 42
2.5
  3

  4

1001
ACAD
1000
Arial
1071
 33554432
  0
STYLE
  5
1B4
330
3
100
AcDbSymbolTableRecord
100
AcDbTextStyleTableRecord
  2
text79935
 70
     0
 40
0.2
 41
1.0
 50
0.0
 71
     0
 42
2.5
  3

  4

1001
ACAD
1000
Arial
1071
 33554432
  0
STYLE
  5
1B6
330
3
100
AcDbSymbolTableRecord
100
AcDbTextStyleTableRecord
  2
text79938
 70
     0
 40
0.2
 41
1.0
 50
0.0
 71
     0
 42
2.5
  3

  4

1001
ACAD
1000
Arial
1071
        0
  0
STYLE
  5
1B8
330
3
100
AcDbSymbolTableRecord
100
AcDbTextStyleTableRecord
  2
text79941
 70
     0
 40
0.2
 41
1.0
 50
0.0
 71
     0
 42
2.5
  3

  4

1001
ACAD
1000
Arial
1071
 33554432
  0
STYLE
  5
1BA
330
3
100
AcDbSymbolTableRecord
100
AcDbTextStyleTableRecord
  2
text79944
 70
     0
 40
0.2
 41
1.0
 50
0.0
 71
     0
 42
2.5
  3

  4

1001
ACAD
1000
Arial
1071
        0
  0
STYLE
  5
1BC
330
3
100
AcDbSymbolTableRecord
100
AcDbTextStyleTableRecord
  2
text79947
 70
     0
 40
0.2
 41
1.0
 50
0.0
 71
     0
 42
2.5
  3

  4

1001
ACAD
1000
Arial
1071
        0
  0
STYLE
  5
1C0
330
3
100
AcDbSymbolTableRecord
100
AcDbTextStyleTableRecord
  2
text79954
 70
     0
 40
0.2
 41
1.0
 50
0.0
 71
     0
 42
2.5
  3

  4

1001
ACAD
1000
Arial
1071
        0
  0
STYLE
  5
1C2
330
3
100
AcDbSymbolTableRecord
100
AcDbTextStyleTableRecord
  2
text79957
 70
     0
 40
0.2
 41
1.0
 50
0.0
 71
     0
 42
2.5
  3

  4

1001
ACAD
1000
Arial
1071
        0
  0
STYLE
  5
1C4
330
3
100
AcDbSymbolTableRecord
100
AcDbTextStyleTableRecord
  2
text79960
 70
     0
 40
0.2
 41
1.0
 50
0.0
 71
     0
 42
2.5
  3

  4

1001
ACAD
1000
Arial
1071
        0
  0
STYLE
  5
1C6
330
3
100
AcDbSymbolTableRecord
100
AcDbTextStyleTableRecord
  2
text79963
 70
     0
 40
0.2
 41
1.0
 50
0.0
 71
     0
 42
2.5
  3

  4

1001
ACAD
1000
Arial
1071
        0
  0
STYLE
  5
1C8
330
3
100
AcDbSymbolTableRecord
100
AcDbTextStyleTableRecord
  2
text79966
 70
     0
 40
0.2
 41
1.0
 50
0.0
 71
     0
 42
2.5
  3

  4

1001
ACAD
1000
Arial
1071
        0
  0
STYLE
  5
1CA
330
3
100
AcDbSymbolTableRecord
100
AcDbTextStyleTableRecord
  2
text79971
 70
     0
 40
0.2
 41
1.0
 50
0.0
 71
     0
 42
2.5
  3

  4

1001
ACAD
1000
Arial
1071
 33554432
  0
STYLE
  5
1CC
330
3
100
AcDbSymbolTableRecord
100
AcDbTextStyleTableRecord
  2
text79974
 70
     0
 40
0.2
 41
1.0
 50
0.0
 71
     0
 42
2.5
  3

  4

1001
ACAD
1000
Arial
1071
        0
  0
STYLE
  5
1CE
330
3
100
AcDbSymbolTableRecord
100
AcDbTextStyleTableRecord
  2
text80465
 70
     0
 40
0.2
 41
1.0
 50
0.0
 71
     0
 42
2.5
  3

  4

1001
ACAD
1000
Arial
1071
 33554432
  0
STYLE
  5
378
330
3
100
AcDbSymbolTableRecord
100
AcDbTextStyleTableRecord
  2
text81163
 70
     0
 40
0.2
 41
1.0
 50
0.0
 71
     0
 42
2.5
  3

  4

1001
ACAD
1000
Arial
1071
        0
  0
ENDTAB
  0
TABLE
  2
VIEW
  5
6
330
0
100
AcDbSymbolTable
 70
     0
  0
ENDTAB
  0
TABLE
  2
UCS
  5
7
330
0
100
AcDbSymbolTable
 70
     0
  0
ENDTAB
  0
TABLE
  2
APPID
  5
9
330
0
100
AcDbSymbolTable
 70
     2
  0
APPID
  5
12
330
9
100
AcDbSymbolTableRecord
100
AcDbRegAppTableRecord
  2
ACAD
 70
     0
  0
APPID
  5
6E
330
9
100
AcDbSymbolTableRecord
100
AcDbRegAppTableRecord
  2
Encore Software ViaCAD
 70
     0
  0
ENDTAB
  0
TABLE
  2
DIMSTYLE
  5
A
330
0
100
AcDbSymbolTable
 70
    10
100
AcDbDimStyleTable
  0
DIMSTYLE
105
27
330
A
100
AcDbSymbolTableRecord
100
AcDbDimStyleTableRecord
  2
ISO-25
 70
     0
 41
2.5
 42
0.625
 43
3.75
 44
1.25
 73
     0
 74
     0
 77
     1
 78
     8
140
2.5
141
2.5
143
0.03937007874016
147
0.625
171
     3
172
     1
178
     0
271
     2
272
     2
274
     3
278
    44
283
     0
284
     8
340
11
  0
DIMSTYLE
105
15C
102
{ACAD_REACTORS
330
15D
102
}
330
A
100
AcDbSymbolTableRecord
100
AcDbDimStyleTableRecord
  2
RotatedDim33
 70
     0
 41
2.837078299470983
 42
0.9093199677791612
 43
3.75
 44
2.273299919447903
 73
     0
 74
     0
 78
     8
140
2.525888919830322
141
2.5
143
0.03937007874016
147
0.625
171
     3
172
     1
178
     0
271
     0
272
     1
274
     3
278
    44
283
     0
340
11
  0
DIMSTYLE
105
2FB
102
{ACAD_REACTORS
330
2FC
102
}
330
A
100
AcDbSymbolTableRecord
100
AcDbDimStyleTableRecord
  2
RotatedDim34
 70
     0
 41
2.837078299470983
 42
0.9093199677791612
 43
3.75
 44
2.273299919447903
 73
     0
 74
     0
 78
     8
140
2.525888919830322
141
2.5
143
0.03937007874016
147
0.625
171
     3
172
     1
178
     0
271
     0
272
     1
274
     3
278
    44
283
     0
340
11
  0
DIMSTYLE
105
30A
102
{ACAD_REACTORS
330
30B
102
}
330
A
100
AcDbSymbolTableRecord
100
AcDbDimStyleTableRecord
  2
RotatedDim35
 70
     0
 41
2.837078299470983
 42
0.9093199677791612
 43
3.75
 44
2.273299919447903
 73
     0
 74
     0
 78
     8
140
2.525888919830322
141
2.5
143
0.03937007874016
147
0.625
171
     3
172
     1
178
     0
271
     1
272
     1
274
     3
278
    44
283
     0
340
11
  0
DIMSTYLE
105
31C
102
{ACAD_REACTORS
330
31D
102
}
330
A
100
AcDbSymbolTableRecord
100
AcDbDimStyleTableRecord
  2
RotatedDim36
 70
     0
 41
2.837078299470983
 42
0.9093199677791612
 43
3.75
 44
2.273299919447903
 73
     0
 74
     0
 78
     8
140
2.525888919830322
141
2.5
143
0.03937007874016
147
0.625
171
     3
172
     1
178
     0
271
     0
272
     1
274
     3
278
    44
283
     0
340
11
  0
DIMSTYLE
105
32B
102
{ACAD_REACTORS
330
32C
102
}
330
A
100
AcDbSymbolTableRecord
100
AcDbDimStyleTableRecord
  2
RotatedDim37
 70
     0
 41
2.837078299470983
 42
0.9093199677791612
 43
3.75
 44
2.273299919447903
 73
     0
 74
     0
 78
     8
140
2.525888919830322
141
2.5
143
0.03937007874016
147
0.625
171
     3
172
     1
178
     0
271
     0
272
     1
274
     3
278
    44
283
     0
340
11
  0
DIMSTYLE
105
33A
102
{ACAD_REACTORS
330
33B
102
}
330
A
100
AcDbSymbolTableRecord
100
AcDbDimStyleTableRecord
  2
RotatedDim38
 70
     0
 41
2.837078299470983
 42
0.9093199677791612
 43
3.75
 44
2.273299919447903
 73
     0
 74
     0
 78
     8
140
2.525888919830322
141
2.5
143
0.03937007874016
147
0.625
171
     3
172
     1
178
     0
271
     0
272
     1
274
     3
278
    44
283
     0
340
11
  0
DIMSTYLE
105
349
102
{ACAD_REACTORS
330
34A
102
}
330
A
100
AcDbSymbolTableRecord
100
AcDbDimStyleTableRecord
  2
RotatedDim39
 70
     0
 41
2.837078299470983
 42
0.9093199677791612
 43
3.75
 44
2.273299919447903
 73
     0
 74
     0
 78
     8
140
2.525888919830322
141
2.5
143
0.03937007874016
147
0.625
171
     3
172
     1
178
     0
271
     0
272
     1
274
     3
278
    44
283
     0
340
11
  0
DIMSTYLE
105
358
102
{ACAD_REACTORS
330
359
102
}
330
A
100
AcDbSymbolTableRecord
100
AcDbDimStyleTableRecord
  2
RotatedDim40
 70
     0
 41
2.837078299470983
 42
0.9093199677791612
 43
3.75
 44
2.273299919447903
 73
     0
 74
     0
 78
     8
140
2.525888919830322
141
2.5
143
0.03937007874016
147
0.625
171
     3
172
     1
178
     0
271
     1
272
     1
274
     3
278
    44
283
     0
340
11
  0
DIMSTYLE
105
367
102
{ACAD_REACTORS
330
368
102
}
330
A
100
AcDbSymbolTableRecord
100
AcDbDimStyleTableRecord
  2
RotatedDim41
 70
     0
 41
2.837078299470983
 42
0.9093199677791612
 43
3.75
 44
2.273299919447903
 73
     0
 74
     0
 78
     8
140
2.525888919830322
141
2.5
143
0.03937007874016
147
0.625
171
     3
172
     1
178
     0
271
     1
272
     1
274
     3
278
    44
283
     0
340
11
  0
ENDTAB
  0
TABLE
  2
BLOCK_RECORD
  5
1
330
0
100
AcDbSymbolTable
 70
    10
  0
BLOCK_RECORD
  5
1F
330
1
100
AcDbSymbolTableRecord
100
AcDbBlockTableRecord
  2
*Model_Space
340
22
 70
     0
280
     1
281
     0
  0
BLOCK_RECORD
  5
1B
330
1
100
AcDbSymbolTableRecord
100
AcDbBlockTableRecord
  2
*Paper_Space
340
1E
 70
     0
280
     1
281
     0
  0
BLOCK_RECORD
  5
23
330
1
100
AcDbSymbolTableRecord
100
AcDbBlockTableRecord
  2
*Paper_Space0
340
26
 70
     0
280
     1
281
     0
  0
BLOCK_RECORD
  5
15F
330
1
100
AcDbSymbolTableRecord
100
AcDbBlockTableRecord
  2
*D1
340
0
 70
     0
280
     1
281
     0
  0
BLOCK_RECORD
  5
2FD
330
1
100
AcDbSymbolTableRecord
100
AcDbBlockTableRecord
  2
*D2
340
0
 70
     0
280
     1
281
     0
  0
BLOCK_RECORD
  5
30C
330
1
100
AcDbSymbolTableRecord
100
AcDbBlockTableRecord
  2
*D3
340
0
 70
     0
280
     1
281
     0
  0
BLOCK_RECORD
  5
31E
330
1
100
AcDbSymbolTableRecord
100
AcDbBlockTableRecord
  2
*D4
340
0
 70
     0
280
     1
281
     0
  0
BLOCK_RECORD
  5
32D
330
1
100
AcDbSymbolTableRecord
100
AcDbBlockTableRecord
  2
*D5
340
0
 70
     0
280
     1
281
     0
  0
BLOCK_RECORD
  5
33C
330
1
100
AcDbSymbolTableRecord
100
AcDbBlockTableRecord
  2
*D6
340
0
 70
     0
280
     1
281
     0
  0
BLOCK_RECORD
  5
34B
330
1
100
AcDbSymbolTableRecord
100
AcDbBlockTableRecord
  2
*D7
340
0
 70
     0
280
     1
281
     0
  0
BLOCK_RECORD
  5
35A
330
1
100
AcDbSymbolTableRecord
100
AcDbBlockTableRecord
  2
*D8
340
0
 70
     0
280
     1
281
     0
  0
BLOCK_RECORD
  5
369
330
1
100
AcDbSymbolTableRecord
100
AcDbBlockTableRecord
  2
*D9
340
0
 70
     0
280
     1
281
     0
  0
ENDTAB
  0
ENDSEC
  0
SECTION
  2
BLOCKS
  0
BLOCK
  5
20
330
1F
100
AcDbEntity
  8
0
100
AcDbBlockBegin
  2
*Model_Space
 70
     0
 10
0.0
 20
0.0
 30
0.0
  3
*Model_Space
  1

  0
ENDBLK
  5
21
330
1F
100
AcDbEntity
  8
0
100
AcDbBlockEnd
  0
BLOCK
  5
1C
330
1B
100
AcDbEntity
 67
     1
  8
0
100
AcDbBlockBegin
  2
*Paper_Space
 70
     0
 10
0.0
 20
0.0
 30
0.0
  3
*Paper_Space
  1

  0
ENDBLK
  5
1D
330
1B
100
AcDbEntity
 67
     1
  8
0
100
AcDbBlockEnd
  0
BLOCK
  5
24
330
23
100
AcDbEntity
  8
0
100
AcDbBlockBegin
  2
*Paper_Space0
 70
     0
 10
0.0
 20
0.0
 30
0.0
  3
*Paper_Space0
  1

  0
ENDBLK
  5
25
330
23
100
AcDbEntity
  8
0
100
AcDbBlockEnd
  0
BLOCK
  5
160
330
15F
100
AcDbEntity
  8
0
100
AcDbBlockBegin
  2
*D1
 70
     1
 10
0.0
 20
0.0
 30
0.0
  3
*D1
  1

  0
LINE
  5
162
330
15F
100
AcDbEntity
  8
Sheet_View_1_Drawing_1
 62
     0
 48
12.69999980926514
370
    -2
100
AcDbLine
 10
86.55951613466847
 20
260.1802037842538
 30
0.0
 11
60.82002323299202
 21
260.1802037842538
 31
0.0
  0
LINE
  5
163
330
15F
100
AcDbEntity
  8
Sheet_View_1_Drawing_1
 62
     0
 48
12.69999980926514
370
    -2
100
AcDbLine
 10
86.55951613466847
 20
210.1802037842538
 30
0.0
 11
60.82002323299202
 21
210.1802037842538
 31
0.0
  0
LINE
  5
164
330
15F
100
AcDbEntity
  8
Sheet_View_1_Drawing_1
 62
     0
 48
12.69999980926514
370
    -2
100
AcDbLine
 10
63.09332315243992
 20
257.3431254847828
 30
0.0
 11
63.09332315243992
 21
239.6973546154765
 31
0.0
  0
LINE
  5
165
330
15F
100
AcDbEntity
  8
Sheet_View_1_Drawing_1
 62
     0
 48
12.69999980926514
370
    -2
100
AcDbLine
 10
63.09332315243992
 20
213.0172820837248
 30
0.0
 11
63.09332315243992
 21
232.3130529530314
 31
0.0
  0
SOLID
  5
166
330
15F
100
AcDbEntity
  8
Sheet_View_1_Drawing_1
 62
     0
100
AcDbTrace
 10
63.56616953568508
 20
257.3431254847828
 30
0.0
 11
62.62047676919476
 21
257.3431254847828
 31
0.0
 12
63.09332315243992
 22
260.1802037842538
 32
0.0
 13
63.09332315243992
 23
260.1802037842538
 33
0.0
  0
SOLID
  5
167
330
15F
100
AcDbEntity
  8
Sheet_View_1_Drawing_1
 62
     0
100
AcDbTrace
 10
62.62047676919476
 20
213.0172820837248
 30
0.0
 11
63.56616953568508
 21
213.0172820837248
 31
0.0
 12
63.09332315243992
 22
210.1802037842538
 32
0.0
 13
63.09332315243992
 23
210.1802037842538
 33
0.0
  0
MTEXT
  5
168
330
15F
100
AcDbEntity
  8
Sheet_View_1_Drawing_1
 62
     0
100
AcDbMText
 10
63.09332315243992
 20
236.0052037842539
 30
0.0
 40
2.525888919830322
 41
0.0
 46
0.0
 71
     5
 72
     1
  1
100
 11
0.0
 21
1.0
 31
0.0
 73
     1
 44
1.0
  0
POINT
  5
169
330
15F
100
AcDbEntity
  8
Defpoints
 62
     0
100
AcDbPoint
 10
87.46883610244763
 20
260.1802037842538
 30
0.0
  0
POINT
  5
16A
330
15F
100
AcDbEntity
  8
Defpoints
 62
     0
100
AcDbPoint
 10
87.46883610244763
 20
210.1802037842538
 30
0.0
  0
POINT
  5
16B
330
15F
100
AcDbEntity
  8
Defpoints
 62
     0
100
AcDbPoint
 10
63.09332315243992
 20
210.1802037842538
 30
0.0
  0
ENDBLK
  5
161
330
15F
100
AcDbEntity
  8
0
100
AcDbBlockEnd
  0
BLOCK
  5
2FE
330
2FD
100
AcDbEntity
  8
0
100
AcDbBlockBegin
  2
*D2
 70
     1
 10
0.0
 20
0.0
 30
0.0
  3
*D2
  1

  0
LINE
  5
300
330
2FD
100
AcDbEntity
  8
Sheet_View_1_Drawing_1
 62
     0
 48
12.69999980926514
370
    -2
100
AcDbLine
 10
86.37531334370412
 20
156.3366014154744
 30
0.0
 11
86.37531334370412
 21
167.7005813671431
 31
0.0
  0
LINE
  5
301
330
2FD
100
AcDbEntity
  8
Sheet_View_1_Drawing_1
 62
     0
 48
12.69999980926514
370
    -2
100
AcDbLine
 10
136.3753133437041
 20
156.3366014154744
 30
0.0
 11
136.3753133437041
 21
167.7005813671431
 31
0.0
  0
LINE
  5
302
330
2FD
100
AcDbEntity
  8
Sheet_View_1_Drawing_1
 62
     0
 48
12.69999980926514
370
    -2
100
AcDbLine
 10
89.21239164317511
 20
165.4272814476952
 30
0.0
 11
107.6831625124816
 21
165.4272814476952
 31
0.0
  0
LINE
  5
303
330
2FD
100
AcDbEntity
  8
Sheet_View_1_Drawing_1
 62
     0
 48
12.69999980926514
370
    -2
100
AcDbLine
 10
133.5382350442331
 20
165.4272814476952
 30
0.0
 11
115.0674641749267
 21
165.4272814476952
 31
0.0
  0
SOLID
  5
304
330
2FD
100
AcDbEntity
  8
Sheet_View_1_Drawing_1
 62
     0
100
AcDbTrace
 10
89.21239164317511
 20
165.9001278309404
 30
0.0
 11
89.21239164317511
 21
164.9544350644501
 31
0.0
 12
86.37531334370412
 22
165.4272814476952
 32
0.0
 13
86.37531334370412
 23
165.4272814476952
 33
0.0
  0
SOLID
  5
305
330
2FD
100
AcDbEntity
  8
Sheet_View_1_Drawing_1
 62
     0
100
AcDbTrace
 10
133.5382350442331
 20
164.9544350644501
 30
0.0
 11
133.5382350442331
 21
165.9001278309404
 31
0.0
 12
136.3753133437041
 22
165.4272814476952
 32
0.0
 13
136.3753133437041
 23
165.4272814476952
 33
0.0
  0
MTEXT
  5
306
330
2FD
100
AcDbEntity
  8
Sheet_View_1_Drawing_1
 62
     0
100
AcDbMText
 10
111.3753133437041
 20
165.4272814476952
 30
0.0
 40
2.525888919830322
 41
0.0
 46
0.0
 71
     5
 72
     1
  1
100
 73
     1
 44
1.0
  0
POINT
  5
307
330
2FD
100
AcDbEntity
  8
Defpoints
 62
     0
100
AcDbPoint
 10
86.37531334370412
 20
155.4272814476952
 30
0.0
  0
POINT
  5
308
330
2FD
100
AcDbEntity
  8
Defpoints
 62
     0
100
AcDbPoint
 10
136.3753133437041
 20
155.4272814476952
 30
0.0
  0
POINT
  5
309
330
2FD
100
AcDbEntity
  8
Defpoints
 62
     0
100
AcDbPoint
 10
136.3753133437041
 20
165.4272814476952
 30
0.0
  0
ENDBLK
  5
2FF
330
2FD
100
AcDbEntity
  8
0
100
AcDbBlockEnd
  0
BLOCK
  5
30D
330
30C
100
AcDbEntity
  8
0
100
AcDbBlockBegin
  2
*D3
 70
     1
 10
0.0
 20
0.0
 30
0.0
  3
*D3
  1

  0
LINE
  5
30F
330
30C
100
AcDbEntity
  8
Sheet_View_1_Drawing_1
 62
     0
 48
12.69999980926514
370
    -2
100
AcDbLine
 10
85.46599337592497
 20
155.4272814476952
 30
0.0
 11
58.68438175562076
 21
155.4272814476952
 31
0.0
  0
LINE
  5
310
330
30C
100
AcDbEntity
  8
Sheet_View_1_Drawing_1
 62
     0
 48
12.69999980926514
370
    -2
100
AcDbLine
 10
90.96599337592497
 20
124.4272814476952
 30
0.0
 11
58.68438175562076
 21
124.4272814476952
 31
0.0
  0
LINE
  5
311
330
30C
100
AcDbEntity
  8
Sheet_View_1_Drawing_1
 62
     0
 48
12.69999980926514
370
    -2
100
AcDbLine
 10
60.95768167506866
 20
152.5902031482242
 30
0.0
 11
60.95768167506866
 21
142.5369084561333
 31
0.0
  0
LINE
  5
312
330
30C
100
AcDbEntity
  8
Sheet_View_1_Drawing_1
 62
     0
 48
12.69999980926514
370
    -2
100
AcDbLine
 10
60.95768167506866
 20
127.2643597471662
 30
0.0
 11
60.95768167506866
 21
137.3176544392571
 31
0.0
  0
SOLID
  5
313
330
30C
100
AcDbEntity
  8
Sheet_View_1_Drawing_1
 62
     0
100
AcDbTrace
 10
61.43052805831383
 20
152.5902031482242
 30
0.0
 11
60.4848352918235
 21
152.5902031482242
 31
0.0
 12
60.95768167506866
 22
155.4272814476952
 32
0.0
 13
60.95768167506866
 23
155.4272814476952
 33
0.0
  0
SOLID
  5
314
330
30C
100
AcDbEntity
  8
Sheet_View_1_Drawing_1
 62
     0
100
AcDbTrace
 10
60.4848352918235
 20
127.2643597471662
 30
0.0
 11
61.43052805831383
 21
127.2643597471662
 31
0.0
 12
60.95768167506866
 22
124.4272814476952
 32
0.0
 13
60.95768167506866
 23
124.4272814476952
 33
0.0
  0
MTEXT
  5
315
330
30C
100
AcDbEntity
  8
Sheet_View_1_Drawing_1
 62
     0
100
AcDbMText
 10
60.95768167506866
 20
139.9272814476952
 30
0.0
 40
2.525888919830322
 41
0.0
 46
0.0
 71
     5
 72
     1
  1
63
 11
0.0
 21
1.0
 31
0.0
 73
     1
 44
1.0
  0
POINT
  5
316
330
30C
100
AcDbEntity
  8
Defpoints
 62
     0
100
AcDbPoint
 10
86.37531334370412
 20
155.4272814476952
 30
0.0
  0
POINT
  5
317
330
30C
100
AcDbEntity
  8
Defpoints
 62
     0
100
AcDbPoint
 10
91.87531334370412
 20
124.4272814476952
 30
0.0
  0
POINT
  5
318
330
30C
100
AcDbEntity
  8
Defpoints
 62
     0
100
AcDbPoint
 10
60.95768167506866
 20
124.4272814476952
 30
0.0
  0
ENDBLK
  5
30E
330
30C
100
AcDbEntity
  8
0
100
AcDbBlockEnd
  0
BLOCK
  5
31F
330
31E
100
AcDbEntity
  8
0
100
AcDbBlockBegin
  2
*D4
 70
     1
 10
0.0
 20
0.0
 30
0.0
  3
*D4
  1

  0
LINE
  5
321
330
31E
100
AcDbEntity
  8
Sheet_View_1_Drawing_1
 62
     0
 48
12.69999980926514
370
    -2
100
AcDbLine
 10
85.46599337592497
 20
155.4272814476952
 30
0.0
 11
67.42972497525473
 21
155.4272814476952
 31
0.0
  0
LINE
  5
322
330
31E
100
AcDbEntity
  8
Sheet_View_1_Drawing_1
 62
     0
 48
12.69999980926514
370
    -2
100
AcDbLine
 10
82.21599337592495
 20
140.4272814476952
 30
0.0
 11
67.42972497525473
 21
140.4272814476952
 31
0.0
  0
LINE
  5
323
330
31E
100
AcDbEntity
  8
Sheet_View_1_Drawing_1
 62
     0
 48
12.69999980926514
370
    -2
100
AcDbLine
 10
69.70302489470264
 20
152.5902031482242
 30
0.0
 11
69.70302489470264
 21
150.5970486685102
 31
0.0
  0
LINE
  5
324
330
31E
100
AcDbEntity
  8
Sheet_View_1_Drawing_1
 62
     0
 48
12.69999980926514
370
    -2
100
AcDbLine
 10
69.70302489470264
 20
143.2643597471662
 30
0.0
 11
69.70302489470264
 21
145.2575142268802
 31
0.0
  0
SOLID
  5
325
330
31E
100
AcDbEntity
  8
Sheet_View_1_Drawing_1
 62
     0
100
AcDbTrace
 10
70.1758712779478
 20
152.5902031482242
 30
0.0
 11
69.23017851145747
 21
152.5902031482242
 31
0.0
 12
69.70302489470264
 22
155.4272814476952
 32
0.0
 13
69.70302489470264
 23
155.4272814476952
 33
0.0
  0
SOLID
  5
326
330
31E
100
AcDbEntity
  8
Sheet_View_1_Drawing_1
 62
     0
100
AcDbTrace
 10
69.23017851145747
 20
143.2643597471662
 30
0.0
 11
70.1758712779478
 21
143.2643597471662
 31
0.0
 12
69.70302489470264
 22
140.4272814476952
 32
0.0
 13
69.70302489470264
 23
140.4272814476952
 33
0.0
  0
MTEXT
  5
327
330
31E
100
AcDbEntity
  8
Sheet_View_1_Drawing_1
 62
     0
100
AcDbMText
 10
69.70302489470264
 20
147.9272814476952
 30
0.0
 40
2.525888919830322
 41
0.0
 46
0.0
 71
     5
 72
     1
  1
30
 11
0.0
 21
1.0
 31
0.0
 73
     1
 44
1.0
  0
POINT
  5
328
330
31E
100
AcDbEntity
  8
Defpoints
 62
     0
100
AcDbPoint
 10
86.37531334370412
 20
155.4272814476952
 30
0.0
  0
POINT
  5
329
330
31E
100
AcDbEntity
  8
Defpoints
 62
     0
100
AcDbPoint
 10
83.12531334370411
 20
140.4272814476952
 30
0.0
  0
POINT
  5
32A
330
31E
100
AcDbEntity
  8
Defpoints
 62
     0
100
AcDbPoint
 10
69.70302489470264
 20
140.4272814476952
 30
0.0
  0
ENDBLK
  5
320
330
31E
100
AcDbEntity
  8
0
100
AcDbBlockEnd
  0
BLOCK
  5
32E
330
32D
100
AcDbEntity
  8
0
100
AcDbBlockBegin
  2
*D5
 70
     1
 10
0.0
 20
0.0
 30
0.0
  3
*D5
  1

  0
LINE
  5
330
330
32D
100
AcDbEntity
  8
Sheet_View_1_Drawing_1
 62
     0
 48
12.69999980926514
370
    -2
100
AcDbLine
 10
82.87531334370412
 20
139.017961479916
 30
0.0
 11
82.87531334370412
 21
98.54742195698006
 31
0.0
  0
LINE
  5
331
330
32D
100
AcDbEntity
  8
Sheet_View_1_Drawing_1
 62
     0
 48
12.69999980926514
370
    -2
100
AcDbLine
 10
139.8753133437041
 20
139.017961479916
 30
0.0
 11
139.8753133437041
 21
98.54742195698006
 31
0.0
  0
LINE
  5
332
330
32D
100
AcDbEntity
  8
Sheet_View_1_Drawing_1
 62
     0
 48
12.69999980926514
370
    -2
100
AcDbLine
 10
85.71239164317511
 20
100.820721876428
 30
0.0
 11
106.7229572372234
 21
100.820721876428
 31
0.0
  0
LINE
  5
333
330
32D
100
AcDbEntity
  8
Sheet_View_1_Drawing_1
 62
     0
 48
12.69999980926514
370
    -2
100
AcDbLine
 10
137.0382350442331
 20
100.820721876428
 30
0.0
 11
116.7534282442527
 21
100.820721876428
 31
0.0
  0
SOLID
  5
334
330
32D
100
AcDbEntity
  8
Sheet_View_1_Drawing_1
 62
     0
100
AcDbTrace
 10
85.71239164317511
 20
101.2935682596731
 30
0.0
 11
85.71239164317511
 21
100.3478754931828
 31
0.0
 12
82.87531334370412
 22
100.820721876428
 32
0.0
 13
82.87531334370412
 23
100.820721876428
 33
0.0
  0
SOLID
  5
335
330
32D
100
AcDbEntity
  8
Sheet_View_1_Drawing_1
 62
     0
100
AcDbTrace
 10
137.0382350442331
 20
100.3478754931828
 30
0.0
 11
137.0382350442331
 21
101.2935682596731
 31
0.0
 12
139.8753133437041
 22
100.820721876428
 32
0.0
 13
139.8753133437041
 23
100.820721876428
 33
0.0
  0
MTEXT
  5
336
330
32D
100
AcDbEntity
  8
Sheet_View_1_Drawing_1
 62
     0
100
AcDbMText
 10
111.738192740738
 20
100.820721876428
 30
0.0
 40
2.525888919830322
 41
0.0
 46
0.0
 71
     5
 72
     1
  1
%%c115
 73
     1
 44
1.0
  0
POINT
  5
337
330
32D
100
AcDbEntity
  8
Defpoints
 62
     0
100
AcDbPoint
 10
82.87531334370412
 20
139.9272814476952
 30
0.0
  0
POINT
  5
338
330
32D
100
AcDbEntity
  8
Defpoints
 62
     0
100
AcDbPoint
 10
139.8753133437041
 20
139.9272814476952
 30
0.0
  0
POINT
  5
339
330
32D
100
AcDbEntity
  8
Defpoints
 62
     0
100
AcDbPoint
 10
139.8753133437041
 20
100.820721876428
 30
0.0
  0
ENDBLK
  5
32F
330
32D
100
AcDbEntity
  8
0
100
AcDbBlockEnd
  0
BLOCK
  5
33D
330
33C
100
AcDbEntity
  8
0
100
AcDbBlockBegin
  2
*D6
 70
     1
 10
0.0
 20
0.0
 30
0.0
  3
*D6
  1

  0
LINE
  5
33F
330
33C
100
AcDbEntity
  8
Sheet_View_1_Drawing_1
 62
     0
 48
12.69999980926514
370
    -2
100
AcDbLine
 10
87.87531334370411
 20
127.5179614799161
 30
0.0
 11
87.87531334370411
 21
105.6517712703892
 31
0.0
  0
LINE
  5
340
330
33C
100
AcDbEntity
  8
Sheet_View_1_Drawing_1
 62
     0
 48
12.69999980926514
370
    -2
100
AcDbLine
 10
134.8753133437041
 20
127.5179614799161
 30
0.0
 11
134.8753133437041
 21
105.6517712703892
 31
0.0
  0
LINE
  5
341
330
33C
100
AcDbEntity
  8
Sheet_View_1_Drawing_1
 62
     0
 48
12.69999980926514
370
    -2
100
AcDbLine
 10
90.7123916431751
 20
107.9250711898371
 30
0.0
 11
107.5628820877277
 21
107.9250711898371
 31
0.0
  0
LINE
  5
342
330
33C
100
AcDbEntity
  8
Sheet_View_1_Drawing_1
 62
     0
 48
12.69999980926514
370
    -2
100
AcDbLine
 10
132.0382350442331
 20
107.9250711898371
 30
0.0
 11
115.1877445996804
 21
107.9250711898371
 31
0.0
  0
SOLID
  5
343
330
33C
100
AcDbEntity
  8
Sheet_View_1_Drawing_1
 62
     0
100
AcDbTrace
 10
90.7123916431751
 20
108.3979175730822
 30
0.0
 11
90.7123916431751
 21
107.4522248065919
 31
0.0
 12
87.87531334370411
 22
107.9250711898371
 32
0.0
 13
87.87531334370411
 23
107.9250711898371
 33
0.0
  0
SOLID
  5
344
330
33C
100
AcDbEntity
  8
Sheet_View_1_Drawing_1
 62
     0
100
AcDbTrace
 10
132.0382350442331
 20
107.4522248065919
 30
0.0
 11
132.0382350442331
 21
108.3979175730822
 31
0.0
 12
134.8753133437041
 22
107.9250711898371
 32
0.0
 13
134.8753133437041
 23
107.9250711898371
 33
0.0
  0
MTEXT
  5
345
330
33C
100
AcDbEntity
  8
Sheet_View_1_Drawing_1
 62
     0
100
AcDbMText
 10
111.3753133437041
 20
107.9250711898371
 30
0.0
 40
2.525888919830322
 41
0.0
 46
0.0
 71
     5
 72
     1
  1
%%c95
 73
     1
 44
1.0
  0
POINT
  5
346
330
33C
100
AcDbEntity
  8
Defpoints
 62
     0
100
AcDbPoint
 10
87.87531334370411
 20
128.4272814476952
 30
0.0
  0
POINT
  5
347
330
33C
100
AcDbEntity
  8
Defpoints
 62
     0
100
AcDbPoint
 10
134.8753133437041
 20
128.4272814476952
 30
0.0
  0
POINT
  5
348
330
33C
100
AcDbEntity
  8
Defpoints
 62
     0
100
AcDbPoint
 10
134.8753133437041
 20
107.9250711898371
 30
0.0
  0
ENDBLK
  5
33E
330
33C
100
AcDbEntity
  8
0
100
AcDbBlockEnd
  0
BLOCK
  5
34C
330
34B
100
AcDbEntity
  8
0
100
AcDbBlockBegin
  2
*D7
 70
     1
 10
0.0
 20
0.0
 30
0.0
  3
*D7
  1

  0
LINE
  5
34E
330
34B
100
AcDbEntity
  8
Sheet_View_1_Drawing_1
 62
     0
 48
12.69999980926514
370
    -2
100
AcDbLine
 10
98.87531334370406
 20
127.5179614799161
 30
0.0
 11
98.87531334370406
 21
112.8270554831023
 31
0.0
  0
LINE
  5
34F
330
34B
100
AcDbEntity
  8
Sheet_View_1_Drawing_1
 62
     0
 48
12.69999980926514
370
    -2
100
AcDbLine
 10
123.8753133437041
 20
127.5179614799161
 30
0.0
 11
123.8753133437041
 21
112.8270554831023
 31
0.0
  0
LINE
  5
350
330
34B
100
AcDbEntity
  8
Sheet_View_1_Drawing_1
 62
     0
 48
12.69999980926514
370
    -2
100
AcDbLine
 10
101.7123916431751
 20
115.1003554025502
 30
0.0
 11
107.5628820877277
 21
115.1003554025502
 31
0.0
  0
LINE
  5
351
330
34B
100
AcDbEntity
  8
Sheet_View_1_Drawing_1
 62
     0
 48
12.69999980926514
370
    -2
100
AcDbLine
 10
121.0382350442331
 20
115.1003554025502
 30
0.0
 11
115.1877445996804
 21
115.1003554025502
 31
0.0
  0
SOLID
  5
352
330
34B
100
AcDbEntity
  8
Sheet_View_1_Drawing_1
 62
     0
100
AcDbTrace
 10
101.7123916431751
 20
115.5732017857954
 30
0.0
 11
101.7123916431751
 21
114.6275090193051
 31
0.0
 12
98.87531334370406
 22
115.1003554025502
 32
0.0
 13
98.87531334370406
 23
115.1003554025502
 33
0.0
  0
SOLID
  5
353
330
34B
100
AcDbEntity
  8
Sheet_View_1_Drawing_1
 62
     0
100
AcDbTrace
 10
121.0382350442331
 20
114.6275090193051
 30
0.0
 11
121.0382350442331
 21
115.5732017857954
 31
0.0
 12
123.8753133437041
 22
115.1003554025502
 32
0.0
 13
123.8753133437041
 23
115.1003554025502
 33
0.0
  0
MTEXT
  5
354
330
34B
100
AcDbEntity
  8
Sheet_View_1_Drawing_1
 62
     0
100
AcDbMText
 10
111.3753133437041
 20
115.1003554025502
 30
0.0
 40
2.525888919830322
 41
0.0
 46
0.0
 71
     5
 72
     1
  1
%%c50
 73
     1
 44
1.0
  0
POINT
  5
355
330
34B
100
AcDbEntity
  8
Defpoints
 62
     0
100
AcDbPoint
 10
98.87531334370406
 20
128.4272814476952
 30
0.0
  0
POINT
  5
356
330
34B
100
AcDbEntity
  8
Defpoints
 62
     0
100
AcDbPoint
 10
123.8753133437041
 20
128.4272814476952
 30
0.0
  0
POINT
  5
357
330
34B
100
AcDbEntity
  8
Defpoints
 62
     0
100
AcDbPoint
 10
123.8753133437041
 20
115.1003554025502
 30
0.0
  0
ENDBLK
  5
34D
330
34B
100
AcDbEntity
  8
0
100
AcDbBlockEnd
  0
BLOCK
  5
35B
330
35A
100
AcDbEntity
  8
0
100
AcDbBlockBegin
  2
*D8
 70
     1
 10
0.0
 20
0.0
 30
0.0
  3
*D8
  1

  0
LINE
  5
35D
330
35A
100
AcDbEntity
  8
Sheet_View_1_Drawing_1
 62
     0
 48
12.69999980926514
370
    -2
100
AcDbLine
 10
97.46599337592492
 20
148.9272814476952
 30
0.0
 11
74.95913533685334
 21
148.9272814476952
 31
0.0
  0
LINE
  5
35E
330
35A
100
AcDbEntity
  8
Sheet_View_1_Drawing_1
 62
     0
 48
12.69999980926514
370
    -2
100
AcDbLine
 10
90.96599337592505
 20
131.5395329072524
 30
0.0
 11
74.95913533685334
 21
131.5395329072524
 31
0.0
  0
LINE
  5
35F
330
35A
100
AcDbEntity
  8
Sheet_View_1_Drawing_1
 62
     0
 48
12.69999980926514
370
    -2
100
AcDbLine
 10
77.23243525630124
 20
146.0902031482242
 30
0.0
 11
77.23243525630124
 21
140.8470486685102
 31
0.0
  0
LINE
  5
360
330
35A
100
AcDbEntity
  8
Sheet_View_1_Drawing_1
 62
     0
 48
12.69999980926514
370
    -2
100
AcDbLine
 10
77.23243525630124
 20
134.3766112067234
 30
0.0
 11
77.23243525630124
 21
135.5075142268802
 31
0.0
  0
SOLID
  5
361
330
35A
100
AcDbEntity
  8
Sheet_View_1_Drawing_1
 62
     0
100
AcDbTrace
 10
77.70528163954641
 20
146.0902031482242
 30
0.0
 11
76.75958887305607
 21
146.0902031482242
 31
0.0
 12
77.23243525630124
 22
148.9272814476952
 32
0.0
 13
77.23243525630124
 23
148.9272814476952
 33
0.0
  0
SOLID
  5
362
330
35A
100
AcDbEntity
  8
Sheet_View_1_Drawing_1
 62
     0
100
AcDbTrace
 10
76.75958887305607
 20
134.3766112067234
 30
0.0
 11
77.70528163954641
 21
134.3766112067234
 31
0.0
 12
77.23243525630124
 22
131.5395329072524
 32
0.0
 13
77.23243525630124
 23
131.5395329072524
 33
0.0
  0
MTEXT
  5
363
330
35A
100
AcDbEntity
  8
Sheet_View_1_Drawing_1
 62
     0
100
AcDbMText
 10
77.23243525630124
 20
138.1772814476952
 30
0.0
 40
2.525888919830322
 41
0.0
 46
0.0
 71
     5
 72
     1
  1
37
 11
0.0
 21
1.0
 31
0.0
 73
     1
 44
1.0
  0
POINT
  5
364
330
35A
100
AcDbEntity
  8
Defpoints
 62
     0
100
AcDbPoint
 10
98.37531334370408
 20
148.9272814476952
 30
0.0
  0
POINT
  5
365
330
35A
100
AcDbEntity
  8
Defpoints
 62
     0
100
AcDbPoint
 10
91.8753133437042
 20
131.5395329072524
 30
0.0
  0
POINT
  5
366
330
35A
100
AcDbEntity
  8
Defpoints
 62
     0
100
AcDbPoint
 10
77.23243525630124
 20
131.5395329072524
 30
0.0
  0
ENDBLK
  5
35C
330
35A
100
AcDbEntity
  8
0
100
AcDbBlockEnd
  0
BLOCK
  5
36A
330
369
100
AcDbEntity
  8
0
100
AcDbBlockBegin
  2
*D9
 70
     1
 10
0.0
 20
0.0
 30
0.0
  3
*D9
  1

  0
LINE
  5
36C
330
369
100
AcDbEntity
  8
Sheet_View_1_Drawing_1
 62
     0
 48
12.69999980926514
370
    -2
100
AcDbLine
 10
137.2846333114833
 20
155.4272814476952
 30
0.0
 11
146.5829472625477
 21
155.4272814476952
 31
0.0
  0
LINE
  5
36D
330
369
100
AcDbEntity
  8
Sheet_View_1_Drawing_1
 62
     0
 48
12.69999980926514
370
    -2
100
AcDbLine
 10
137.0346333114833
 20
152.9272814476952
 30
0.0
 11
146.5829472625477
 21
152.9272814476952
 31
0.0
  0
LINE
  5
36E
330
369
100
AcDbEntity
  8
Sheet_View_1_Drawing_1
 62
     0
 48
12.69999980926514
370
    -2
100
AcDbLine
 10
144.3096473430998
 20
155.4272814476952
 30
0.0
 11
144.3096473430998
 21
161.1014380466372
 31
0.0
  0
LINE
  5
36F
330
369
100
AcDbEntity
  8
Sheet_View_1_Drawing_1
 62
     0
 48
12.69999980926514
370
    -2
100
AcDbLine
 10
144.3096473430998
 20
155.4272814476952
 30
0.0
 11
144.3096473430998
 21
152.9272814476952
 31
0.0
  0
LINE
  5
370
330
369
100
AcDbEntity
  8
Sheet_View_1_Drawing_1
 62
     0
 48
12.69999980926514
370
    -2
100
AcDbLine
 10
144.3096473430998
 20
158.2643597471662
 30
0.0
 11
144.3096473430998
 21
161.1014380466372
 31
0.0
  0
LINE
  5
371
330
369
100
AcDbEntity
  8
Sheet_View_1_Drawing_1
 62
     0
 48
12.69999980926514
370
    -2
100
AcDbLine
 10
144.3096473430998
 20
150.0902031482242
 30
0.0
 11
144.3096473430998
 21
147.2531248487533
 31
0.0
  0
SOLID
  5
372
330
369
100
AcDbEntity
  8
Sheet_View_1_Drawing_1
 62
     0
100
AcDbTrace
 10
143.8368009598546
 20
158.2643597471662
 30
0.0
 11
144.7824937263449
 21
158.2643597471662
 31
0.0
 12
144.3096473430998
 22
155.4272814476952
 32
0.0
 13
144.3096473430998
 23
155.4272814476952
 33
0.0
  0
SOLID
  5
373
330
369
100
AcDbEntity
  8
Sheet_View_1_Drawing_1
 62
     0
100
AcDbTrace
 10
144.7824937263449
 20
150.0902031482242
 30
0.0
 11
143.8368009598546
 21
150.0902031482242
 31
0.0
 12
144.3096473430998
 22
152.9272814476952
 32
0.0
 13
144.3096473430998
 23
152.9272814476952
 33
0.0
  0
MTEXT
  5
374
330
369
100
AcDbEntity
  8
Sheet_View_1_Drawing_1
 62
     0
100
AcDbMText
 10
144.3096473430998
 20
162.5684010199139
 30
0.0
 40
2.525888919830322
 41
0.0
 46
0.0
 71
     5
 72
     1
  1
5
 11
0.0
 21
1.0
 31
0.0
 73
     1
 44
1.0
  0
POINT
  5
375
330
369
100
AcDbEntity
  8
Defpoints
 62
     0
100
AcDbPoint
 10
136.3753133437041
 20
155.4272814476952
 30
0.0
  0
POINT
  5
376
330
369
100
AcDbEntity
  8
Defpoints
 62
     0
100
AcDbPoint
 10
136.1253133437041
 20
152.9272814476952
 30
0.0
  0
POINT
  5
377
330
369
100
AcDbEntity
  8
Defpoints
 62
     0
100
AcDbPoint
 10
144.3096473430998
 20
152.9272814476952
 30
0.0
  0
ENDBLK
  5
36B
330
369
100
AcDbEntity
  8
0
100
AcDbBlockEnd
  0
ENDSEC
  0
SECTION
  2
ENTITIES
  0
LINE
  5
84
330
1F
100
AcDbEntity
  8
Sheet_View_1_Title_Block_1
 62
    18
420
        0
 48
25.39999961853027
100
AcDbLine
 10
12.80000000066
 20
291.99999999934
 30
0.0
 11
12.80000000066
 21
4.999999999979999
 31
0.0
  0
LINE
  5
85
330
1F
100
AcDbEntity
  8
Sheet_View_1_Title_Block_1
 62
    18
420
        0
 48
25.39999961853027
100
AcDbLine
 10
17.80000000064
 20
48.50000000006
 30
0.0
 11
12.80000000066
 21
48.50000000006
 31
0.0
  0
LINE
  5
86
330
1F
100
AcDbEntity
  8
Sheet_View_1_Title_Block_1
 62
    18
420
        0
 48
25.39999961853027
100
AcDbLine
 10
12.80000000066
 20
4.999999999979999
 30
0.0
 11
17.80000000064
 21
4.999999999979999
 31
0.0
  0
LINE
  5
87
330
1F
100
AcDbEntity
  8
Sheet_View_1_Title_Block_1
 62
    18
420
        0
 48
25.39999961853027
370
    30
100
AcDbLine
 10
17.80000000064
 20
291.99999999934
 30
0.0
 11
17.80000000064
 21
4.999999999979999
 31
0.0
  0
LINE
  5
88
330
1F
100
AcDbEntity
  8
Sheet_View_1_Title_Block_1
 62
    18
420
        0
 48
25.39999961853027
370
    30
100
AcDbLine
 10
204.99999999918
 20
4.999999999979999
 30
0.0
 11
204.99999999918
 21
291.99999999934
 31
0.0
  0
LINE
  5
89
330
1F
100
AcDbEntity
  8
Sheet_View_1_Title_Block_1
 62
    18
420
        0
 48
25.39999961853027
370
    30
100
AcDbLine
 10
204.99999999918
 20
291.99999999934
 30
0.0
 11
17.80000000064
 21
291.99999999934
 31
0.0
  0
LINE
  5
8A
330
1F
100
AcDbEntity
  8
Sheet_View_1_Title_Block_1
 62
    18
420
        0
 48
25.39999961853027
100
AcDbLine
 10
12.80000000066
 20
98.49999999986
 30
0.0
 11
17.80000000064
 21
98.49999999986
 31
0.0
  0
LINE
  5
8B
330
1F
100
AcDbEntity
  8
Sheet_View_1_Title_Block_1
 62
    18
420
        0
 48
25.39999961853027
100
AcDbLine
 10
12.80000000066
 20
198.49999999946
 30
0.0
 11
17.80000000064
 21
198.49999999946
 31
0.0
  0
LINE
  5
8C
330
1F
100
AcDbEntity
  8
Sheet_View_1_Title_Block_1
 62
    18
420
        0
 48
25.39999961853027
100
AcDbLine
 10
17.80000000064
 20
248.49999999926
 30
0.0
 11
12.80000000066
 21
248.49999999926
 31
0.0
  0
LINE
  5
8D
330
1F
100
AcDbEntity
  8
Sheet_View_1_Title_Block_1
 62
    18
420
        0
 48
25.39999961853027
100
AcDbLine
 10
58.90000000012
 20
291.99999999934
 30
0.0
 11
58.90000000012
 21
296.99999999932
 31
0.0
  0
LINE
  5
8E
330
1F
100
AcDbEntity
  8
Sheet_View_1_Title_Block_1
 62
    18
420
        0
 48
25.39999961853027
100
AcDbLine
 10
158.89999999972
 20
291.99999999934
 30
0.0
 11
158.89999999972
 21
296.99999999932
 31
0.0
  0
LINE
  5
8F
330
1F
100
AcDbEntity
  8
Sheet_View_1_Title_Block_1
 62
    18
420
        0
 48
25.39999961853027
100
AcDbLine
 10
17.80000000064
 20
291.99999999934
 30
0.0
 11
12.80000000066
 21
291.99999999934
 31
0.0
  0
LINE
  5
90
330
1F
100
AcDbEntity
  8
Sheet_View_1_Title_Block_1
 62
    18
420
        0
 48
25.39999961853027
100
AcDbLine
 10
17.80000000064
 20
291.99999999934
 30
0.0
 11
17.80000000064
 21
296.99999999932
 31
0.0
  0
LINE
  5
91
330
1F
100
AcDbEntity
  8
Sheet_View_1_Title_Block_1
 62
    18
420
        0
 48
25.39999961853027
100
AcDbLine
 10
204.99999999918
 20
291.99999999934
 30
0.0
 11
204.99999999918
 21
296.99999999932
 31
0.0
  0
LINE
  5
92
330
1F
100
AcDbEntity
  8
Sheet_View_1_Title_Block_1
 62
    18
420
        0
 48
25.39999961853027
100
AcDbLine
 10
108.89999999992
 20
296.99999999932
 30
0.0
 11
108.89999999992
 21
286.99999999936
 31
0.0
  0
LINE
  5
93
330
1F
100
AcDbEntity
  8
Sheet_View_1_Title_Block_1
 62
    18
420
        0
 48
25.39999961853027
100
AcDbLine
 10
12.80000000066
 20
148.49999999966
 30
0.0
 11
22.80000000062
 21
148.49999999966
 31
0.0
  0
TEXT
  5
95
330
1F
100
AcDbEntity
  8
Sheet_View_1_Title_Block_1
 62
    18
420
        0
 48
25.39999961853027
100
AcDbText
 10
14.46666666732
 20
172.89792066524
 30
0.0
 40
1.326091647148132
  1
C
  7
text79153
100
AcDbText
  0
TEXT
  5
97
330
1F
100
AcDbEntity
  8
Sheet_View_1_Title_Block_1
 62
    18
420
        0
 48
25.39999961853027
100
AcDbText
 10
83.0666696677
 20
293.89792466678
 30
0.0
 40
1.326091647148132
  1
2
  7
text79156
100
AcDbText
  0
TEXT
  5
99
330
1F
100
AcDbEntity
  8
Sheet_View_1_Title_Block_1
 62
    18
420
        0
 48
25.39999961853027
100
AcDbText
 10
133.0666696675
 20
293.89792466678
 30
0.0
 40
1.326091647148132
  1
3
  7
text79159
100
AcDbText
  0
TEXT
  5
9B
330
1F
100
AcDbEntity
  8
Sheet_View_1_Title_Block_1
 62
    18
420
        0
 48
25.39999961853027
100
AcDbText
 10
33.48333633266
 20
293.89792466678
 30
0.0
 40
1.326091647148132
  1
1
  7
text79162
100
AcDbText
  0
TEXT
  5
9D
330
1F
100
AcDbEntity
  8
Sheet_View_1_Title_Block_1
 62
    18
420
        0
 48
25.39999961853027
100
AcDbText
 10
183.06666066554
 20
293.89792466678
 30
0.0
 40
1.326091647148132
  1
4
  7
text79165
100
AcDbText
  0
TEXT
  5
9F
330
1F
100
AcDbEntity
  8
Sheet_View_1_Title_Block_1
 62
    18
420
        0
 48
25.39999961853027
100
AcDbText
 10
14.46666666732
 20
222.89792066504
 30
0.0
 40
1.326091647148132
  1
B
  7
text79168
100
AcDbText
  0
TEXT
  5
A1
330
1F
100
AcDbEntity
  8
Sheet_View_1_Title_Block_1
 62
    18
420
        0
 48
25.39999961853027
100
AcDbText
 10
14.46666666732
 20
272.89792066484
 30
0.0
 40
1.326091647148132
  1
A
  7
text79171
100
AcDbText
  0
TEXT
  5
A3
330
1F
100
AcDbEntity
  8
Sheet_View_1_Title_Block_1
 62
    18
420
        0
 48
25.39999961853027
100
AcDbText
 10
14.46666666732
 20
122.89792066544
 30
0.0
 40
1.326091647148132
  1
D
  7
text79174
100
AcDbText
  0
TEXT
  5
A5
330
1F
100
AcDbEntity
  8
Sheet_View_1_Title_Block_1
 62
    18
420
        0
 48
25.39999961853027
100
AcDbText
 10
14.46666666732
 20
72.89792066564
 30
0.0
 40
1.326091647148132
  1
E
  7
text79177
100
AcDbText
  0
TEXT
  5
A7
330
1F
100
AcDbEntity
  8
Sheet_View_1_Title_Block_1
 62
    18
420
        0
 48
25.39999961853027
100
AcDbText
 10
14.46666666732
 20
22.89792066584
 30
0.0
 40
1.326091647148132
  1
F
  7
text79180
100
AcDbText
  0
ARC
  5
A8
330
1F
100
AcDbEntity
  8
Sheet_View_1_Drawing_1
 62
    18
420
        0
 48
25.39999961853027
370
    50
100
AcDbCircle
 10
87.46883610244763
 20
211.1802037842538
 30
0.0
 40
0.999999999999998
100
AcDbArc
 50
179.9999999999994
 51
225.0000000000006
  0
LINE
  5
A9
330
1F
100
AcDbEntity
  8
Sheet_View_1_Drawing_1
 62
    18
420
        0
 48
25.39999961853027
370
    50
100
AcDbLine
 10
94.6973661324356
 20
227.2292418899306
 30
0.0
 11
100.7595439589267
 21
230.7292418899306
 31
0.0
  0
ARC
  5
AA
330
1F
100
AcDbEntity
  8
Sheet_View_1_Drawing_1
 62
    18
420
        0
 48
25.39999961853027
370
    50
100
AcDbCircle
 10
111.4688361024476
 20
235.1802037842538
 30
0.0
 40
19.5
100
AcDbArc
 50
179.9999999999994
 51
183.373042607294
  0
LINE
  5
AB
330
1F
100
AcDbEntity
  8
Sheet_View_1_Drawing_1
 62
    18
420
        0
 48
25.39999961853027
370
    50
100
AcDbLine
 10
115.9197979967711
 20
245.889495927775
 30
0.0
 11
119.4197979967711
 21
251.951673754266
 31
0.0
  0
ARC
  5
AC
330
1F
100
AcDbEntity
  8
Sheet_View_1_Drawing_1
 62
    18
420
        0
 48
25.39999961853027
370
    50
100
AcDbCircle
 10
111.4688361024476
 20
235.1802037842538
 30
0.0
 40
19.50000000000001
100
AcDbArc
 50
236.6269369340973
 51
243.3731119896005
  0
LINE
  5
AD
330
1F
100
AcDbEntity
  8
Sheet_View_1_Drawing_1
 62
    18
420
        0
 48
25.39999961853027
370
    50
100
AcDbLine
 10
118.5178742081244
 20
225.9709116407329
 30
0.0
 11
122.0178742081244
 21
219.9087338142418
 31
0.0
  0
ARC
  5
AE
330
1F
100
AcDbEntity
  8
Sheet_View_1_Drawing_1
 62
    18
420
        0
 48
25.39999961853027
370
    50
100
AcDbCircle
 10
111.4688361024476
 20
235.1802037842538
 30
0.0
 40
19.50000000000003
100
AcDbArc
 50
296.6269461734398
 51
303.3732313139709
  0
LINE
  5
AF
330
1F
100
AcDbEntity
  8
Sheet_View_1_Drawing_1
 62
    18
420
        0
 48
25.39999961853027
370
    50
100
AcDbLine
 10
96.19736613243562
 20
245.7292418899306
 30
0.0
 11
102.2595439589267
 21
242.2292418899306
 31
0.0
  0
ARC
  5
B0
330
1F
100
AcDbEntity
  8
Sheet_View_1_Drawing_1
 62
    18
420
        0
 48
25.39999961853027
370
    50
100
AcDbCircle
 10
111.4688361024476
 20
235.1802037842538
 30
0.0
 40
19.5
100
AcDbArc
 50
176.6268288288419
 51
179.9999999999994
  0
LINE
  5
B1
330
1F
100
AcDbEntity
  8
Sheet_View_1_Drawing_1
 62
    18
420
        0
 48
25.39999961853027
370
    50
100
AcDbLine
 10
120.6781282459688
 20
242.2292418899306
 30
0.0
 11
126.7403060724598
 21
245.7292418899306
 31
0.0
  0
ARC
  5
B2
330
1F
100
AcDbEntity
  8
Sheet_View_1_Drawing_1
 62
    18
420
        0
 48
25.39999961853027
370
    50
100
AcDbCircle
 10
111.4688361024476
 20
235.1802037842538
 30
0.0
 40
28.50000000000001
100
AcDbArc
 50
151.3055409486769
 51
179.9999999999994
  0
LINE
  5
B3
330
1F
100
AcDbEntity
  8
Sheet_View_1_Drawing_1
 62
    18
420
        0
 48
25.39999961853027
370
    50
100
AcDbLine
 10
122.1781282459688
 20
230.7292418899306
 30
0.0
 11
128.2403060724598
 21
227.2292418899306
 31
0.0
  0
ARC
  5
B4
330
1F
100
AcDbEntity
  8
Sheet_View_1_Drawing_1
 62
    18
420
        0
 48
25.39999961853027
370
    50
100
AcDbCircle
 10
111.4688361024476
 20
235.1802037842538
 30
0.0
 40
28.49999999999999
100
AcDbArc
 50
331.3056319978003
 51
359.9999999999994
  0
ARC
  5
B5
330
1F
100
AcDbEntity
  8
Sheet_View_1_Drawing_1
 62
    18
420
        0
 48
25.39999961853027
370
    50
100
AcDbCircle
 10
111.4688361024477
 20
242.6802037842539
 30
0.0
 40
1.5
100
AcDbArc
 50
179.9999999999978
 51
0.000000000000573
  0
ARC
  5
B6
330
1F
100
AcDbEntity
  8
Sheet_View_1_Drawing_1
 62
    18
420
        0
 48
25.39999961853027
370
    50
100
AcDbCircle
 10
111.4688361024476
 20
235.1802037842538
 30
0.0
 40
28.49999999999997
100
AcDbArc
 50
61.30563124738984
 51
118.6943687526103
  0
ARC
  5
B7
330
1F
100
AcDbEntity
  8
Sheet_View_1_Drawing_1
 62
    18
420
        0
 48
25.39999961853027
370
    50
100
AcDbCircle
 10
118.9688361024477
 20
235.1802037842539
 30
0.0
 40
1.500000000000028
100
AcDbArc
 50
180.0000000000011
 51
270.0
  0
ARC
  5
B8
330
1F
100
AcDbEntity
  8
Sheet_View_1_Drawing_1
 62
    18
420
        0
 48
25.39999961853027
370
    50
100
AcDbCircle
 10
111.4688361024476
 20
235.1802037842538
 30
0.0
 40
28.25000000000001
100
AcDbArc
 50
179.9999999999994
 51
207.7539699332813
  0
ARC
  5
B9
330
1F
100
AcDbEntity
  8
Sheet_View_1_Drawing_1
 62
    18
420
        0
 48
25.39999961853027
370
    50
100
AcDbCircle
 10
111.4688361024477
 20
216.680203784254
 30
0.0
 40
1.5
100
AcDbArc
 50
179.9999999999994
 51
0.000000000000573
  0
ARC
  5
BA
330
1F
100
AcDbEntity
  8
Sheet_View_1_Drawing_1
 62
    18
420
        0
 48
25.39999961853027
370
    50
100
AcDbCircle
 10
111.4688361024476
 20
235.1802037842538
 30
0.0
 40
28.24999999999998
100
AcDbArc
 50
359.9999999999994
 51
27.75387677818679
  0
ARC
  5
BB
330
1F
100
AcDbEntity
  8
Sheet_View_1_Drawing_1
 62
    18
420
        0
 48
25.39999961853027
370
    50
100
AcDbCircle
 10
105.7188361024477
 20
225.2209116407329
 30
0.0
 40
1.5
100
AcDbArc
 50
330.0000000000006
 51
0.000000000000573
  0
ARC
  5
BC
330
1F
100
AcDbEntity
  8
Sheet_View_1_Drawing_1
 62
    18
420
        0
 48
25.39999961853027
370
    50
100
AcDbCircle
 10
111.4688361024476
 20
235.1802037842538
 30
0.0
 40
28.25
100
AcDbArc
 50
242.2460308344841
 51
297.7539691655161
  0
ARC
  5
BD
330
1F
100
AcDbEntity
  8
Sheet_View_1_Drawing_1
 62
    18
420
        0
 48
25.39999961853027
370
    50
100
AcDbCircle
 10
95.44736613243562
 20
225.9302037842539
 30
0.0
 40
1.500000000000014
100
AcDbArc
 50
120.0000000000009
 51
179.9999999999994
  0
ARC
  5
BE
330
1F
100
AcDbEntity
  8
Sheet_View_1_Drawing_1
 62
    18
420
        0
 48
25.39999961853027
370
    50
100
AcDbCircle
 10
111.4688361024477
 20
235.1802037842539
 30
0.0
 40
19.50000000000002
100
AcDbArc
 50
116.6268189073635
 51
123.3731496325192
  0
ARC
  5
BF
330
1F
100
AcDbEntity
  8
Sheet_View_1_Drawing_1
 62
    18
420
        0
 48
25.39999961853027
370
    50
100
AcDbCircle
 10
121.4281282459688
 20
229.4302037842539
 30
0.0
 40
1.499999999999993
100
AcDbArc
 50
180.0000000000011
 51
240.0000000000004
  0
ARC
  5
C0
330
1F
100
AcDbEntity
  8
Sheet_View_1_Drawing_1
 62
    18
420
        0
 48
25.39999961853027
370
    50
100
AcDbCircle
 10
111.4688361024477
 20
235.1802037842539
 30
0.0
 40
19.5
100
AcDbArc
 50
179.9999999999994
 51
183.373140780609
  0
ARC
  5
C1
330
1F
100
AcDbEntity
  8
Sheet_View_1_Drawing_1
 62
    18
420
        0
 48
25.39999961853027
370
    50
100
AcDbCircle
 10
117.2188361024477
 20
245.139495927775
 30
0.0
 40
1.499999999999988
100
AcDbArc
 50
179.9999999999957
 51
329.9999999999998
  0
ARC
  5
C2
330
1F
100
AcDbEntity
  8
Sheet_View_1_Drawing_1
 62
    18
420
        0
 48
25.39999961853027
370
    50
100
AcDbCircle
 10
111.4688361024477
 20
235.1802037842539
 30
0.0
 40
19.50000000000002
100
AcDbArc
 50
266.6268592495387
 51
273.373163920668
  0
ARC
  5
C3
330
1F
100
AcDbEntity
  8
Sheet_View_1_Drawing_1
 62
    18
420
        0
 48
25.39999961853027
370
    50
100
AcDbCircle
 10
101.5095439589267
 20
229.4302037842539
 30
0.0
 40
1.500000000000025
100
AcDbArc
 50
0.000000000000573
 51
119.9999999999995
  0
ARC
  5
C4
330
1F
100
AcDbEntity
  8
Sheet_View_1_Drawing_1
 62
    18
420
        0
 48
25.39999961853027
370
    50
100
AcDbCircle
 10
111.4688361024477
 20
235.1802037842539
 30
0.0
 40
19.50000000000001
100
AcDbArc
 50
146.6268260603516
 51
153.3731426193219
  0
ARC
  5
C5
330
1F
100
AcDbEntity
  8
Sheet_View_1_Drawing_1
 62
    18
420
        0
 48
25.39999961853027
370
    50
100
AcDbCircle
 10
95.44736613243562
 20
244.430203784254
 30
0.0
 40
1.500000000000032
100
AcDbArc
 50
179.9999999999994
 51
240.0000000000001
  0
ARC
  5
C6
330
1F
100
AcDbEntity
  8
Sheet_View_1_Drawing_1
 62
    18
420
        0
 48
25.39999961853027
370
    50
100
AcDbCircle
 10
111.4688361024477
 20
235.1802037842539
 30
0.0
 40
19.50000000000001
100
AcDbArc
 50
0.000000000000573
 51
3.373183081065229
  0
ARC
  5
C7
330
1F
100
AcDbEntity
  8
Sheet_View_1_Drawing_1
 62
    18
420
        0
 48
25.39999961853027
370
    50
100
AcDbCircle
 10
111.4688361024477
 20
227.6802037842539
 30
0.0
 40
1.5
100
AcDbArc
 50
359.9999999999989
 51
179.9999999999989
  0
ARC
  5
C8
330
1F
100
AcDbEntity
  8
Sheet_View_1_Drawing_1
 62
    18
420
        0
 48
25.39999961853027
370
    50
100
AcDbCircle
 10
111.4688361024477
 20
235.1802037842539
 30
0.0
 40
19.5
100
AcDbArc
 50
296.6268572308969
 51
303.3731742292251
  0
ARC
  5
C9
330
1F
100
AcDbEntity
  8
Sheet_View_1_Drawing_1
 62
    18
420
        0
 48
25.39999961853027
370
    50
100
AcDbCircle
 10
103.9688361024477
 20
235.1802037842539
 30
0.0
 40
1.5
100
AcDbArc
 50
270.0
 51
0.000000000000573
  0
ARC
  5
CA
330
1F
100
AcDbEntity
  8
Sheet_View_1_Drawing_1
 62
    18
420
        0
 48
25.39999961853027
370
    50
100
AcDbCircle
 10
111.4688361024477
 20
235.1802037842539
 30
0.0
 40
19.5
100
AcDbArc
 50
206.6268472407897
 51
213.3731446090855
  0
ARC
  5
CB
330
1F
100
AcDbEntity
  8
Sheet_View_1_Drawing_1
 62
    18
420
        0
 48
25.39999961853027
370
    50
100
AcDbCircle
 10
120.7188361024477
 20
219.1587338142418
 30
0.0
 40
1.500000000000027
100
AcDbArc
 50
0.000000000000573
 51
30.00000000000067
  0
ARC
  5
CC
330
1F
100
AcDbEntity
  8
Sheet_View_1_Drawing_1
 62
    18
420
        0
 48
25.39999961853027
370
    50
100
AcDbCircle
 10
111.4688361024477
 20
235.1802037842539
 30
0.0
 40
15.84862297099066
100
AcDbArc
 50
114.5690821091605
 51
125.4309090185508
  0
ARC
  5
CD
330
1F
100
AcDbEntity
  8
Sheet_View_1_Drawing_1
 62
    18
420
        0
 48
25.39999961853027
370
    50
100
AcDbCircle
 10
121.4281282459688
 20
240.9302037842539
 30
0.0
 40
1.499999999999993
100
AcDbArc
 50
179.9999999999994
 51
299.9999999999995
  0
ARC
  5
CE
330
1F
100
AcDbEntity
  8
Sheet_View_1_Drawing_1
 62
    18
420
        0
 48
25.39999961853027
370
    50
100
AcDbCircle
 10
111.4688361024477
 20
235.1802037842539
 30
0.0
 40
15.84862297099063
100
AcDbArc
 50
179.9999999999994
 51
185.4309102413547
  0
ARC
  5
CF
330
1F
100
AcDbEntity
  8
Sheet_View_1_Drawing_1
 62
    18
420
        0
 48
25.39999961853027
370
    50
100
AcDbCircle
 10
101.5095439589267
 20
240.9302037842539
 30
0.0
 40
1.500000000000025
100
AcDbArc
 50
0.0000000000010856
 51
60.00000000000055
  0
ARC
  5
D0
330
1F
100
AcDbEntity
  8
Sheet_View_1_Drawing_1
 62
    18
420
        0
 48
25.39999961853027
370
    50
100
AcDbCircle
 10
111.4688361024477
 20
235.1802037842539
 30
0.0
 40
15.84862297099061
100
AcDbArc
 50
234.5690877681089
 51
245.4309146774992
  0
ARC
  5
D1
330
1F
100
AcDbEntity
  8
Sheet_View_1_Drawing_1
 62
    18
420
        0
 48
25.39999961853027
370
    50
100
AcDbCircle
 10
117.2188361024477
 20
225.2209116407329
 30
0.0
 40
1.499999999999988
100
AcDbArc
 50
180.0000000000011
 51
210.0000000000003
  0
ARC
  5
D2
330
1F
100
AcDbEntity
  8
Sheet_View_1_Drawing_1
 62
    18
420
        0
 48
25.39999961853027
370
    50
100
AcDbCircle
 10
111.4688361024477
 20
235.1802037842539
 30
0.0
 40
15.84862297099063
100
AcDbArc
 50
324.5690909617367
 51
335.430917871127
  0
ARC
  5
D3
330
1F
100
AcDbEntity
  8
Sheet_View_1_Drawing_1
 62
    18
420
        0
 48
25.39999961853027
370
    50
100
AcDbCircle
 10
117.2188361024477
 20
225.2209116407329
 30
0.0
 40
1.5
100
AcDbArc
 50
30.0
 51
179.9999999999994
  0
ARC
  5
D4
330
1F
100
AcDbEntity
  8
Sheet_View_1_Drawing_1
 62
    18
420
        0
 48
25.39999961853027
370
    50
100
AcDbCircle
 10
111.4688361024477
 20
235.1802037842539
 30
0.0
 40
15.84862297099063
100
AcDbArc
 50
0.000000000000573
 51
5.430916668035198
  0
ARC
  5
D5
330
1F
100
AcDbEntity
  8
Sheet_View_1_Drawing_1
 62
    18
420
        0
 48
25.39999961853027
370
    50
100
AcDbCircle
 10
101.5095439589267
 20
229.4302037842539
 30
0.0
 40
1.499999999999986
100
AcDbArc
 50
299.9999999999996
 51
0.000000000000573
  0
ARC
  5
D6
330
1F
100
AcDbEntity
  8
Sheet_View_1_Drawing_1
 62
    18
420
        0
 48
25.39999961853027
370
    50
100
AcDbCircle
 10
111.4688361024477
 20
235.1802037842539
 30
0.0
 40
15.84862297099063
100
AcDbArc
 50
264.5690898125003
 51
275.4309167218906
  0
ARC
  5
D7
330
1F
100
AcDbEntity
  8
Sheet_View_1_Drawing_1
 62
    18
420
        0
 48
25.39999961853027
370
    50
100
AcDbCircle
 10
95.44736613243562
 20
244.430203784254
 30
0.0
 40
1.5
100
AcDbArc
 50
60.00000000000109
 51
179.9999999999994
  0
ARC
  5
D8
330
1F
100
AcDbEntity
  8
Sheet_View_1_Drawing_1
 62
    18
420
        0
 48
25.39999961853027
370
    50
100
AcDbCircle
 10
111.4688361024477
 20
235.1802037842539
 30
0.0
 40
15.84862297099064
100
AcDbArc
 50
144.5690821288729
 51
155.4309090382631
  0
ARC
  5
D9
330
1F
100
AcDbEntity
  8
Sheet_View_1_Drawing_1
 62
    18
420
        0
 48
25.39999961853027
370
    50
100
AcDbCircle
 10
105.7188361024477
 20
245.139495927775
 30
0.0
 40
1.5
100
AcDbArc
 50
210.0
 51
0.000000000000573
  0
ARC
  5
DA
330
1F
100
AcDbEntity
  8
Sheet_View_1_Drawing_1
 62
    18
420
        0
 48
25.39999961853027
370
    50
100
AcDbCircle
 10
111.4688361024477
 20
235.1802037842539
 30
0.0
 40
6.999999999999991
100
AcDbArc
 50
78.79918019076607
 51
101.2008144960905
  0
ARC
  5
DB
330
1F
100
AcDbEntity
  8
Sheet_View_1_Drawing_1
 62
    18
420
        0
 48
25.39999961853027
370
    50
100
AcDbCircle
 10
127.4903060724598
 20
244.430203784254
 30
0.0
 40
1.499999999999975
100
AcDbArc
 50
359.9999999999989
 51
120.0000000000006
  0
ARC
  5
DC
330
1F
100
AcDbEntity
  8
Sheet_View_1_Drawing_1
 62
    18
420
        0
 48
25.39999961853027
370
    50
100
AcDbCircle
 10
111.4688361024477
 20
235.1802037842539
 30
0.0
 40
6.999999999999995
100
AcDbArc
 50
0.000000000000573
 51
11.20081974504796
  0
ARC
  5
DD
330
1F
100
AcDbEntity
  8
Sheet_View_1_Drawing_1
 62
    18
420
        0
 48
25.39999961853027
370
    50
100
AcDbCircle
 10
101.5095439589267
 20
240.9302037842539
 30
0.0
 40
1.499999999999986
100
AcDbArc
 50
239.9999999999994
 51
0.000000000000573
  0
ARC
  5
DE
330
1F
100
AcDbEntity
  8
Sheet_View_1_Drawing_1
 62
    18
420
        0
 48
25.39999961853027
370
    50
100
AcDbCircle
 10
111.4688361024477
 20
235.1802037842539
 30
0.0
 40
7.000000000000014
100
AcDbArc
 50
348.7991854805157
 51
0.000000000000573
  0
ARC
  5
DF
330
1F
100
AcDbEntity
  8
Sheet_View_1_Drawing_1
 62
    18
420
        0
 48
25.39999961853027
370
    50
100
AcDbCircle
 10
105.7188361024477
 20
225.2209116407329
 30
0.0
 40
1.500000000000014
100
AcDbArc
 50
0.000000000000573
 51
149.9999999999991
  0
LINE
  5
E0
330
1F
100
AcDbEntity
  8
Sheet_View_1_Drawing_1
 62
    18
420
        0
 48
25.39999961853027
370
    50
100
AcDbLine
 10
103.2548050277255
 20
234.6802037842539
 30
0.0
 11
103.2548050277255
 21
235.680203784254
 31
0.0
  0
CIRCLE
  5
E1
330
1F
100
AcDbEntity
  8
Sheet_View_1_Drawing_1
 62
    18
420
        0
 48
25.39999961853027
370
    50
100
AcDbCircle
 10
-111.4688361024477
 20
235.1802037842539
 30
0.0
 40
20.5
210
0.0
220
0.0
230
-1.0
  0
LINE
  5
E2
330
1F
100
AcDbEntity
  8
Sheet_View_1_Drawing_1
 62
    18
420
        0
 48
25.39999961853027
370
    50
100
AcDbLine
 10
119.6828671771699
 20
234.6802037842539
 30
0.0
 11
119.6828671771699
 21
235.680203784254
 31
0.0
  0
ARC
  5
E3
330
1F
100
AcDbEntity
  8
Sheet_View_1_Drawing_1
 62
    18
420
        0
 48
25.39999961853027
370
    50
100
AcDbCircle
 10
121.4281282459688
 20
240.9302037842539
 30
0.0
 40
1.5
100
AcDbArc
 50
120.0000000000005
 51
179.9999999999994
  0
LINE
  5
E4
330
1F
100
AcDbEntity
  8
Sheet_View_1_Drawing_1
 62
    18
420
        0
 48
25.39999961853027
370
    50
100
AcDbLine
 10
103.2548050277255
 20
235.680203784254
 30
0.0
 11
95.75480502772554
 21
236.0052037842539
 31
0.0
  0
ARC
  5
E5
330
1F
100
AcDbEntity
  8
Sheet_View_1_Drawing_1
 62
    18
420
        0
 48
25.39999961853027
370
    50
100
AcDbCircle
 10
102.2188361024477
 20
219.1587338142418
 30
0.0
 40
1.499999999999986
100
AcDbArc
 50
180.0000000000011
 51
330.000000000001
  0
LINE
  5
E6
330
1F
100
AcDbEntity
  8
Sheet_View_1_Drawing_1
 62
    18
420
        0
 48
25.39999961853027
370
    50
100
AcDbLine
 10
119.6828671771699
 20
235.680203784254
 30
0.0
 11
127.1828671771699
 21
236.0052037842539
 31
0.0
  0
ARC
  5
E7
330
1F
100
AcDbEntity
  8
Sheet_View_1_Drawing_1
 62
    18
420
        0
 48
25.39999961853027
370
    50
100
AcDbCircle
 10
102.2188361024477
 20
219.1587338142418
 30
0.0
 40
1.499999999999986
100
AcDbArc
 50
150.0000000000005
 51
179.9999999999994
  0
LINE
  5
E8
330
1F
100
AcDbEntity
  8
Sheet_View_1_Drawing_1
 62
    18
420
        0
 48
25.39999961853027
370
    50
100
AcDbLine
 10
119.4197979967711
 20
218.4087338142418
 30
0.0
 11
115.9197979967711
 21
224.4709116407329
 31
0.0
  0
ARC
  5
E9
330
1F
100
AcDbEntity
  8
Sheet_View_1_Drawing_1
 62
    18
420
        0
 48
25.39999961853027
370
    50
100
AcDbCircle
 10
120.7188361024477
 20
251.201673754266
 30
0.0
 40
1.5
100
AcDbArc
 50
330.0
 51
0.000000000000573
  0
LINE
  5
EA
330
1F
100
AcDbEntity
  8
Sheet_View_1_Drawing_1
 62
    18
420
        0
 48
25.39999961853027
370
    50
100
AcDbLine
 10
128.2403060724598
 20
243.1311656785773
 30
0.0
 11
122.1781282459688
 21
239.6311656785773
 31
0.0
  0
ARC
  5
EB
330
1F
100
AcDbEntity
  8
Sheet_View_1_Drawing_1
 62
    18
420
        0
 48
25.39999961853027
370
    50
100
AcDbCircle
 10
92.96883610244772
 20
235.1802037842539
 30
0.0
 40
1.5
100
AcDbArc
 50
90.0
 51
179.9999999999994
  0
LINE
  5
EC
330
1F
100
AcDbEntity
  8
Sheet_View_1_Drawing_1
 62
    18
420
        0
 48
25.39999961853027
370
    50
100
AcDbLine
 10
104.4197979967711
 20
244.389495927775
 30
0.0
 11
100.9197979967711
 21
250.4516737542661
 31
0.0
  0
ARC
  5
ED
330
1F
100
AcDbEntity
  8
Sheet_View_1_Drawing_1
 62
    18
420
        0
 48
25.39999961853027
370
    50
100
AcDbCircle
 10
92.96883610244772
 20
235.1802037842539
 30
0.0
 40
1.500000000000028
100
AcDbArc
 50
179.9999999999994
 51
270.0
  0
LINE
  5
EE
330
1F
100
AcDbEntity
  8
Sheet_View_1_Drawing_1
 62
    18
420
        0
 48
25.39999961853027
370
    50
100
AcDbLine
 10
118.9688361024477
 20
236.680203784254
 30
0.0
 11
129.9688361024477
 21
236.6802037842539
 31
0.0
  0
ARC
  5
EF
330
1F
100
AcDbEntity
  8
Sheet_View_1_Drawing_1
 62
    18
420
        0
 48
25.39999961853027
370
    50
100
AcDbCircle
 10
121.4281282459688
 20
229.4302037842539
 30
0.0
 40
1.5
100
AcDbArc
 50
59.99999999999946
 51
179.9999999999994
  0
LINE
  5
F0
330
1F
100
AcDbEntity
  8
Sheet_View_1_Drawing_1
 62
    18
420
        0
 48
25.39999961853027
370
    50
100
AcDbLine
 10
103.5178742081244
 20
251.951673754266
 30
0.0
 11
107.0178742081244
 21
245.889495927775
 31
0.0
  0
ARC
  5
F1
330
1F
100
AcDbEntity
  8
Sheet_View_1_Drawing_1
 62
    18
420
        0
 48
25.39999961853027
370
    50
100
AcDbCircle
 10
120.7188361024477
 20
219.1587338142418
 30
0.0
 40
1.499999999999986
100
AcDbArc
 50
210.0000000000003
 51
0.000000000000573
  0
LINE
  5
F2
330
1F
100
AcDbEntity
  8
Sheet_View_1_Drawing_1
 62
    18
420
        0
 48
25.39999961853027
370
    50
100
AcDbLine
 10
100.9197979967711
 20
219.9087338142418
 30
0.0
 11
104.4197979967711
 21
225.9709116407329
 31
0.0
  0
ARC
  5
F3
330
1F
100
AcDbEntity
  8
Sheet_View_1_Drawing_1
 62
    18
420
        0
 48
25.39999961853027
370
    50
100
AcDbCircle
 10
103.9688361024477
 20
235.1802037842539
 30
0.0
 40
1.500000000000028
100
AcDbArc
 50
0.000000000000573
 51
90.0
  0
LINE
  5
F4
330
1F
100
AcDbEntity
  8
Sheet_View_1_Drawing_1
 62
    18
420
        0
 48
25.39999961853027
370
    50
100
AcDbLine
 10
109.9688361024477
 20
242.6802037842539
 30
0.0
 11
109.9688361024477
 21
253.6802037842539
 31
0.0
  0
ARC
  5
F5
330
1F
100
AcDbEntity
  8
Sheet_View_1_Drawing_1
 62
    18
420
        0
 48
25.39999961853027
370
    50
100
AcDbCircle
 10
102.2188361024477
 20
251.2016737542661
 30
0.0
 40
1.5
100
AcDbArc
 50
179.9999999999994
 51
210.0
  0
LINE
  5
F6
330
1F
100
AcDbEntity
  8
Sheet_View_1_Drawing_1
 62
    18
420
        0
 48
25.39999961853027
370
    50
100
AcDbLine
 10
129.9688361024477
 20
233.6802037842539
 30
0.0
 11
118.9688361024477
 21
233.6802037842539
 31
0.0
  0
ARC
  5
F7
330
1F
100
AcDbEntity
  8
Sheet_View_1_Drawing_1
 62
    18
420
        0
 48
25.39999961853027
370
    50
100
AcDbCircle
 10
127.4903060724598
 20
225.9302037842539
 30
0.0
 40
1.500000000000007
100
AcDbArc
 50
0.000000000000573
 51
59.99999999999954
  0
LINE
  5
F8
330
1F
100
AcDbEntity
  8
Sheet_View_1_Drawing_1
 62
    18
420
        0
 48
25.39999961853027
370
    50
100
AcDbLine
 10
109.9688361024477
 20
216.680203784254
 30
0.0
 11
109.9688361024477
 21
227.680203784254
 31
0.0
  0
ARC
  5
F9
330
1F
100
AcDbEntity
  8
Sheet_View_1_Drawing_1
 62
    18
420
        0
 48
25.39999961853027
370
    50
100
AcDbCircle
 10
105.7188361024477
 20
245.139495927775
 30
0.0
 40
1.499999999999988
100
AcDbArc
 50
359.9999999999989
 51
30.00000000000027
  0
ARC
  5
FA
330
1F
100
AcDbEntity
  8
Sheet_View_1_Drawing_1
 62
    18
420
        0
 48
25.39999961853027
370
    50
100
AcDbCircle
 10
111.4688361024476
 20
235.1802037842538
 30
0.0
 40
19.49999999999999
100
AcDbArc
 50
266.6269575627572
 51
273.3731731558197
  0
ARC
  5
FB
330
1F
100
AcDbEntity
  8
Sheet_View_1_Drawing_1
 62
    18
420
        0
 48
25.39999961853027
370
    50
100
AcDbCircle
 10
129.9688361024477
 20
235.1802037842539
 30
0.0
 40
1.499999999999972
100
AcDbArc
 50
359.9999999999989
 51
90.0
  0
ARC
  5
FC
330
1F
100
AcDbEntity
  8
Sheet_View_1_Drawing_1
 62
    18
420
        0
 48
25.39999961853027
370
    50
100
AcDbCircle
 10
111.4688361024476
 20
235.1802037842538
 30
0.0
 40
28.50000000000001
100
AcDbArc
 50
241.3055416990855
 51
298.6944583009147
  0
ARC
  5
FD
330
1F
100
AcDbEntity
  8
Sheet_View_1_Drawing_1
 62
    18
420
        0
 48
25.39999961853027
370
    50
100
AcDbCircle
 10
129.9688361024477
 20
235.1802037842539
 30
0.0
 40
1.5
100
AcDbArc
 50
270.0
 51
0.000000000000573
  0
ARC
  5
FE
330
1F
100
AcDbEntity
  8
Sheet_View_1_Drawing_1
 62
    18
420
        0
 48
25.39999961853027
370
    50
100
AcDbCircle
 10
111.4688361024476
 20
235.1802037842538
 30
0.0
 40
28.49999999999999
100
AcDbArc
 50
0.000000000000573
 51
28.69436800219954
  0
ARC
  5
FF
330
1F
100
AcDbEntity
  8
Sheet_View_1_Drawing_1
 62
    18
420
        0
 48
25.39999961853027
370
    50
100
AcDbCircle
 10
117.2188361024477
 20
245.139495927775
 30
0.0
 40
1.5
100
AcDbArc
 50
150.0
 51
179.9999999999994
  0
ARC
  5
100
330
1F
100
AcDbEntity
  8
Sheet_View_1_Drawing_1
 62
    18
420
        0
 48
25.39999961853027
370
    50
100
AcDbCircle
 10
111.4688361024476
 20
235.1802037842538
 30
0.0
 40
28.24999999999999
100
AcDbArc
 50
332.2461232218131
 51
0.000000000000573
  0
ARC
  5
101
330
1F
100
AcDbEntity
  8
Sheet_View_1_Drawing_1
 62
    18
420
        0
 48
25.39999961853027
370
    50
100
AcDbCircle
 10
95.44736613243562
 20
225.9302037842539
 30
0.0
 40
1.499999999999968
100
AcDbArc
 50
179.9999999999989
 51
300.0000000000001
  0
ARC
  5
102
330
1F
100
AcDbEntity
  8
Sheet_View_1_Drawing_1
 62
    18
420
        0
 48
25.39999961853027
370
    50
100
AcDbCircle
 10
111.4688361024477
 20
235.1802037842539
 30
0.0
 40
19.50000000000002
100
AcDbArc
 50
26.62682889758951
 51
33.37317925253092
  0
ARC
  5
103
330
1F
100
AcDbEntity
  8
Sheet_View_1_Drawing_1
 62
    18
420
        0
 48
25.39999961853027
370
    50
100
AcDbCircle
 10
127.4903060724598
 20
225.9302037842539
 30
0.0
 40
1.500000000000014
100
AcDbArc
 50
239.9999999999994
 51
0.000000000000573
  0
ARC
  5
104
330
1F
100
AcDbEntity
  8
Sheet_View_1_Drawing_1
 62
    18
420
        0
 48
25.39999961853027
370
    50
100
AcDbCircle
 10
111.4688361024477
 20
235.1802037842539
 30
0.0
 40
19.50000000000002
100
AcDbArc
 50
86.62681688878469
 51
93.3731599410186
  0
ARC
  5
105
330
1F
100
AcDbEntity
  8
Sheet_View_1_Drawing_1
 62
    18
420
        0
 48
25.39999961853027
370
    50
100
AcDbCircle
 10
127.4903060724598
 20
244.430203784254
 30
0.0
 40
1.500000000000014
100
AcDbArc
 50
299.9999999999995
 51
0.000000000000573
  0
ARC
  5
106
330
1F
100
AcDbEntity
  8
Sheet_View_1_Drawing_1
 62
    18
420
        0
 48
25.39999961853027
370
    50
100
AcDbCircle
 10
111.4688361024477
 20
235.1802037842539
 30
0.0
 40
19.50000000000001
100
AcDbArc
 50
326.6268500779051
 51
333.3731812424163
  0
ARC
  5
107
330
1F
100
AcDbEntity
  8
Sheet_View_1_Drawing_1
 62
    18
420
        0
 48
25.39999961853027
370
    50
100
AcDbCircle
 10
102.2188361024477
 20
251.2016737542661
 30
0.0
 40
1.499999999999986
100
AcDbArc
 50
29.99999999999933
 51
179.9999999999994
  0
ARC
  5
108
330
1F
100
AcDbEntity
  8
Sheet_View_1_Drawing_1
 62
    18
420
        0
 48
25.39999961853027
370
    50
100
AcDbCircle
 10
111.4688361024477
 20
235.1802037842539
 30
0.0
 40
19.50000000000001
100
AcDbArc
 50
356.6268397072026
 51
359.9999999999994
  0
ARC
  5
109
330
1F
100
AcDbEntity
  8
Sheet_View_1_Drawing_1
 62
    18
420
        0
 48
25.39999961853027
370
    50
100
AcDbCircle
 10
118.9688361024477
 20
235.1802037842539
 30
0.0
 40
1.5
100
AcDbArc
 50
90.0
 51
179.9999999999994
  0
ARC
  5
10A
330
1F
100
AcDbEntity
  8
Sheet_View_1_Drawing_1
 62
    18
420
        0
 48
25.39999961853027
370
    50
100
AcDbCircle
 10
111.4688361024477
 20
235.1802037842539
 30
0.0
 40
15.84862297099063
100
AcDbArc
 50
24.56908769454144
 51
35.43091460393175
  0
ARC
  5
10B
330
1F
100
AcDbEntity
  8
Sheet_View_1_Drawing_1
 62
    18
420
        0
 48
25.39999961853027
370
    50
100
AcDbCircle
 10
120.7188361024477
 20
251.201673754266
 30
0.0
 40
1.500000000000012
100
AcDbArc
 50
0.000000000000573
 51
150.0000000000003
  0
ARC
  5
10C
330
1F
100
AcDbEntity
  8
Sheet_View_1_Drawing_1
 62
    18
420
        0
 48
25.39999961853027
370
    50
100
AcDbCircle
 10
111.4688361024477
 20
235.1802037842539
 30
0.0
 40
15.84862297099063
100
AcDbArc
 50
84.5690832781096
 51
95.43091018749988
  0
ARC
  5
10D
330
1F
100
AcDbEntity
  8
Sheet_View_1_Drawing_1
 62
    18
420
        0
 48
25.39999961853027
370
    50
100
AcDbCircle
 10
111.4688361024477
 20
253.6802037842539
 30
0.0
 40
1.5
100
AcDbArc
 50
0.0000000000021713
 51
179.9999999999994
  0
ARC
  5
10E
330
1F
100
AcDbEntity
  8
Sheet_View_1_Drawing_1
 62
    18
420
        0
 48
25.39999961853027
370
    50
100
AcDbCircle
 10
111.4688361024477
 20
235.1802037842539
 30
0.0
 40
15.84862297099061
100
AcDbArc
 50
294.5690909814492
 51
305.4309178908395
  0
LINE
  5
10F
330
1F
100
AcDbEntity
  8
Sheet_View_1_Drawing_1
 62
    18
420
        0
 48
25.39999961853027
370
    50
100
AcDbLine
 10
134.9688361024477
 20
213.1802037842539
 30
0.0
 11
134.9688361024477
 21
257.1802037842539
 31
0.0
  0
ARC
  5
110
330
1F
100
AcDbEntity
  8
Sheet_View_1_Drawing_1
 62
    18
420
        0
 48
25.39999961853027
370
    50
100
AcDbCircle
 10
111.4688361024477
 20
235.1802037842539
 30
0.0
 40
6.999999999999987
100
AcDbArc
 50
258.7991830699683
 51
281.2008222431755
  0
LINE
  5
111
330
1F
100
AcDbEntity
  8
Sheet_View_1_Drawing_1
 62
    18
420
        0
 48
25.39999961853027
370
    50
100
AcDbLine
 10
133.4688361024477
 20
258.6802037842539
 30
0.0
 11
89.46883610244772
 21
258.6802037842539
 31
0.0
  0
ARC
  5
112
330
1F
100
AcDbEntity
  8
Sheet_View_1_Drawing_1
 62
    18
420
        0
 48
25.39999961853027
370
    50
100
AcDbCircle
 10
111.4688361024477
 20
235.1802037842539
 30
0.0
 40
7.000000000000002
100
AcDbArc
 50
179.9999999999994
 51
191.2008169942176
  0
LINE
  5
113
330
1F
100
AcDbEntity
  8
Sheet_View_1_Drawing_1
 62
    18
420
        0
 48
25.39999961853027
370
    50
100
AcDbLine
 10
89.46883610244772
 20
211.680203784254
 30
0.0
 11
133.4688361024477
 21
211.680203784254
 31
0.0
  0
LINE
  5
114
330
1F
100
AcDbEntity
  8
Sheet_View_1_Drawing_1
 62
    18
420
        0
 48
25.39999961853027
370
    50
100
AcDbLine
 10
127.1828671771699
 20
236.0052037842539
 30
0.0
 11
127.1828671771699
 21
234.3552037842539
 31
0.0
  0
LINE
  5
115
330
1F
100
AcDbEntity
  8
Sheet_View_1_Drawing_1
 62
    18
420
        0
 48
25.39999961853027
370
    50
100
AcDbLine
 10
87.96883610244772
 20
257.1802037842539
 30
0.0
 11
87.96883610244772
 21
213.1802037842539
 31
0.0
  0
LINE
  5
116
330
1F
100
AcDbEntity
  8
Sheet_View_1_Drawing_1
 62
    18
420
        0
 48
25.39999961853027
370
    50
100
AcDbLine
 10
127.1828671771699
 20
234.3552037842539
 30
0.0
 11
119.6828671771699
 21
234.6802037842539
 31
0.0
  0
ARC
  5
117
330
1F
100
AcDbEntity
  8
Sheet_View_1_Drawing_1
 62
    18
420
        0
 48
25.39999961853027
370
    50
100
AcDbCircle
 10
89.46883610244772
 20
213.1802037842539
 30
0.0
 40
1.499999999999972
100
AcDbArc
 50
224.9999999999992
 51
270.0
  0
LINE
  5
118
330
1F
100
AcDbEntity
  8
Sheet_View_1_Drawing_1
 62
    18
420
        0
 48
25.39999961853027
370
    50
100
AcDbLine
 10
126.7403060724598
 20
224.6311656785773
 30
0.0
 11
120.6781282459688
 21
228.1311656785773
 31
0.0
  0
CIRCLE
  5
119
330
1F
100
AcDbEntity
  8
Sheet_View_1_Drawing_1
 62
    18
420
        0
 48
25.39999961853027
370
    50
100
AcDbCircle
 10
111.4688361024477
 20
235.1802037842539
 30
0.0
 40
23.0
  0
LINE
  5
11A
330
1F
100
AcDbEntity
  8
Sheet_View_1_Drawing_1
 62
    18
420
        0
 48
25.39999961853027
370
    50
100
AcDbLine
 10
112.9688361024477
 20
253.6802037842539
 30
0.0
 11
112.9688361024477
 21
242.6802037842539
 31
0.0
  0
ARC
  5
11B
330
1F
100
AcDbEntity
  8
Sheet_View_1_Drawing_1
 62
    18
420
        0
 48
25.39999961853027
370
    50
100
AcDbCircle
 10
133.4688361024477
 20
257.1802037842539
 30
0.0
 40
1.499999999999992
100
AcDbArc
 50
0.0000000000021713
 51
45.00000000000077
  0
LINE
  5
11C
330
1F
100
AcDbEntity
  8
Sheet_View_1_Drawing_1
 62
    18
420
        0
 48
25.39999961853027
370
    50
100
AcDbLine
 10
92.96883610244772
 20
236.680203784254
 30
0.0
 11
103.9688361024477
 21
236.680203784254
 31
0.0
  0
ARC
  5
11D
330
1F
100
AcDbEntity
  8
Sheet_View_1_Drawing_1
 62
    18
420
        0
 48
25.39999961853027
370
    50
100
AcDbCircle
 10
89.46883610244772
 20
257.1802037842539
 30
0.0
 40
1.500000000000002
100
AcDbArc
 50
89.99999999999837
 51
134.9999999999996
  0
LINE
  5
11E
330
1F
100
AcDbEntity
  8
Sheet_View_1_Drawing_1
 62
    18
420
        0
 48
25.39999961853027
370
    50
100
AcDbLine
 10
103.9688361024477
 20
233.6802037842539
 30
0.0
 11
92.96883610244772
 21
233.6802037842539
 31
0.0
  0
ARC
  5
11F
330
1F
100
AcDbEntity
  8
Sheet_View_1_Drawing_1
 62
    18
420
        0
 48
25.39999961853027
370
    50
100
AcDbCircle
 10
89.46883610244772
 20
257.1802037842539
 30
0.0
 40
1.5
100
AcDbArc
 50
134.9999999999996
 51
179.9999999999994
  0
ARC
  5
120
330
1F
100
AcDbEntity
  8
Sheet_View_1_Drawing_1
 62
    18
420
        0
 48
25.39999961853027
370
    50
100
AcDbCircle
 10
111.4688361024476
 20
235.1802037842538
 30
0.0
 40
19.50000000000001
100
AcDbArc
 50
206.6268898141992
 51
213.373064205499
  0
ARC
  5
121
330
1F
100
AcDbEntity
  8
Sheet_View_1_Drawing_1
 62
    18
420
        0
 48
25.39999961853027
370
    50
100
AcDbCircle
 10
89.46883610244772
 20
213.1802037842539
 30
0.0
 40
1.499999999999982
100
AcDbArc
 50
179.9999999999989
 51
224.9999999999996
  0
ARC
  5
122
330
1F
100
AcDbEntity
  8
Sheet_View_1_Drawing_1
 62
    18
420
        0
 48
25.39999961853027
370
    50
100
AcDbCircle
 10
111.4688361024476
 20
235.1802037842538
 30
0.0
 40
28.5
100
AcDbArc
 50
179.9999999999994
 51
208.6944590513229
  0
ARC
  5
123
330
1F
100
AcDbEntity
  8
Sheet_View_1_Drawing_1
 62
    18
420
        0
 48
25.39999961853027
370
    50
100
AcDbCircle
 10
133.4688361024477
 20
213.1802037842539
 30
0.0
 40
1.5
100
AcDbArc
 50
315.0
 51
0.000000000000573
  0
ARC
  5
124
330
1F
100
AcDbEntity
  8
Sheet_View_1_Drawing_1
 62
    18
420
        0
 48
25.39999961853027
370
    50
100
AcDbCircle
 10
111.4688361024476
 20
235.1802037842538
 30
0.0
 40
28.25
100
AcDbArc
 50
62.24612245404563
 51
117.7538775459546
  0
ARC
  5
125
330
1F
100
AcDbEntity
  8
Sheet_View_1_Drawing_1
 62
    18
420
        0
 48
25.39999961853027
370
    50
100
AcDbCircle
 10
133.4688361024477
 20
213.1802037842539
 30
0.0
 40
1.499999999999972
100
AcDbArc
 50
270.0000000000011
 51
315.0
  0
ARC
  5
126
330
1F
100
AcDbEntity
  8
Sheet_View_1_Drawing_1
 62
    18
420
        0
 48
25.39999961853027
370
    50
100
AcDbCircle
 10
111.4688361024477
 20
235.1802037842539
 30
0.0
 40
19.50000000000001
100
AcDbArc
 50
56.62682054546926
 51
63.37317078268619
  0
ARC
  5
127
330
1F
100
AcDbEntity
  8
Sheet_View_1_Drawing_1
 62
    18
420
        0
 48
25.39999961853027
370
    50
100
AcDbCircle
 10
133.4688361024477
 20
257.1802037842539
 30
0.0
 40
1.5
100
AcDbArc
 50
45.0
 51
90.0
  0
ARC
  5
128
330
1F
100
AcDbEntity
  8
Sheet_View_1_Drawing_1
 62
    18
420
        0
 48
25.39999961853027
370
    50
100
AcDbCircle
 10
111.4688361024477
 20
235.1802037842539
 30
0.0
 40
15.84862297099063
100
AcDbArc
 50
354.5690897586449
 51
0.000000000000573
  0
LINE
  5
129
330
1F
100
AcDbEntity
  8
Sheet_View_1_Drawing_1
 62
    18
420
        0
 48
25.39999961853027
370
    50
100
AcDbLine
 10
136.4688361024476
 20
211.1802037842538
 30
0.0
 11
136.4688361024476
 21
259.1802037842539
 31
0.0
  0
ARC
  5
12A
330
1F
100
AcDbEntity
  8
Sheet_View_1_Drawing_1
 62
    18
420
        0
 48
25.39999961853027
370
    50
100
AcDbCircle
 10
111.4688361024477
 20
235.1802037842539
 30
0.0
 40
15.84862297099064
100
AcDbArc
 50
204.5690853960683
 51
215.4309123054586
  0
LINE
  5
12B
330
1F
100
AcDbEntity
  8
Sheet_View_1_Drawing_1
 62
    18
420
        0
 48
25.39999961853027
370
    50
100
AcDbLine
 10
135.4688361024476
 20
260.1802037842538
 30
0.0
 11
87.46883610244763
 21
260.1802037842538
 31
0.0
  0
ARC
  5
12C
330
1F
100
AcDbEntity
  8
Sheet_View_1_Drawing_1
 62
    18
420
        0
 48
25.39999961853027
370
    50
100
AcDbCircle
 10
111.4688361024477
 20
235.1802037842539
 30
0.0
 40
7.000000000000014
100
AcDbArc
 50
168.7991777802183
 51
179.9999999999994
  0
LINE
  5
12D
330
1F
100
AcDbEntity
  8
Sheet_View_1_Drawing_1
 62
    18
420
        0
 48
25.39999961853027
370
    50
100
AcDbLine
 10
86.46883610244764
 20
259.1802037842539
 30
0.0
 11
86.46883610244764
 21
211.1802037842538
 31
0.0
  0
LINE
  5
12E
330
1F
100
AcDbEntity
  8
Sheet_View_1_Drawing_1
 62
    18
420
        0
 48
25.39999961853027
370
    50
100
AcDbLine
 10
95.75480502772554
 20
236.0052037842539
 30
0.0
 11
95.75480502772554
 21
234.3552037842539
 31
0.0
  0
LINE
  5
12F
330
1F
100
AcDbEntity
  8
Sheet_View_1_Drawing_1
 62
    18
420
        0
 48
25.39999961853027
370
    50
100
AcDbLine
 10
87.46883610244763
 20
210.1802037842538
 30
0.0
 11
135.4688361024476
 21
210.1802037842538
 31
0.0
  0
LINE
  5
130
330
1F
100
AcDbEntity
  8
Sheet_View_1_Drawing_1
 62
    18
420
        0
 48
25.39999961853027
370
    50
100
AcDbLine
 10
107.0178742081244
 20
224.4709116407329
 30
0.0
 11
103.5178742081244
 21
218.4087338142418
 31
0.0
  0
LINE
  5
131
330
1F
100
AcDbEntity
  8
Sheet_View_1_Drawing_1
 62
    18
420
        0
 48
25.39999961853027
370
    50
100
AcDbLine
 10
87.71883610244763
 20
258.9302037842539
 30
0.0
 11
87.71883610244763
 21
211.4302037842538
 31
0.0
  0
LINE
  5
132
330
1F
100
AcDbEntity
  8
Sheet_View_1_Drawing_1
 62
    18
420
        0
 48
25.39999961853027
370
    50
100
AcDbLine
 10
122.0178742081244
 20
250.4516737542661
 30
0.0
 11
118.5178742081244
 21
244.389495927775
 31
0.0
  0
LINE
  5
133
330
1F
100
AcDbEntity
  8
Sheet_View_1_Drawing_1
 62
    18
420
        0
 48
25.39999961853027
370
    50
100
AcDbLine
 10
135.2188361024476
 20
258.9302037842539
 30
0.0
 11
87.71883610244764
 21
258.9302037842539
 31
0.0
  0
ARC
  5
134
330
1F
100
AcDbEntity
  8
Sheet_View_1_Drawing_1
 62
    18
420
        0
 48
25.39999961853027
370
    50
100
AcDbCircle
 10
111.4688361024476
 20
235.1802037842538
 30
0.0
 40
19.50000000000001
100
AcDbArc
 50
146.6267703197362
 51
153.3730529815282
  0
LINE
  5
135
330
1F
100
AcDbEntity
  8
Sheet_View_1_Drawing_1
 62
    18
420
        0
 48
25.39999961853027
370
    50
100
AcDbLine
 10
135.2188361024476
 20
211.4302037842538
 30
0.0
 11
135.2188361024476
 21
258.9302037842539
 31
0.0
  0
ARC
  5
136
330
1F
100
AcDbEntity
  8
Sheet_View_1_Drawing_1
 62
    18
420
        0
 48
25.39999961853027
370
    50
100
AcDbCircle
 10
111.4688361024477
 20
235.1802037842539
 30
0.0
 40
19.5
100
AcDbArc
 50
236.6268555929137
 51
243.3731530789355
  0
LINE
  5
137
330
1F
100
AcDbEntity
  8
Sheet_View_1_Drawing_1
 62
    18
420
        0
 48
25.39999961853027
370
    50
100
AcDbLine
 10
87.71883610244764
 20
211.4302037842538
 30
0.0
 11
135.2188361024476
 21
211.4302037842538
 31
0.0
  0
ARC
  5
138
330
1F
100
AcDbEntity
  8
Sheet_View_1_Drawing_1
 62
    18
420
        0
 48
25.39999961853027
370
    50
100
AcDbCircle
 10
111.4688361024477
 20
235.1802037842539
 30
0.0
 40
15.84862297099064
100
AcDbArc
 50
54.56908532250075
 51
65.43091223189113
  0
ARC
  5
139
330
1F
100
AcDbEntity
  8
Sheet_View_1_Drawing_1
 62
    18
420
        0
 48
25.39999961853027
370
    50
100
AcDbCircle
 10
135.4688361024476
 20
211.1802037842538
 30
0.0
 40
1.000000000000008
100
AcDbArc
 50
269.9999999999984
 51
315.0
  0
LINE
  5
13A
330
1F
100
AcDbEntity
  8
Sheet_View_1_Drawing_1
 62
    18
420
        0
 48
25.39999961853027
370
    50
100
AcDbLine
 10
95.75480502772554
 20
234.3552037842539
 30
0.0
 11
103.2548050277255
 21
234.6802037842539
 31
0.0
  0
ARC
  5
13B
330
1F
100
AcDbEntity
  8
Sheet_View_1_Drawing_1
 62
    18
420
        0
 48
25.39999961853027
370
    50
100
AcDbCircle
 10
87.46883610244763
 20
259.1802037842539
 30
0.0
 40
0.9999999999999858
100
AcDbArc
 50
134.9999999999989
 51
179.9999999999994
  0
LINE
  5
13C
330
1F
100
AcDbEntity
  8
Sheet_View_1_Drawing_1
 62
    18
420
        0
 48
25.39999961853027
370
    50
100
AcDbLine
 10
112.9688361024477
 20
227.680203784254
 30
0.0
 11
112.9688361024477
 21
216.680203784254
 31
0.0
  0
ARC
  5
13D
330
1F
100
AcDbEntity
  8
Sheet_View_1_Drawing_1
 62
    18
420
        0
 48
25.39999961853027
370
    50
100
AcDbCircle
 10
135.4688361024476
 20
259.1802037842539
 30
0.0
 40
0.9999999999999432
100
AcDbArc
 50
45.0
 51
90.0
  0
ARC
  5
13E
330
1F
100
AcDbEntity
  8
Sheet_View_1_Drawing_1
 62
    18
420
        0
 48
25.39999961853027
370
    50
100
AcDbCircle
 10
111.4688361024476
 20
235.1802037842538
 30
0.0
 40
28.25000000000001
100
AcDbArc
 50
152.2460300667185
 51
179.9999999999994
  0
ARC
  5
13F
330
1F
100
AcDbEntity
  8
Sheet_View_1_Drawing_1
 62
    18
420
        0
 48
25.39999961853027
370
    50
100
AcDbCircle
 10
135.4688361024476
 20
211.1802037842538
 30
0.0
 40
1.0
100
AcDbArc
 50
315.0
 51
0.000000000000573
  0
LINE
  5
140
330
1F
100
AcDbEntity
  8
Sheet_View_1_Drawing_1
 62
    18
420
        0
 48
25.39999961853027
370
    50
100
AcDbLine
 10
102.2595439589267
 20
228.1311656785773
 30
0.0
 11
96.1973661324356
 21
224.6311656785773
 31
0.0
  0
ARC
  5
141
330
1F
100
AcDbEntity
  8
Sheet_View_1_Drawing_1
 62
    18
420
        0
 48
25.39999961853027
370
    50
100
AcDbCircle
 10
111.4688361024477
 20
235.1802037842539
 30
0.0
 40
19.5
100
AcDbArc
 50
176.6268364311135
 51
179.9999999999994
  0
LINE
  5
142
330
1F
100
AcDbEntity
  8
Sheet_View_1_Drawing_1
 62
    18
420
        0
 48
25.39999961853027
370
    50
100
AcDbLine
 10
100.7595439589267
 20
239.6311656785773
 30
0.0
 11
94.69736613243562
 21
243.1311656785773
 31
0.0
  0
ARC
  5
143
330
1F
100
AcDbEntity
  8
Sheet_View_1_Drawing_1
 62
    18
420
        0
 48
25.39999961853027
370
    50
100
AcDbCircle
 10
87.46883610244763
 20
211.1802037842538
 30
0.0
 40
1.0
100
AcDbArc
 50
224.9999999999989
 51
270.0
  0
ARC
  5
144
330
1F
100
AcDbEntity
  8
Sheet_View_1_Drawing_1
 62
    18
420
        0
 48
25.39999961853027
370
    50
100
AcDbCircle
 10
135.4688361024476
 20
259.1802037842539
 30
0.0
 40
0.9999999999999679
100
AcDbArc
 50
359.9999999999968
 51
44.9999999999977
  0
ARC
  5
145
330
1F
100
AcDbEntity
  8
Sheet_View_1_Drawing_1
 62
    18
420
        0
 48
25.39999961853027
370
    50
100
AcDbCircle
 10
87.46883610244763
 20
259.1802037842539
 30
0.0
 40
0.9999999999999578
100
AcDbArc
 50
90.0
 51
135.0000000000017
  0
ARC
  5
146
330
1F
100
AcDbEntity
  8
Sheet_View_1_Drawing_1
 62
    18
420
        0
 48
25.39999961853027
370
    50
100
AcDbCircle
 10
111.4688361024477
 20
235.1802037842539
 30
0.0
 40
15.84862297099065
100
AcDbArc
 50
174.5690833319645
 51
179.9999999999994
  0
TEXT
  5
148
330
1F
100
AcDbEntity
  8
Sheet_View_1_Dimension_1
  6
BORDER
 62
    18
420
        0
 48
25.39999961853027
100
AcDbText
 10
76.21003460813685
 20
235.9053516125238
 30
0.0
 40
2.525888919830322
  1
A
  7
text79791
100
AcDbText
  0
TEXT
  5
14A
330
1F
100
AcDbEntity
  8
Sheet_View_1_Dimension_1
  6
BORDER
 62
    18
420
        0
 48
25.39999961853027
100
AcDbText
 10
143.8205454203695
 20
235.9053516125238
 30
0.0
 40
2.525888919830322
  1
A
  7
text79793
100
AcDbText
  0
LINE
  5
14B
330
1F
100
AcDbEntity
  8
Sheet_View_1_Drawing_1
 62
    18
420
        0
 48
12.69999980926514
100
AcDbLine
 10
77.2879638671875
 20
235.5738983154297
 30
0.0
 11
77.2879638671875
 21
235.1802062988281
 31
0.0
  0
HATCH
  5
14C
330
1F
100
AcDbEntity
  8
Sheet_View_1_Drawing_1
 62
    18
420
        0
 48
12.69999980926514
100
AcDbHatch
 10
0.0
 20
0.0
 30
0.0
210
0.0
220
0.0
230
1.0
  2
SOLID
 70
     1
 71
     0
 91
        1
 92
        3
 72
     0
 73
     1
 93
        3
 10
1963.114282226562
 20
5983.577017211914
 10
1946.340122902393
 20
5882.932058238983
 10
1979.888441550732
 20
5882.932058238983
 97
        0
 75
     0
 76
     1
 98
        0
  0
POLYLINE
  5
14D
330
1F
100
AcDbEntity
  8
Sheet_View_1_Drawing_1
 62
    18
420
        0
 48
12.69999980926514
100
AcDb3dPolyline
 66
     1
 10
0.0
 20
0.0
 30
0.0
 70
     8
  0
VERTEX
  5
14E
330
14D
100
AcDbEntity
  8
Sheet_View_1_Drawing_1
 62
    18
420
        0
 48
12.69999980926514
100
AcDbVertex
100
AcDb3dPolylineVertex
 10
1963.1142578125
 20
5983.5771484375
 30
0.0
 70
    32
  0
VERTEX
  5
14F
330
14D
100
AcDbEntity
  8
Sheet_View_1_Drawing_1
 62
    18
420
        0
 48
12.69999980926514
100
AcDbVertex
100
AcDb3dPolylineVertex
 10
1946.340087890625
 20
5882.93212890625
 30
0.0
 70
    32
  0
VERTEX
  5
150
330
14D
100
AcDbEntity
  8
Sheet_View_1_Drawing_1
 62
    18
420
        0
 48
12.69999980926514
100
AcDbVertex
100
AcDb3dPolylineVertex
 10
1979.888427734375
 20
5882.93212890625
 30
0.0
 70
    32
  0
VERTEX
  5
151
330
14D
100
AcDbEntity
  8
Sheet_View_1_Drawing_1
 62
    18
420
        0
 48
12.69999980926514
100
AcDbVertex
100
AcDb3dPolylineVertex
 10
1963.1142578125
 20
5983.5771484375
 30
0.0
 70
    32
  0
SEQEND
  5
152
330
14D
100
AcDbEntity
  8
Sheet_View_1_Drawing_1
 62
    18
420
        0
 48
12.69999980926514
  0
LINE
  5
153
330
1F
100
AcDbEntity
  8
Sheet_View_1_Drawing_1
 62
    18
420
        0
 48
12.69999980926514
100
AcDbLine
 10
144.8984832763672
 20
235.1802062988281
 30
0.0
 11
144.8984832763672
 21
235.5738983154297
 31
0.0
  0
HATCH
  5
154
330
1F
100
AcDbEntity
  8
Sheet_View_1_Drawing_1
 62
    18
420
        0
 48
12.69999980926514
100
AcDbHatch
 10
0.0
 20
0.0
 30
0.0
210
0.0
220
0.0
230
1.0
  2
SOLID
 70
     1
 71
     0
 91
        1
 92
        3
 72
     0
 73
     1
 93
        3
 10
3680.421475219726
 20
5983.577017211914
 10
3663.647315895557
 20
5882.932058238983
 10
3697.195634543896
 20
5882.932058238983
 97
        0
 75
     0
 76
     1
 98
        0
  0
POLYLINE
  5
155
330
1F
100
AcDbEntity
  8
Sheet_View_1_Drawing_1
 62
    18
420
        0
 48
12.69999980926514
100
AcDb3dPolyline
 66
     1
 10
0.0
 20
0.0
 30
0.0
 70
     8
  0
VERTEX
  5
156
330
155
100
AcDbEntity
  8
Sheet_View_1_Drawing_1
 62
    18
420
        0
 48
12.69999980926514
100
AcDbVertex
100
AcDb3dPolylineVertex
 10
3680.42138671875
 20
5983.5771484375
 30
0.0
 70
    32
  0
VERTEX
  5
157
330
155
100
AcDbEntity
  8
Sheet_View_1_Drawing_1
 62
    18
420
        0
 48
12.69999980926514
100
AcDbVertex
100
AcDb3dPolylineVertex
 10
3663.647216796875
 20
5882.93212890625
 30
0.0
 70
    32
  0
VERTEX
  5
158
330
155
100
AcDbEntity
  8
Sheet_View_1_Drawing_1
 62
    18
420
        0
 48
12.69999980926514
100
AcDbVertex
100
AcDb3dPolylineVertex
 10
3697.195556640625
 20
5882.93212890625
 30
0.0
 70
    32
  0
VERTEX
  5
159
330
155
100
AcDbEntity
  8
Sheet_View_1_Drawing_1
 62
    18
420
        0
 48
12.69999980926514
100
AcDbVertex
100
AcDb3dPolylineVertex
 10
3680.42138671875
 20
5983.5771484375
 30
0.0
 70
    32
  0
SEQEND
  5
15A
330
155
100
AcDbEntity
  8
Sheet_View_1_Drawing_1
 62
    18
420
        0
 48
12.69999980926514
  0
LINE
  5
15B
330
1F
100
AcDbEntity
  8
Sheet_View_1_Drawing_1
 62
    18
420
        0
 48
12.69999980926514
100
AcDbLine
 10
77.2879638671875
 20
235.1802062988281
 30
0.0
 11
144.8984832763672
 21
235.1802062988281
 31
0.0
  0
DIMENSION
  5
15D
330
1F
100
AcDbEntity
  8
Sheet_View_1_Drawing_1
 62
    18
420
        0
 48
12.69999980926514
100
AcDbDimension
280
     0
  2
*D1
 10
63.09332315243992
 20
210.1802037842538
 30
0.0
 11
63.09332315243992
 21
236.0052037842539
 31
0.0
 70
   160
  1
100
 71
     5
 42
49.99999999999997
 73
     0
 74
     0
 75
     0
  3
RotatedDim33
100
AcDbAlignedDimension
 13
87.46883610244763
 23
260.1802037842538
 33
0.0
 14
87.46883610244763
 24
210.1802037842538
 34
0.0
 50
90.0
100
AcDbRotatedDimension
  0
LINE
  5
16C
330
1F
100
AcDbEntity
  8
Sheet_View_1_Title_Block_1
 62
    18
420
        0
 48
25.39999961853027
100
AcDbLine
 10
17.80000000064
 20
296.99999999932
 30
0.0
 11
204.99999999918
 21
296.99999999932
 31
0.0
  0
LINE
  5
16D
330
1F
100
AcDbEntity
  8
Sheet_View_1_Title_Block_1
 62
    18
420
        0
 48
25.39999961853027
100
AcDbLine
 10
205.1728336909396
 20
45.72935724214994
 30
0.0
 11
17.97283369239951
 21
45.72935724214994
 31
0.0
  0
LINE
  5
16E
330
1F
100
AcDbEntity
  8
Sheet_View_1_Title_Block_1
 62
    18
420
        0
 48
25.39999961853027
370
    30
100
AcDbLine
 10
17.97283369239951
 20
62.72935724258994
 30
0.0
 11
205.1728336909396
 21
62.72935724258994
 31
0.0
  0
LINE
  5
16F
330
1F
100
AcDbEntity
  8
Sheet_View_1_Title_Block_1
 62
    18
420
        0
 48
25.39999961853027
100
AcDbLine
 10
64.77283369139948
 20
5.179357242429959
 30
0.0
 11
64.77283369139948
 21
45.72935724214994
 31
0.0
  0
LINE
  5
170
330
1F
100
AcDbEntity
  8
Sheet_View_1_Title_Block_1
 62
    18
420
        0
 48
25.39999961853027
100
AcDbLine
 10
51.77283369195958
 20
45.72935724214994
 30
0.0
 11
51.77283369195958
 21
62.72935724258994
 31
0.0
  0
LINE
  5
171
330
1F
100
AcDbEntity
  8
Sheet_View_1_Title_Block_1
 62
    18
420
        0
 48
25.39999961853027
100
AcDbLine
 10
64.77283369139948
 20
45.72935724214994
 30
0.0
 11
64.77283369139948
 21
5.179357242429959
 31
0.0
  0
LINE
  5
172
330
1F
100
AcDbEntity
  8
Sheet_View_1_Title_Block_1
 62
    18
420
        0
 48
25.39999961853027
100
AcDbLine
 10
98.57283369095956
 20
62.72935724258994
 30
0.0
 11
98.57283369095956
 21
24.47935724286995
 31
0.0
  0
LINE
  5
173
330
1F
100
AcDbEntity
  8
Sheet_View_1_Title_Block_1
 62
    18
420
        0
 48
25.39999961853027
100
AcDbLine
 10
64.77283369139948
 20
24.47935724286995
 30
0.0
 11
205.1728336909396
 21
24.47935724286995
 31
0.0
  0
LINE
  5
174
330
1F
100
AcDbEntity
  8
Sheet_View_1_Title_Block_1
 62
    18
420
        0
 48
25.39999961853027
100
AcDbLine
 10
116.7728336916995
 20
62.72935724258994
 30
0.0
 11
116.7728336916995
 21
4.979357242429915
 31
0.0
  0
LINE
  5
175
330
1F
100
AcDbEntity
  8
Sheet_View_1_Title_Block_1
 62
    18
420
        0
 48
25.39999961853027
100
AcDbLine
 10
162.1860339672893
 20
56.35479692709377
 30
0.0
 11
168.7728336919996
 21
62.72935724258994
 31
0.0
  0
LINE
  5
176
330
1F
100
AcDbEntity
  8
Sheet_View_1_Title_Block_1
 62
    18
420
        0
 48
25.39999961853027
100
AcDbLine
 10
192.1728336914996
 20
11.72935724126993
 30
0.0
 11
192.1728336914996
 21
24.47935724286995
 31
0.0
  0
LINE
  5
177
330
1F
100
AcDbEntity
  8
Sheet_View_1_Title_Block_1
 62
    18
420
        0
 48
25.39999961853027
100
AcDbLine
 10
205.1728336909396
 20
56.35435724178994
 30
0.0
 11
116.7728336916995
 21
56.35435724178994
 31
0.0
  0
TEXT
  5
179
330
1F
100
AcDbEntity
  8
Sheet_View_1_Title_Block_1
 62
    18
420
        0
 48
25.39999961853027
100
AcDbText
 10
99.28061043643953
 20
60.53410793992994
 30
0.0
 40
1.515533447265625
  1
Debur and\PBreak Sharp\PEdges
  7
text79839
100
AcDbText
  0
LINE
  5
17A
330
1F
100
AcDbEntity
  8
Sheet_View_1_Title_Block_1
 62
    18
420
        0
 48
25.39999961853027
100
AcDbLine
 10
137.3740176479996
 20
24.47935724286995
 30
0.0
 11
205.1728336909396
 21
24.47935724286995
 31
0.0
  0
LINE
  5
17B
330
1F
100
AcDbEntity
  8
Sheet_View_1_Title_Block_1
 62
    18
420
        0
 48
25.39999961853027
100
AcDbLine
 10
129.9208542345006
 20
24.47935724286995
 30
0.0
 11
129.9208542345006
 21
11.60213545862995
 31
0.0
  0
LINE
  5
17C
330
1F
100
AcDbEntity
  8
Sheet_View_1_Title_Block_1
 62
    18
420
        0
 48
25.39999961853027
100
AcDbLine
 10
139.9422659952405
 20
5.146127263889937
 30
0.0
 11
139.9422659952405
 21
11.70213545862993
 31
0.0
  0
LINE
  5
17D
330
1F
100
AcDbEntity
  8
Sheet_View_1_Title_Block_1
 62
    18
420
        0
 48
25.39999961853027
100
AcDbLine
 10
179.6682535764398
 20
5.146127263889937
 30
0.0
 11
179.6682535764398
 21
11.70213545862993
 31
0.0
  0
TEXT
  5
17F
330
1F
100
AcDbEntity
  8
Sheet_View_1_Title_Block_1
 62
    18
420
        0
 48
25.39999961853027
100
AcDbText
 10
117.6556933193598
 20
60.10416052926997
 30
0.0
 40
1.515533447265625
  1
Do Not Scale Drawing
  7
text79850
100
AcDbText
  0
TEXT
  5
181
330
1F
100
AcDbEntity
  8
Sheet_View_1_Title_Block_1
 62
    18
420
        0
 48
25.39999961853027
100
AcDbText
 10
117.8864887037207
 20
21.87275566588995
 30
0.0
 40
1.545843958854675
  1
Size
  7
text79853
100
AcDbText
  0
TEXT
  5
183
330
1F
100
AcDbEntity
  8
Sheet_View_1_Title_Block_1
 62
    18
420
        0
 48
25.39999961853027
100
AcDbText
 10
120.3884492689606
 20
15.77278396786993
 30
0.0
 40
3.03106689453125
  1
A4
  7
text79856
100
AcDbText
  0
TEXT
  5
185
330
1F
100
AcDbEntity
  8
Sheet_View_1_Title_Block_1
 62
    18
420
        0
 48
25.39999961853027
100
AcDbText
 10
131.0147056695005
 20
21.95667581168992
 30
0.0
 40
1.545843958854675
  1
Drawing  No.
  7
text79859
100
AcDbText
  0
TEXT
  5
187
330
1F
100
AcDbEntity
  8
Sheet_View_1_Title_Block_1
 62
    18
420
        0
 48
25.39999961853027
100
AcDbText
 10
140.8796434880204
 20
9.068302163549909
 30
0.0
 40
1.545843958854675
  1
CAD File
  7
text79862
100
AcDbText
  0
TEXT
  5
189
330
1F
100
AcDbEntity
  8
Sheet_View_1_Title_Block_1
 62
    18
420
        0
 48
25.39999961853027
100
AcDbText
 10
180.6780235933197
 20
9.069703950789908
 30
0.0
 40
1.545843958854675
  1
Sheet
  7
text79865
100
AcDbText
  0
TEXT
  5
18B
330
1F
100
AcDbEntity
  8
Sheet_View_1_Title_Block_1
 62
    18
420
        0
 48
25.39999961853027
100
AcDbText
 10
193.3153415304197
 20
21.90013298786993
 30
0.0
 40
1.545843958854675
  1
Rev
  7
text79868
100
AcDbText
  0
TEXT
  5
18D
330
1F
100
AcDbEntity
  8
Sheet_View_1_Title_Block_1
 62
    18
420
        0
 48
25.39999961853027
100
AcDbText
 10
118.0505915254807
 20
8.945779148549924
 30
0.0
 40
1.545843958854675
  1
Scale
  7
text79871
100
AcDbText
  0
TEXT
  5
18F
330
1F
100
AcDbEntity
  8
Sheet_View_1_Title_Block_1
 62
    18
420
        0
 48
25.39999961853027
100
AcDbText
 10
129.1276708018576
 20
7.339469263322748
 30
0.0
 40
3.03106689453125
  1
1:2
  7
text79874
100
AcDbText
  0
TEXT
  5
191
330
1F
100
AcDbEntity
  8
Sheet_View_1_Title_Block_1
 62
    18
420
        0
 48
25.39999961853027
100
AcDbText
 10
188.4560883494341
 20
7.339469263322748
 30
0.0
 40
3.03106689453125
  1
1 of 1
  7
text79877
100
AcDbText
  0
TEXT
  5
193
330
1F
100
AcDbEntity
  8
Sheet_View_1_Title_Block_1
 62
    18
420
        0
 48
25.39999961853027
100
AcDbText
 10
134.781054979867
 20
15.77278396786993
 30
0.0
 40
3.03106689453125
  1
4210
  7
text79880
100
AcDbText
  0
TEXT
  5
195
330
1F
100
AcDbEntity
  8
Sheet_View_1_Title_Block_1
 62
    18
420
        0
 48
25.39999961853027
100
AcDbText
 10
197.1320885379021
 20
15.77278396786993
 30
0.0
 40
3.03106689453125
  1
A
  7
text79883
100
AcDbText
  0
TEXT
  5
197
330
1F
100
AcDbEntity
  8
Sheet_View_1_Title_Block_1
 62
    18
420
        0
 48
25.39999961853027
100
AcDbText
 10
119.5941938579754
 20
35.93788128534788
 30
0.0
 40
3.579999923706055
  1
Kunststof put
  7
text79886
100
AcDbText
  0
LINE
  5
198
330
1F
100
AcDbEntity
  8
Sheet_View_1_Title_Block_1
 62
    18
420
        0
 48
25.39999961853027
100
AcDbLine
 10
17.87283369239951
 20
31.44185724214995
 30
0.0
 11
64.63875622113937
 21
31.44185724214995
 31
0.0
  0
LINE
  5
199
330
1F
100
AcDbEntity
  8
Sheet_View_1_Title_Block_1
 62
    18
420
        0
 48
25.39999961853027
100
AcDbLine
 10
17.87283369239951
 20
36.20435724214995
 30
0.0
 11
64.63875622113937
 21
36.20435724214995
 31
0.0
  0
LINE
  5
19A
330
1F
100
AcDbEntity
  8
Sheet_View_1_Title_Block_1
 62
    18
420
        0
 48
25.39999961853027
100
AcDbLine
 10
17.97283369239951
 20
40.96685724214993
 30
0.0
 11
64.63875622113937
 21
40.96685724214993
 31
0.0
  0
LINE
  5
19B
330
1F
100
AcDbEntity
  8
Sheet_View_1_Title_Block_1
 62
    18
420
        0
 48
25.39999961853027
100
AcDbLine
 10
64.63875622113937
 20
17.15435724214995
 30
0.0
 11
17.87283369239951
 21
17.15435724214995
 31
0.0
  0
LINE
  5
19C
330
1F
100
AcDbEntity
  8
Sheet_View_1_Title_Block_1
 62
    18
420
        0
 48
25.39999961853027
100
AcDbLine
 10
50.77091249489939
 20
45.72935724214993
 30
0.0
 11
50.77091249489939
 21
17.15435724214995
 31
0.0
  0
LINE
  5
19D
330
1F
100
AcDbEntity
  8
Sheet_View_1_Title_Block_1
 62
    18
420
        0
 48
25.39999961853027
100
AcDbLine
 10
36.8703214955196
 20
45.72935724214993
 30
0.0
 11
36.8703214955196
 21
17.15435724214995
 31
0.0
  0
LINE
  5
19E
330
1F
100
AcDbEntity
  8
Sheet_View_1_Title_Block_1
 62
    18
420
        0
 48
25.39999961853027
100
AcDbLine
 10
64.63875622113937
 20
26.67935724214995
 30
0.0
 11
17.87283369239951
 21
26.67935724214995
 31
0.0
  0
LINE
  5
19F
330
1F
100
AcDbEntity
  8
Sheet_View_1_Title_Block_1
 62
    18
420
        0
 48
25.39999961853027
100
AcDbLine
 10
64.63875622113937
 20
21.91685724214995
 30
0.0
 11
17.87283369239951
 21
21.91685724214995
 31
0.0
  0
TEXT
  5
1A1
330
1F
100
AcDbEntity
  8
Sheet_View_1_Title_Block_1
 62
    18
420
        0
 48
25.39999961853027
100
AcDbText
 10
18.94801490433954
 20
38.37470081732994
 30
0.0
 40
1.545843958854675
  1
Drawn
  7
text79905
100
AcDbText
  0
TEXT
  5
1A3
330
1F
100
AcDbEntity
  8
Sheet_View_1_Title_Block_1
 62
    18
420
        0
 48
25.39999961853027
100
AcDbText
 10
18.85663609425969
 20
33.65966137518995
 30
0.0
 40
1.545843958854675
  1
Checked
  7
text79908
100
AcDbText
  0
TEXT
  5
1A5
330
1F
100
AcDbEntity
  8
Sheet_View_1_Title_Block_1
 62
    18
420
        0
 48
25.39999961853027
100
AcDbText
 10
18.9148570293796
 20
28.92368014668995
 30
0.0
 40
1.545843958854675
  1
ENG Appr.
  7
text79911
100
AcDbText
  0
TEXT
  5
1A7
330
1F
100
AcDbEntity
  8
Sheet_View_1_Title_Block_1
 62
    18
420
        0
 48
25.39999961853027
100
AcDbText
 10
19.1321592807795
 20
23.75263360360994
 30
0.0
 40
1.545843958854675
  1
MFR Appr.
  7
text79914
100
AcDbText
  0
TEXT
  5
1A9
330
1F
100
AcDbEntity
  8
Sheet_View_1_Title_Block_1
 62
    18
420
        0
 48
25.39999961853027
100
AcDbText
 10
51.75769248767856
 20
43.16917144680993
 30
0.0
 40
1.545843958854675
  1
Date
  7
text79917
100
AcDbText
  0
TEXT
  5
1AB
330
1F
100
AcDbEntity
  8
Sheet_View_1_Title_Block_1
 62
    18
420
        0
 48
25.39999961853027
100
AcDbText
 10
37.85236417284977
 20
43.16917144680993
 30
0.0
 40
1.545843958854675
  1
Name
  7
text79920
100
AcDbText
  0
TEXT
  5
1AD
330
1F
100
AcDbEntity
  8
Sheet_View_1_Title_Block_1
 62
    18
420
        0
 48
25.39999961853027
100
AcDbText
 10
18.92681567703954
 20
19.47473010004994
 30
0.0
 40
1.545843958854675
  1
QA
  7
text79923
100
AcDbText
  0
TEXT
  5
1AF
330
1F
100
AcDbEntity
  8
Sheet_View_1_Title_Block_1
 62
    18
420
        0
 48
25.39999961853027
100
AcDbText
 10
52.65405439595962
 20
60.01161660304994
 30
0.0
 40
1.515533447265625
  1
Finish
  7
text79926
100
AcDbText
  0
TEXT
  5
1B1
330
1F
100
AcDbEntity
  8
Sheet_View_1_Title_Block_1
 62
    18
420
        0
 48
25.39999961853027
100
AcDbText
 10
63.47885652571977
 20
58.29586848448995
 30
0.0
 40
1.515533447265625
  1
--
  7
text79929
100
AcDbText
  0
TEXT
  5
1B3
330
1F
100
AcDbEntity
  8
Sheet_View_1_Title_Block_1
 62
    18
420
        0
 48
25.39999961853027
100
AcDbText
 10
18.82403421437937
 20
60.07805691344998
 30
0.0
 40
1.545843958854675
  1
Unless Otherwise Specified:
  7
text79932
100
AcDbText
  0
TEXT
  5
1B5
330
1F
100
AcDbEntity
  8
Sheet_View_1_Title_Block_1
 62
    18
420
        0
 48
25.39999961853027
100
AcDbText
 10
65.66092305963963
 20
21.84357905682994
 30
0.0
 40
1.545843958854675
  1
Material
  7
text79935
100
AcDbText
  0
TEXT
  5
1B7
330
1F
100
AcDbEntity
  8
Sheet_View_1_Title_Block_1
 62
    18
420
        0
 48
25.39999961853027
100
AcDbText
 10
81.46702974667944
 20
20.46796431316995
 30
0.0
 40
1.545843958854675
  1
--
  7
text79938
100
AcDbText
  0
TEXT
  5
1B9
330
1F
100
AcDbEntity
  8
Sheet_View_1_Title_Block_1
 62
    18
420
        0
 48
25.39999961853027
100
AcDbText
 10
65.71161885415967
 20
43.23269596542993
 30
0.0
 40
1.545843958854675
  1
Comments
  7
text79941
100
AcDbText
  0
TEXT
  5
1BB
330
1F
100
AcDbEntity
  8
Sheet_View_1_Title_Block_1
 62
    18
420
        0
 48
25.39999961853027
100
AcDbText
 10
65.79711616533929
 20
39.28469868918035
 30
0.0
 40
1.515533447265625
  1
CAD Generated Drawing
  7
text79944
100
AcDbText
  0
TEXT
  5
1BD
330
1F
100
AcDbEntity
  8
Sheet_View_1_Title_Block_1
 62
    18
420
        0
 48
25.39999961853027
100
AcDbText
 10
65.79711616533929
 20
37.02710441732737
 30
0.0
 40
1.515533447265625
  1
Do Not Manually Update
  7
text79947
100
AcDbText
  0
LINE
  5
1BE
330
1F
100
AcDbEntity
  8
Sheet_View_1_Title_Block_1
 62
    18
420
        0
 48
25.39999961853027
100
AcDbLine
 10
116.7728336916995
 20
11.70213545862993
 30
0.0
 11
205.1728336909396
 21
11.70213545862993
 31
0.0
  0
LINE
  5
1BF
330
1F
100
AcDbEntity
  8
Sheet_View_1_Title_Block_1
 62
    18
420
        0
 48
25.39999961853027
370
    30
100
AcDbLine
 10
204.99999999918
 20
4.999999999979999
 30
0.0
 11
17.80000000064
 21
4.999999999979999
 31
0.0
  0
TEXT
  5
1C1
330
1F
100
AcDbEntity
  8
Sheet_View_1_Title_Block_1
 62
    18
420
        0
 48
25.39999961853027
100
AcDbText
 10
19.45492507169431
 20
57.21930806593122
 30
0.0
 40
1.545843958854675
  1
Dimensions in mm
  7
text79954
100
AcDbText
  0
TEXT
  5
1C3
330
1F
100
AcDbEntity
  8
Sheet_View_1_Title_Block_1
 62
    18
420
        0
 48
25.39999961853027
100
AcDbText
 10
19.45492507169431
 20
54.53950949611121
 30
0.0
 40
1.545843958854675
  1
Tolerances: Fractional     ±
  7
text79957
100
AcDbText
  0
TEXT
  5
1C5
330
1F
100
AcDbEntity
  8
Sheet_View_1_Title_Block_1
 62
    18
420
        0
 48
25.39999961853027
100
AcDbText
 10
19.45492507169431
 20
51.85971092629119
 30
0.0
 40
1.545843958854675
  1
Angular: Mach ±     Bend    ±
  7
text79960
100
AcDbText
  0
TEXT
  5
1C7
330
1F
100
AcDbEntity
  8
Sheet_View_1_Title_Block_1
 62
    18
420
        0
 48
25.39999961853027
100
AcDbText
 10
19.45492507169431
 20
49.17991235647118
 30
0.0
 40
1.545843958854675
  1
Two Place Decimal             ±
  7
text79963
100
AcDbText
  0
TEXT
  5
1C9
330
1F
100
AcDbEntity
  8
Sheet_View_1_Title_Block_1
 62
    18
420
        0
 48
25.39999961853027
100
AcDbText
 10
19.45492507169431
 20
46.50011378665118
 30
0.0
 40
1.545843958854675
  1
Three Place Decimal          ±
  7
text79966
100
AcDbText
  0
TEXT
  5
1CB
330
1F
100
AcDbEntity
  8
Sheet_View_1_Title_Block_1
  6
BORDER
 62
    18
420
        0
 48
25.39999961853027
100
AcDbText
 10
38.61067113403577
 20
37.35493648220827
 30
0.0
 40
2.273299932479858
  1
ejair.nl
  7
text79971
100
AcDbText
  0
TEXT
  5
1CD
330
1F
100
AcDbEntity
  8
Sheet_View_1_Title_Block_1
  6
BORDER
 62
    18
420
        0
 48
25.39999961853027
100
AcDbText
 10
52.46164217655198
 20
37.38593652524113
 30
0.0
 40
1.681520223617554
  1
14-6-2018
  7
text79974
100
AcDbText
  0
TEXT
  5
1CF
330
1F
100
AcDbEntity
  8
Sheet_View_1_Drawing_1
  6
BORDER
 62
    18
420
        0
 48
12.69999980926514
100
AcDbText
 10
77.13661321670395
 20
88.75735429088007
 30
0.0
 40
4.942860126495361
  1
Section A-A
  7
text80465
100
AcDbText
  0
ARC
  5
1D0
330
1F
100
AcDbEntity
  8
Sheet_View_1_Drawing_1
 62
    18
420
        0
 48
25.39999961853027
370
    50
100
AcDbCircle
 10
127.8753133437041
 20
128.4272814476952
 30
0.0
 40
4.0
100
AcDbArc
 50
179.9999999999994
 51
270.0
  0
LINE
  5
1D1
330
1F
100
AcDbEntity
  8
Sheet_View_1_Drawing_1
 62
    18
420
        0
 48
25.39999961853027
370
    50
100
AcDbLine
 10
127.8753133437041
 20
124.4272814476952
 30
0.0
 11
130.8753133437041
 21
124.4272814476952
 31
0.0
  0
ARC
  5
1D2
330
1F
100
AcDbEntity
  8
Sheet_View_1_Drawing_1
 62
    18
420
        0
 48
25.39999961853027
370
    50
100
AcDbCircle
 10
130.8753133437041
 20
128.4272814476952
 30
0.0
 40
4.0
100
AcDbArc
 50
270.0
 51
0.000000000000573
  0
LINE
  5
1D3
330
1F
100
AcDbEntity
  8
Sheet_View_1_Drawing_1
 62
    18
420
        0
 48
25.39999961853027
370
    50
100
AcDbLine
 10
134.8753133437041
 20
128.4272814476952
 30
0.0
 11
134.8753133437041
 21
139.1772814476952
 31
0.0
  0
ARC
  5
1D4
330
1F
100
AcDbEntity
  8
Sheet_View_1_Drawing_1
 62
    18
420
        0
 48
25.39999961853027
370
    50
100
AcDbCircle
 10
135.1253133437041
 20
139.1772814476952
 30
0.0
 40
0.25
100
AcDbArc
 50
90.0
 51
179.9999999999994
  0
LINE
  5
1D5
330
1F
100
AcDbEntity
  8
Sheet_View_1_Drawing_1
 62
    18
420
        0
 48
25.39999961853027
370
    50
100
AcDbLine
 10
135.1253133437041
 20
139.4272814476952
 30
0.0
 11
139.6253133437041
 21
139.4272814476952
 31
0.0
  0
ARC
  5
1D6
330
1F
100
AcDbEntity
  8
Sheet_View_1_Drawing_1
 62
    18
420
        0
 48
25.39999961853027
370
    50
100
AcDbCircle
 10
139.6253133437041
 20
139.6772814476952
 30
0.0
 40
0.2499999999999716
100
AcDbArc
 50
270.0
 51
0.000000000000573
  0
LINE
  5
1D7
330
1F
100
AcDbEntity
  8
Sheet_View_1_Drawing_1
 62
    18
420
        0
 48
25.39999961853027
370
    50
100
AcDbLine
 10
139.8753133437041
 20
139.6772814476952
 30
0.0
 11
139.8753133437041
 21
140.1772814476952
 31
0.0
  0
ARC
  5
1D8
330
1F
100
AcDbEntity
  8
Sheet_View_1_Drawing_1
 62
    18
420
        0
 48
25.39999961853027
370
    50
100
AcDbCircle
 10
139.6253133437041
 20
140.1772814476952
 30
0.0
 40
0.25
100
AcDbArc
 50
0.000000000000573
 51
90.0
  0
LINE
  5
1D9
330
1F
100
AcDbEntity
  8
Sheet_View_1_Drawing_1
 62
    18
420
        0
 48
25.39999961853027
370
    50
100
AcDbLine
 10
139.6253133437041
 20
140.4272814476952
 30
0.0
 11
135.1253133437041
 21
140.4272814476952
 31
0.0
  0
ARC
  5
1DA
330
1F
100
AcDbEntity
  8
Sheet_View_1_Drawing_1
 62
    18
420
        0
 48
25.39999961853027
370
    50
100
AcDbCircle
 10
135.1253133437041
 20
140.6772814476952
 30
0.0
 40
0.2499999999999716
100
AcDbArc
 50
179.9999999999994
 51
270.0
  0
LINE
  5
1DB
330
1F
100
AcDbEntity
  8
Sheet_View_1_Drawing_1
 62
    18
420
        0
 48
25.39999961853027
370
    50
100
AcDbLine
 10
134.8753133437041
 20
140.6772814476952
 30
0.0
 11
134.8753133437041
 21
152.6772814476952
 31
0.0
  0
ARC
  5
1DC
330
1F
100
AcDbEntity
  8
Sheet_View_1_Drawing_1
 62
    18
420
        0
 48
25.39999961853027
370
    50
100
AcDbCircle
 10
135.1253133437041
 20
152.6772814476952
 30
0.0
 40
0.25
100
AcDbArc
 50
90.0
 51
179.9999999999994
  0
LINE
  5
1DD
330
1F
100
AcDbEntity
  8
Sheet_View_1_Drawing_1
 62
    18
420
        0
 48
25.39999961853027
370
    50
100
AcDbLine
 10
135.1253133437041
 20
152.9272814476952
 30
0.0
 11
136.1253133437041
 21
152.9272814476952
 31
0.0
  0
ARC
  5
1DE
330
1F
100
AcDbEntity
  8
Sheet_View_1_Drawing_1
 62
    18
420
        0
 48
25.39999961853027
370
    50
100
AcDbCircle
 10
136.1253133437041
 20
153.1772814476952
 30
0.0
 40
0.2499999999999716
100
AcDbArc
 50
270.0
 51
0.000000000000573
  0
LINE
  5
1DF
330
1F
100
AcDbEntity
  8
Sheet_View_1_Drawing_1
 62
    18
420
        0
 48
25.39999961853027
370
    50
100
AcDbLine
 10
136.3753133437041
 20
153.1772814476952
 30
0.0
 11
136.3753133437041
 21
155.4272814476952
 31
0.0
  0
LINE
  5
1E0
330
1F
100
AcDbEntity
  8
Sheet_View_1_Drawing_1
 62
    18
420
        0
 48
25.39999961853027
370
    50
100
AcDbLine
 10
136.3753133437041
 20
155.4272814476952
 30
0.0
 11
135.1253133437041
 21
155.4272814476952
 31
0.0
  0
LINE
  5
1E1
330
1F
100
AcDbEntity
  8
Sheet_View_1_Drawing_1
 62
    18
420
        0
 48
25.39999961853027
370
    50
100
AcDbLine
 10
135.1253133437041
 20
155.4272814476952
 30
0.0
 11
135.1253133437041
 21
154.1772814476952
 31
0.0
  0
LINE
  5
1E2
330
1F
100
AcDbEntity
  8
Sheet_View_1_Drawing_1
 62
    18
420
        0
 48
25.39999961853027
370
    50
100
AcDbLine
 10
135.1253133437041
 20
154.1772814476952
 30
0.0
 11
133.8753133437041
 21
154.1772814476952
 31
0.0
  0
LINE
  5
1E3
330
1F
100
AcDbEntity
  8
Sheet_View_1_Drawing_1
 62
    18
420
        0
 48
25.39999961853027
370
    50
100
AcDbLine
 10
133.8753133437041
 20
154.1772814476952
 30
0.0
 11
133.8753133437041
 21
128.4272814476952
 31
0.0
  0
ARC
  5
1E4
330
1F
100
AcDbEntity
  8
Sheet_View_1_Drawing_1
 62
    18
420
        0
 48
25.39999961853027
370
    50
100
AcDbCircle
 10
130.8753133437041
 20
128.4272814476952
 30
0.0
 40
2.999999999999972
100
AcDbArc
 50
270.0
 51
0.000000000000573
  0
LINE
  5
1E5
330
1F
100
AcDbEntity
  8
Sheet_View_1_Drawing_1
 62
    18
420
        0
 48
25.39999961853027
370
    50
100
AcDbLine
 10
130.8753133437041
 20
125.4272814476952
 30
0.0
 11
127.8753133437041
 21
125.4272814476952
 31
0.0
  0
ARC
  5
1E6
330
1F
100
AcDbEntity
  8
Sheet_View_1_Drawing_1
 62
    18
420
        0
 48
25.39999961853027
370
    50
100
AcDbCircle
 10
127.8753133437041
 20
128.4272814476952
 30
0.0
 40
3.0
100
AcDbArc
 50
180.0000000000006
 51
270.0
  0
LINE
  5
1E7
330
1F
100
AcDbEntity
  8
Sheet_View_1_Drawing_1
 62
    18
420
        0
 48
25.39999961853027
370
    50
100
AcDbLine
 10
124.8753133437041
 20
128.4272814476952
 30
0.0
 11
124.8753133437041
 21
148.4272814476952
 31
0.0
  0
ARC
  5
1E8
330
1F
100
AcDbEntity
  8
Sheet_View_1_Drawing_1
 62
    18
420
        0
 48
25.39999961853027
370
    50
100
AcDbCircle
 10
124.3753133437041
 20
148.4272814476952
 30
0.0
 40
0.5
100
AcDbArc
 50
0.000000000000573
 51
89.99999999999837
  0
LINE
  5
1E9
330
1F
100
AcDbEntity
  8
Sheet_View_1_Drawing_1
 62
    18
420
        0
 48
25.39999961853027
370
    50
100
AcDbLine
 10
124.3753133437041
 20
148.9272814476952
 30
0.0
 11
122.1253133437041
 21
148.9272814476952
 31
0.0
  0
ARC
  5
1EA
330
1F
100
AcDbEntity
  8
Sheet_View_1_Drawing_1
 62
    18
420
        0
 48
25.39999961853027
370
    50
100
AcDbCircle
 10
122.1253133437041
 20
148.6772814476952
 30
0.0
 40
0.2499999999999716
100
AcDbArc
 50
90.0
 51
179.9999999999994
  0
LINE
  5
1EB
330
1F
100
AcDbEntity
  8
Sheet_View_1_Drawing_1
 62
    18
420
        0
 48
25.39999961853027
370
    50
100
AcDbLine
 10
121.8753133437041
 20
148.6772814476952
 30
0.0
 11
121.8753133437041
 21
147.9272814476952
 31
0.0
  0
LINE
  5
1EC
330
1F
100
AcDbEntity
  8
Sheet_View_1_Drawing_1
 62
    18
420
        0
 48
25.39999961853027
370
    50
100
AcDbLine
 10
121.8753133437041
 20
147.9272814476952
 30
0.0
 11
123.8753133437041
 21
147.9272814476952
 31
0.0
  0
LINE
  5
1ED
330
1F
100
AcDbEntity
  8
Sheet_View_1_Drawing_1
 62
    18
420
        0
 48
25.39999961853027
370
    50
100
AcDbLine
 10
123.8753133437041
 20
147.9272814476952
 30
0.0
 11
123.8753133437041
 21
128.4272814476952
 31
0.0
  0
ARC
  5
1EE
330
1F
100
AcDbEntity
  8
Sheet_View_1_Drawing_1
 62
    18
420
        0
 48
25.39999961853027
370
    50
100
AcDbCircle
 10
94.87531334370408
 20
128.4272814476952
 30
0.0
 40
4.0
100
AcDbArc
 50
270.0
 51
0.000000000000573
  0
LINE
  5
1EF
330
1F
100
AcDbEntity
  8
Sheet_View_1_Drawing_1
 62
    18
420
        0
 48
25.39999961853027
370
    50
100
AcDbLine
 10
98.87531334370406
 20
128.4272814476952
 30
0.0
 11
98.87531334370406
 21
147.9272814476952
 31
0.0
  0
LINE
  5
1F0
330
1F
100
AcDbEntity
  8
Sheet_View_1_Drawing_1
 62
    18
420
        0
 48
25.39999961853027
370
    50
100
AcDbLine
 10
98.87531334370406
 20
147.9272814476952
 30
0.0
 11
100.8753133437041
 21
147.9272814476952
 31
0.0
  0
LINE
  5
1F1
330
1F
100
AcDbEntity
  8
Sheet_View_1_Drawing_1
 62
    18
420
        0
 48
25.39999961853027
370
    50
100
AcDbLine
 10
100.8753133437041
 20
147.9272814476952
 30
0.0
 11
100.8753133437041
 21
148.6772814476952
 31
0.0
  0
ARC
  5
1F2
330
1F
100
AcDbEntity
  8
Sheet_View_1_Drawing_1
 62
    18
420
        0
 48
25.39999961853027
370
    50
100
AcDbCircle
 10
100.6253133437041
 20
148.6772814476952
 30
0.0
 40
0.2499999999999858
100
AcDbArc
 50
0.000000000000573
 51
90.00000000000325
  0
LINE
  5
1F3
330
1F
100
AcDbEntity
  8
Sheet_View_1_Drawing_1
 62
    18
420
        0
 48
25.39999961853027
370
    50
100
AcDbLine
 10
100.6253133437041
 20
148.9272814476952
 30
0.0
 11
98.37531334370408
 21
148.9272814476952
 31
0.0
  0
ARC
  5
1F4
330
1F
100
AcDbEntity
  8
Sheet_View_1_Drawing_1
 62
    18
420
        0
 48
25.39999961853027
370
    50
100
AcDbCircle
 10
98.37531334370408
 20
148.4272814476952
 30
0.0
 40
0.5
100
AcDbArc
 50
90.0
 51
179.9999999999994
  0
LINE
  5
1F5
330
1F
100
AcDbEntity
  8
Sheet_View_1_Drawing_1
 62
    18
420
        0
 48
25.39999961853027
370
    50
100
AcDbLine
 10
97.87531334370408
 20
148.4272814476952
 30
0.0
 11
97.87531334370408
 21
128.4272814476952
 31
0.0
  0
ARC
  5
1F6
330
1F
100
AcDbEntity
  8
Sheet_View_1_Drawing_1
 62
    18
420
        0
 48
25.39999961853027
370
    50
100
AcDbCircle
 10
94.87531334370408
 20
128.4272814476952
 30
0.0
 40
3.0
100
AcDbArc
 50
270.0
 51
0.000000000000573
  0
LINE
  5
1F7
330
1F
100
AcDbEntity
  8
Sheet_View_1_Drawing_1
 62
    18
420
        0
 48
25.39999961853027
370
    50
100
AcDbLine
 10
94.87531334370408
 20
125.4272814476952
 30
0.0
 11
91.87531334370412
 21
125.4272814476952
 31
0.0
  0
ARC
  5
1F8
330
1F
100
AcDbEntity
  8
Sheet_View_1_Drawing_1
 62
    18
420
        0
 48
25.39999961853027
370
    50
100
AcDbCircle
 10
91.87531334370412
 20
128.4272814476952
 30
0.0
 40
3.0
100
AcDbArc
 50
180.0000000000006
 51
270.0
  0
LINE
  5
1F9
330
1F
100
AcDbEntity
  8
Sheet_View_1_Drawing_1
 62
    18
420
        0
 48
25.39999961853027
370
    50
100
AcDbLine
 10
88.87531334370411
 20
128.4272814476952
 30
0.0
 11
88.87531334370411
 21
154.1772814476952
 31
0.0
  0
LINE
  5
1FA
330
1F
100
AcDbEntity
  8
Sheet_View_1_Drawing_1
 62
    18
420
        0
 48
25.39999961853027
370
    50
100
AcDbLine
 10
88.87531334370411
 20
154.1772814476952
 30
0.0
 11
87.62531334370412
 21
154.1772814476952
 31
0.0
  0
LINE
  5
1FB
330
1F
100
AcDbEntity
  8
Sheet_View_1_Drawing_1
 62
    18
420
        0
 48
25.39999961853027
370
    50
100
AcDbLine
 10
87.62531334370412
 20
154.1772814476952
 30
0.0
 11
87.62531334370412
 21
155.4272814476952
 31
0.0
  0
LINE
  5
1FC
330
1F
100
AcDbEntity
  8
Sheet_View_1_Drawing_1
 62
    18
420
        0
 48
25.39999961853027
370
    50
100
AcDbLine
 10
87.62531334370412
 20
155.4272814476952
 30
0.0
 11
86.37531334370412
 21
155.4272814476952
 31
0.0
  0
LINE
  5
1FD
330
1F
100
AcDbEntity
  8
Sheet_View_1_Drawing_1
 62
    18
420
        0
 48
25.39999961853027
370
    50
100
AcDbLine
 10
86.37531334370412
 20
155.4272814476952
 30
0.0
 11
86.37531334370412
 21
153.1772814476952
 31
0.0
  0
ARC
  5
1FE
330
1F
100
AcDbEntity
  8
Sheet_View_1_Drawing_1
 62
    18
420
        0
 48
25.39999961853027
370
    50
100
AcDbCircle
 10
86.62531334370412
 20
153.1772814476952
 30
0.0
 40
0.25
100
AcDbArc
 50
179.9999999999994
 51
269.9999999999968
  0
LINE
  5
1FF
330
1F
100
AcDbEntity
  8
Sheet_View_1_Drawing_1
 62
    18
420
        0
 48
25.39999961853027
370
    50
100
AcDbLine
 10
86.62531334370412
 20
152.9272814476952
 30
0.0
 11
87.62531334370412
 21
152.9272814476952
 31
0.0
  0
ARC
  5
200
330
1F
100
AcDbEntity
  8
Sheet_View_1_Drawing_1
 62
    18
420
        0
 48
25.39999961853027
370
    50
100
AcDbCircle
 10
87.62531334370412
 20
152.6772814476952
 30
0.0
 40
0.2500000000000284
100
AcDbArc
 50
359.9999999999935
 51
90.0
  0
LINE
  5
201
330
1F
100
AcDbEntity
  8
Sheet_View_1_Drawing_1
 62
    18
420
        0
 48
25.39999961853027
370
    50
100
AcDbLine
 10
87.87531334370411
 20
152.6772814476952
 30
0.0
 11
87.87531334370411
 21
140.6772814476952
 31
0.0
  0
ARC
  5
202
330
1F
100
AcDbEntity
  8
Sheet_View_1_Drawing_1
 62
    18
420
        0
 48
25.39999961853027
370
    50
100
AcDbCircle
 10
87.62531334370412
 20
140.6772814476952
 30
0.0
 40
0.2499999999999858
100
AcDbArc
 50
270.0
 51
0.000000000000573
  0
LINE
  5
203
330
1F
100
AcDbEntity
  8
Sheet_View_1_Drawing_1
 62
    18
420
        0
 48
25.39999961853027
370
    50
100
AcDbLine
 10
87.62531334370412
 20
140.4272814476952
 30
0.0
 11
83.12531334370411
 21
140.4272814476952
 31
0.0
  0
ARC
  5
204
330
1F
100
AcDbEntity
  8
Sheet_View_1_Drawing_1
 62
    18
420
        0
 48
25.39999961853027
370
    50
100
AcDbCircle
 10
83.12531334370411
 20
140.1772814476952
 30
0.0
 40
0.2500000000000284
100
AcDbArc
 50
90.0
 51
179.9999999999994
  0
LINE
  5
205
330
1F
100
AcDbEntity
  8
Sheet_View_1_Drawing_1
 62
    18
420
        0
 48
25.39999961853027
370
    50
100
AcDbLine
 10
82.87531334370412
 20
140.1772814476952
 30
0.0
 11
82.87531334370412
 21
139.6772814476952
 31
0.0
  0
ARC
  5
206
330
1F
100
AcDbEntity
  8
Sheet_View_1_Drawing_1
 62
    18
420
        0
 48
25.39999961853027
370
    50
100
AcDbCircle
 10
83.12531334370411
 20
139.6772814476952
 30
0.0
 40
0.2499999999999858
100
AcDbArc
 50
179.9999999999994
 51
270.0
  0
LINE
  5
207
330
1F
100
AcDbEntity
  8
Sheet_View_1_Drawing_1
 62
    18
420
        0
 48
25.39999961853027
370
    50
100
AcDbLine
 10
83.12531334370411
 20
139.4272814476952
 30
0.0
 11
87.62531334370412
 21
139.4272814476952
 31
0.0
  0
ARC
  5
208
330
1F
100
AcDbEntity
  8
Sheet_View_1_Drawing_1
 62
    18
420
        0
 48
25.39999961853027
370
    50
100
AcDbCircle
 10
87.62531334370412
 20
139.1772814476952
 30
0.0
 40
0.2500000000000284
100
AcDbArc
 50
359.9999999999935
 51
90.0
  0
LINE
  5
209
330
1F
100
AcDbEntity
  8
Sheet_View_1_Drawing_1
 62
    18
420
        0
 48
25.39999961853027
370
    50
100
AcDbLine
 10
87.87531334370411
 20
139.1772814476952
 30
0.0
 11
87.87531334370411
 21
128.4272814476952
 31
0.0
  0
ARC
  5
20A
330
1F
100
AcDbEntity
  8
Sheet_View_1_Drawing_1
 62
    18
420
        0
 48
25.39999961853027
370
    50
100
AcDbCircle
 10
91.87531334370412
 20
128.4272814476952
 30
0.0
 40
4.000000000000014
100
AcDbArc
 50
179.9999999999994
 51
270.0
  0
LINE
  5
20B
330
1F
100
AcDbEntity
  8
Sheet_View_1_Drawing_1
 62
    18
420
        0
 48
25.39999961853027
370
    50
100
AcDbLine
 10
91.87531334370412
 20
124.4272814476952
 30
0.0
 11
94.87531334370408
 21
124.4272814476952
 31
0.0
  0
LINE
  5
20C
330
1F
100
AcDbEntity
  8
Sheet_View_1_Drawing_1
 62
    18
420
        0
 48
25.39999961853027
370
    50
100
AcDbLine
 10
108.8753133437042
 20
152.5395329072524
 30
0.0
 11
113.8753133437042
 21
152.5395329072524
 31
0.0
  0
ARC
  5
20D
330
1F
100
AcDbEntity
  8
Sheet_View_1_Drawing_1
 62
    18
420
        0
 48
25.39999961853027
370
    50
100
AcDbCircle
 10
113.8753133437042
 20
153.7895329072524
 30
0.0
 40
1.25
100
AcDbArc
 50
270.0
 51
348.4630409671844
  0
LINE
  5
20E
330
1F
100
AcDbEntity
  8
Sheet_View_1_Drawing_1
 62
    18
420
        0
 48
25.39999961853027
370
    50
100
AcDbLine
 10
115.1000582150958
 20
153.5395329072524
 30
0.0
 11
118.3316524007957
 21
153.5395329072524
 31
0.0
  0
LINE
  5
20F
330
1F
100
AcDbEntity
  8
Sheet_View_1_Drawing_1
 62
    18
420
        0
 48
25.39999961853027
370
    50
100
AcDbLine
 10
118.3316524007957
 20
153.5395329072524
 30
0.0
 11
127.1367805719472
 21
152.7691840113839
 31
0.0
  0
ARC
  5
210
330
1F
100
AcDbEntity
  8
Sheet_View_1_Drawing_1
 62
    18
420
        0
 48
25.39999961853027
370
    50
100
AcDbCircle
 10
126.8753133437042
 20
149.7805999171087
 30
0.0
 40
3.000000000000003
100
AcDbArc
 50
0.000000000000573
 51
84.99999999999994
  0
LINE
  5
211
330
1F
100
AcDbEntity
  8
Sheet_View_1_Drawing_1
 62
    18
420
        0
 48
25.39999961853027
370
    50
100
AcDbLine
 10
129.8753133437042
 20
149.7805999171087
 30
0.0
 11
129.8753133437042
 21
131.5395329072524
 31
0.0
  0
LINE
  5
212
330
1F
100
AcDbEntity
  8
Sheet_View_1_Drawing_1
 62
    18
420
        0
 48
25.39999961853027
370
    50
100
AcDbLine
 10
129.8753133437042
 20
131.5395329072524
 30
0.0
 11
130.8753133437042
 21
131.5395329072524
 31
0.0
  0
LINE
  5
213
330
1F
100
AcDbEntity
  8
Sheet_View_1_Drawing_1
 62
    18
420
        0
 48
25.39999961853027
370
    50
100
AcDbLine
 10
130.8753133437042
 20
131.5395329072524
 30
0.0
 11
130.8753133437042
 21
149.7805999171087
 31
0.0
  0
ARC
  5
214
330
1F
100
AcDbEntity
  8
Sheet_View_1_Drawing_1
 62
    18
420
        0
 48
25.39999961853027
370
    50
100
AcDbCircle
 10
126.8753133437042
 20
149.7805999171087
 30
0.0
 40
4.000000000000014
100
AcDbArc
 50
0.000000000000573
 51
85.00000000000043
  0
LINE
  5
215
330
1F
100
AcDbEntity
  8
Sheet_View_1_Drawing_1
 62
    18
420
        0
 48
25.39999961853027
370
    50
100
AcDbLine
 10
127.2239363146949
 20
153.7653787094757
 30
0.0
 11
127.0893444184264
 21
153.7771539746016
 31
0.0
  0
LINE
  5
216
330
1F
100
AcDbEntity
  8
Sheet_View_1_Drawing_1
 62
    18
420
        0
 48
25.39999961853027
370
    50
100
AcDbLine
 10
127.0893444184264
 20
153.7771539746016
 30
0.0
 11
127.0893444184264
 21
154.6645627155632
 31
0.0
  0
LINE
  5
217
330
1F
100
AcDbEntity
  8
Sheet_View_1_Drawing_1
 62
    18
420
        0
 48
25.39999961853027
370
    50
100
AcDbLine
 10
127.0893444184264
 20
154.6645627155632
 30
0.0
 11
119.5893444184264
 21
154.6645627155632
 31
0.0
  0
LINE
  5
218
330
1F
100
AcDbEntity
  8
Sheet_View_1_Drawing_1
 62
    18
420
        0
 48
25.39999961853027
370
    50
100
AcDbLine
 10
119.5893444184264
 20
154.6645627155632
 30
0.0
 11
119.5893444184264
 21
154.433318951046
 31
0.0
  0
LINE
  5
219
330
1F
100
AcDbEntity
  8
Sheet_View_1_Drawing_1
 62
    18
420
        0
 48
25.39999961853027
370
    50
100
AcDbLine
 10
119.5893444184264
 20
154.433318951046
 30
0.0
 11
118.3753133437042
 21
154.5395329072524
 31
0.0
  0
LINE
  5
21A
330
1F
100
AcDbEntity
  8
Sheet_View_1_Drawing_1
 62
    18
420
        0
 48
25.39999961853027
370
    50
100
AcDbLine
 10
118.3753133437042
 20
154.5395329072524
 30
0.0
 11
114.3753133437042
 21
154.5395329072524
 31
0.0
  0
ARC
  5
21B
330
1F
100
AcDbEntity
  8
Sheet_View_1_Drawing_1
 62
    18
420
        0
 48
25.39999961853027
370
    50
100
AcDbCircle
 10
114.3753133437042
 20
154.2895329072524
 30
0.0
 40
0.25
100
AcDbArc
 50
90.0
 51
179.9999999999994
  0
LINE
  5
21C
330
1F
100
AcDbEntity
  8
Sheet_View_1_Drawing_1
 62
    18
420
        0
 48
25.39999961853027
370
    50
100
AcDbLine
 10
114.1253133437042
 20
154.2895329072524
 30
0.0
 11
114.1253133437042
 21
153.7895329072524
 31
0.0
  0
ARC
  5
21D
330
1F
100
AcDbEntity
  8
Sheet_View_1_Drawing_1
 62
    18
420
        0
 48
25.39999961853027
370
    50
100
AcDbCircle
 10
113.8753133437042
 20
153.7895329072524
 30
0.0
 40
0.25
100
AcDbArc
 50
270.0
 51
0.000000000000573
  0
LINE
  5
21E
330
1F
100
AcDbEntity
  8
Sheet_View_1_Drawing_1
 62
    18
420
        0
 48
25.39999961853027
370
    50
100
AcDbLine
 10
113.8753133437042
 20
153.5395329072524
 30
0.0
 11
108.8753133437042
 21
153.5395329072524
 31
0.0
  0
ARC
  5
21F
330
1F
100
AcDbEntity
  8
Sheet_View_1_Drawing_1
 62
    18
420
        0
 48
25.39999961853027
370
    50
100
AcDbCircle
 10
108.8753133437042
 20
153.7895329072524
 30
0.0
 40
0.25
100
AcDbArc
 50
179.9999999999935
 51
270.0
  0
LINE
  5
220
330
1F
100
AcDbEntity
  8
Sheet_View_1_Drawing_1
 62
    18
420
        0
 48
25.39999961853027
370
    50
100
AcDbLine
 10
108.6253133437042
 20
153.7895329072524
 30
0.0
 11
108.6253133437042
 21
154.2895329072524
 31
0.0
  0
ARC
  5
221
330
1F
100
AcDbEntity
  8
Sheet_View_1_Drawing_1
 62
    18
420
        0
 48
25.39999961853027
370
    50
100
AcDbCircle
 10
108.3753133437042
 20
154.2895329072524
 30
0.0
 40
0.25
100
AcDbArc
 50
0.000000000000573
 51
89.99999999999675
  0
LINE
  5
222
330
1F
100
AcDbEntity
  8
Sheet_View_1_Drawing_1
 62
    18
420
        0
 48
25.39999961853027
370
    50
100
AcDbLine
 10
108.3753133437042
 20
154.5395329072524
 30
0.0
 11
104.3753133437042
 21
154.5395329072524
 31
0.0
  0
LINE
  5
223
330
1F
100
AcDbEntity
  8
Sheet_View_1_Drawing_1
 62
    18
420
        0
 48
25.39999961853027
370
    50
100
AcDbLine
 10
104.3753133437042
 20
154.5395329072524
 30
0.0
 11
103.161282268982
 21
154.433318951046
 31
0.0
  0
LINE
  5
224
330
1F
100
AcDbEntity
  8
Sheet_View_1_Drawing_1
 62
    18
420
        0
 48
25.39999961853027
370
    50
100
AcDbLine
 10
103.161282268982
 20
154.4333189510461
 30
0.0
 11
103.161282268982
 21
154.6645627155632
 31
0.0
  0
LINE
  5
225
330
1F
100
AcDbEntity
  8
Sheet_View_1_Drawing_1
 62
    18
420
        0
 48
25.39999961853027
370
    50
100
AcDbLine
 10
103.161282268982
 20
154.6645627155632
 30
0.0
 11
95.66128226898202
 21
154.6645627155632
 31
0.0
  0
LINE
  5
226
330
1F
100
AcDbEntity
  8
Sheet_View_1_Drawing_1
 62
    18
420
        0
 48
25.39999961853027
370
    50
100
AcDbLine
 10
95.66128226898202
 20
154.6645627155632
 30
0.0
 11
95.66128226898202
 21
153.7771539746016
 31
0.0
  0
LINE
  5
227
330
1F
100
AcDbEntity
  8
Sheet_View_1_Drawing_1
 62
    18
420
        0
 48
25.39999961853027
370
    50
100
AcDbLine
 10
95.66128226898202
 20
153.7771539746016
 30
0.0
 11
95.52669037271357
 21
153.7653787094757
 31
0.0
  0
ARC
  5
228
330
1F
100
AcDbEntity
  8
Sheet_View_1_Drawing_1
 62
    18
420
        0
 48
25.39999961853027
370
    50
100
AcDbCircle
 10
95.8753133437042
 20
149.7805999171087
 30
0.0
 40
4.000000000000014
100
AcDbArc
 50
95.00000000000018
 51
180.0000000000006
  0
LINE
  5
229
330
1F
100
AcDbEntity
  8
Sheet_View_1_Drawing_1
 62
    18
420
        0
 48
25.39999961853027
370
    50
100
AcDbLine
 10
91.8753133437042
 20
149.7805999171087
 30
0.0
 11
91.8753133437042
 21
131.5395329072524
 31
0.0
  0
LINE
  5
22A
330
1F
100
AcDbEntity
  8
Sheet_View_1_Drawing_1
 62
    18
420
        0
 48
25.39999961853027
370
    50
100
AcDbLine
 10
91.8753133437042
 20
131.5395329072524
 30
0.0
 11
92.8753133437042
 21
131.5395329072524
 31
0.0
  0
LINE
  5
22B
330
1F
100
AcDbEntity
  8
Sheet_View_1_Drawing_1
 62
    18
420
        0
 48
25.39999961853027
370
    50
100
AcDbLine
 10
92.8753133437042
 20
131.5395329072524
 30
0.0
 11
92.8753133437042
 21
149.7805999171087
 31
0.0
  0
ARC
  5
22C
330
1F
100
AcDbEntity
  8
Sheet_View_1_Drawing_1
 62
    18
420
        0
 48
25.39999961853027
370
    50
100
AcDbCircle
 10
95.8753133437042
 20
149.7805999171087
 30
0.0
 40
3.0
100
AcDbArc
 50
94.99999999999979
 51
179.9999999999994
  0
LINE
  5
22D
330
1F
100
AcDbEntity
  8
Sheet_View_1_Drawing_1
 62
    18
420
        0
 48
25.39999961853027
370
    50
100
AcDbLine
 10
95.61384611546123
 20
152.7691840113839
 30
0.0
 11
104.4189742866127
 21
153.5395329072524
 31
0.0
  0
LINE
  5
22E
330
1F
100
AcDbEntity
  8
Sheet_View_1_Drawing_1
 62
    18
420
        0
 48
25.39999961853027
370
    50
100
AcDbLine
 10
104.4189742866127
 20
153.5395329072524
 30
0.0
 11
107.6505684723126
 21
153.5395329072524
 31
0.0
  0
ARC
  5
22F
330
1F
100
AcDbEntity
  8
Sheet_View_1_Drawing_1
 62
    18
420
        0
 48
25.39999961853027
370
    50
100
AcDbCircle
 10
108.8753133437042
 20
153.7895329072524
 30
0.0
 40
1.250000000000004
100
AcDbArc
 50
191.5369590328154
 51
269.9999999999993
  0
LINE
  5
230
330
1F
100
AcDbEntity
  8
Sheet_View_1_Drawing_1
 62
    18
420
        0
 48
25.39999961853027
370
    50
100
AcDbLine
 10
117.3753133437042
 20
154.0272814476953
 30
0.0
 11
117.3753133437042
 21
155.0272814476952
 31
0.0
  0
LINE
  5
231
330
1F
100
AcDbEntity
  8
Sheet_View_1_Drawing_1
 62
    18
420
        0
 48
25.39999961853027
370
    50
100
AcDbLine
 10
117.3753133437042
 20
155.0272814476952
 30
0.0
 11
105.3753133437042
 21
155.0272814476952
 31
0.0
  0
LINE
  5
232
330
1F
100
AcDbEntity
  8
Sheet_View_1_Drawing_1
 62
    18
420
        0
 48
25.39999961853027
370
    50
100
AcDbLine
 10
105.3753133437042
 20
155.0272814476952
 30
0.0
 11
105.3753133437042
 21
154.0272814476953
 31
0.0
  0
LINE
  5
233
330
1F
100
AcDbEntity
  8
Sheet_View_1_Drawing_1
 62
    18
420
        0
 48
25.39999961853027
370
    50
100
AcDbLine
 10
105.3753133437042
 20
154.0272814476952
 30
0.0
 11
117.3753133437042
 21
154.0272814476952
 31
0.0
  0
LINE
  5
234
330
1F
100
AcDbEntity
  8
Sheet_View_1_Drawing_1
 62
    18
420
        0
 48
25.39999961853027
370
    50
100
AcDbLine
 10
90.8753133437042
 20
155.0272814476952
 30
0.0
 11
88.3753133437042
 21
155.1772814476952
 31
0.0
  0
LINE
  5
235
330
1F
100
AcDbEntity
  8
Sheet_View_1_Drawing_1
 62
    18
420
        0
 48
25.39999961853027
370
    50
100
AcDbLine
 10
88.3753133437042
 20
155.1772814476952
 30
0.0
 11
87.8753133437042
 21
155.1772814476952
 31
0.0
  0
LINE
  5
236
330
1F
100
AcDbEntity
  8
Sheet_View_1_Drawing_1
 62
    18
420
        0
 48
25.39999961853027
370
    50
100
AcDbLine
 10
87.8753133437042
 20
155.1772814476952
 30
0.0
 11
87.8753133437042
 21
154.1772814476952
 31
0.0
  0
LINE
  5
237
330
1F
100
AcDbEntity
  8
Sheet_View_1_Drawing_1
 62
    18
420
        0
 48
25.39999961853027
370
    50
100
AcDbLine
 10
87.8753133437042
 20
154.1772814476952
 30
0.0
 11
90.8753133437042
 21
154.1772814476952
 31
0.0
  0
LINE
  5
238
330
1F
100
AcDbEntity
  8
Sheet_View_1_Drawing_1
 62
    18
420
        0
 48
25.39999961853027
370
    50
100
AcDbLine
 10
90.87531334370419
 20
154.1772814476952
 30
0.0
 11
91.3753133437042
 21
154.1472814476952
 31
0.0
  0
LINE
  5
239
330
1F
100
AcDbEntity
  8
Sheet_View_1_Drawing_1
 62
    18
420
        0
 48
25.39999961853027
370
    50
100
AcDbLine
 10
91.3753133437042
 20
154.1472814476952
 30
0.0
 11
91.3753133437042
 21
155.0272814476952
 31
0.0
  0
LINE
  5
23A
330
1F
100
AcDbEntity
  8
Sheet_View_1_Drawing_1
 62
    18
420
        0
 48
25.39999961853027
370
    50
100
AcDbLine
 10
91.3753133437042
 20
155.0272814476952
 30
0.0
 11
90.8753133437042
 21
155.0272814476952
 31
0.0
  0
LINE
  5
23B
330
1F
100
AcDbEntity
  8
Sheet_View_1_Drawing_1
 62
    18
420
        0
 48
25.39999961853027
370
    50
100
AcDbLine
 10
134.3753133437042
 20
155.1772814476952
 30
0.0
 11
131.8753133437042
 21
155.0272814476952
 31
0.0
  0
LINE
  5
23C
330
1F
100
AcDbEntity
  8
Sheet_View_1_Drawing_1
 62
    18
420
        0
 48
25.39999961853027
370
    50
100
AcDbLine
 10
131.8753133437042
 20
155.0272814476952
 30
0.0
 11
131.3753133437042
 21
155.0272814476952
 31
0.0
  0
LINE
  5
23D
330
1F
100
AcDbEntity
  8
Sheet_View_1_Drawing_1
 62
    18
420
        0
 48
25.39999961853027
370
    50
100
AcDbLine
 10
131.3753133437042
 20
155.0272814476952
 30
0.0
 11
131.3753133437042
 21
154.1472814476952
 31
0.0
  0
LINE
  5
23E
330
1F
100
AcDbEntity
  8
Sheet_View_1_Drawing_1
 62
    18
420
        0
 48
25.39999961853027
370
    50
100
AcDbLine
 10
131.3753133437042
 20
154.1472814476952
 30
0.0
 11
131.8753133437042
 21
154.1772814476952
 31
0.0
  0
LINE
  5
23F
330
1F
100
AcDbEntity
  8
Sheet_View_1_Drawing_1
 62
    18
420
        0
 48
25.39999961853027
370
    50
100
AcDbLine
 10
131.8753133437042
 20
154.1772814476952
 30
0.0
 11
134.8753133437042
 21
154.1772814476952
 31
0.0
  0
LINE
  5
240
330
1F
100
AcDbEntity
  8
Sheet_View_1_Drawing_1
 62
    18
420
        0
 48
25.39999961853027
370
    50
100
AcDbLine
 10
134.8753133437042
 20
154.1772814476952
 30
0.0
 11
134.8753133437042
 21
155.1772814476952
 31
0.0
  0
LINE
  5
241
330
1F
100
AcDbEntity
  8
Sheet_View_1_Drawing_1
 62
    18
420
        0
 48
25.39999961853027
370
    50
100
AcDbLine
 10
134.8753133437042
 20
155.1772814476952
 30
0.0
 11
134.3753133437042
 21
155.1772814476952
 31
0.0
  0
ARC
  5
242
330
1F
100
AcDbEntity
  8
Sheet_View_1_Drawing_1
 62
    18
420
        0
 48
25.39999961853027
370
    50
100
AcDbCircle
 10
86.62531334370412
 20
153.1772814476952
 30
0.0
 40
0.2499999999999716
100
AcDbArc
 50
225.0
 51
270.0
  0
ARC
  5
243
330
1F
100
AcDbEntity
  8
Sheet_View_1_Drawing_1
 62
    18
420
        0
 48
25.39999961853027
370
    50
100
AcDbCircle
 10
136.1253133437041
 20
153.1772814476952
 30
0.0
 40
0.250000000000002
100
AcDbArc
 50
270.0
 51
315.0
  0
ARC
  5
244
330
1F
100
AcDbEntity
  8
Sheet_View_1_Drawing_1
 62
    18
420
        0
 48
25.39999961853027
370
    50
100
AcDbCircle
 10
136.1253133437041
 20
153.1772814476952
 30
0.0
 40
0.25
100
AcDbArc
 50
315.0000000000047
 51
0.000000000000573
  0
ARC
  5
245
330
1F
100
AcDbEntity
  8
Sheet_View_1_Drawing_1
 62
    18
420
        0
 48
25.39999961853027
370
    50
100
AcDbCircle
 10
86.62531334370412
 20
153.1772814476952
 30
0.0
 40
0.250000000000002
100
AcDbArc
 50
179.9999999999994
 51
225.0
  0
LINE
  5
246
330
1F
100
AcDbEntity
  8
Sheet_View_1_Drawing_1
 62
    18
420
        0
 48
25.39999961853027
370
    50
100
AcDbLine
 10
135.1253133437041
 20
155.4272814476952
 30
0.0
 11
87.62531334370412
 21
155.4272814476952
 31
0.0
  0
LINE
  5
247
330
1F
100
AcDbEntity
  8
Sheet_View_1_Drawing_1
 62
    18
420
        0
 48
25.39999961853027
370
    50
100
AcDbLine
 10
97.87537925791607
 20
128.4272814476943
 30
0.0
 11
88.87531334370355
 21
128.4272814476943
 31
0.0
  0
LINE
  5
248
330
1F
100
AcDbEntity
  8
Sheet_View_1_Drawing_1
 62
    18
420
        0
 48
25.39999961853027
370
    50
100
AcDbLine
 10
133.8753133437049
 20
128.4272814476943
 30
0.0
 11
124.8752474894659
 21
128.4272814476943
 31
0.0
  0
LINE
  5
249
330
1F
100
AcDbEntity
  8
Sheet_View_1_Drawing_1
 62
    18
420
        0
 48
25.39999961853027
370
    50
100
AcDbLine
 10
100.6253133437052
 20
148.9272814476954
 30
0.0
 11
122.1253133437032
 21
148.9272814476954
 31
0.0
  0
LINE
  5
24A
330
1F
100
AcDbEntity
  8
Sheet_View_1_Drawing_1
 62
    18
420
        0
 48
25.39999961853027
370
    50
100
AcDbLine
 10
121.8753133437047
 20
148.677281447694
 30
0.0
 11
100.8753133437037
 21
148.677281447694
 31
0.0
  0
LINE
  5
24B
330
1F
100
AcDbEntity
  8
Sheet_View_1_Drawing_1
 62
    18
420
        0
 48
25.39999961853027
370
    50
100
AcDbLine
 10
100.8753133437037
 20
147.9272814476956
 30
0.0
 11
121.8753133437047
 21
147.9272814476956
 31
0.0
  0
LINE
  5
24C
330
1F
100
AcDbEntity
  8
Sheet_View_1_Drawing_1
 62
    18
420
        0
 48
25.39999961853027
370
    50
100
AcDbLine
 10
98.87531334370416
 20
128.4272814476943
 30
0.0
 11
123.8753133437042
 21
128.4272814476943
 31
0.0
  0
LINE
  5
24D
330
1F
100
AcDbEntity
  8
Sheet_View_1_Drawing_1
 62
    18
420
        0
 48
25.39999961853027
370
    50
100
AcDbLine
 10
127.8753133437033
 20
124.4272814476952
 30
0.0
 11
94.87531334370507
 21
124.4272814476952
 31
0.0
  0
LINE
  5
24E
330
1F
100
AcDbEntity
  8
Sheet_View_1_Drawing_1
 62
    18
420
        0
 48
25.39999961853027
370
    50
100
AcDbLine
 10
108.1530257315
 20
152.7691840113842
 30
0.0
 11
101.443274393136
 21
152.7691840113842
 31
0.0
  0
LINE
  5
24F
330
1F
100
AcDbEntity
  8
Sheet_View_1_Drawing_1
 62
    18
420
        0
 48
25.39999961853027
370
    50
100
AcDbLine
 10
121.3073522942724
 20
152.7691840113842
 30
0.0
 11
114.5976006024028
 21
152.7691840113842
 31
0.0
  0
LINE
  5
250
330
1F
100
AcDbEntity
  8
Sheet_View_1_Drawing_1
 62
    18
420
        0
 48
25.39999961853027
370
    50
100
AcDbLine
 10
101.4433481438752
 20
149.7805999171098
 30
0.0
 11
121.3072785772667
 21
149.7805999171098
 31
0.0
  0
LINE
  5
251
330
1F
100
AcDbEntity
  8
Sheet_View_1_Drawing_1
 62
    18
420
        0
 48
25.39999961853027
370
    50
100
AcDbLine
 10
109.875313301981
 20
151.789531465815
 30
0.0
 11
109.875313301981
 21
152.5395371640191
 31
0.0
  0
LINE
  5
252
330
1F
100
AcDbEntity
  8
Sheet_View_1_Drawing_1
 62
    18
420
        0
 48
25.39999961853027
370
    50
100
AcDbLine
 10
109.8753133437045
 20
151.7895329072527
 30
0.0
 11
112.8753133437039
 21
151.7895329072527
 31
0.0
  0
LINE
  5
253
330
1F
100
AcDbEntity
  8
Sheet_View_1_Drawing_1
 62
    18
420
        0
 48
25.39999961853027
370
    50
100
AcDbLine
 10
112.8753133854275
 20
152.5395371640191
 30
0.0
 11
112.8753133854275
 21
151.789531465815
 31
0.0
  0
LINE
  5
254
330
1F
100
AcDbEntity
  8
Sheet_View_1_Drawing_1
 62
    18
420
        0
 48
25.39999961853027
370
    50
100
AcDbLine
 10
112.6253133437054
 20
151.5395329072513
 30
0.0
 11
110.125313343703
 21
151.5395329072513
 31
0.0
  0
ARC
  5
255
330
1F
100
AcDbEntity
  8
Sheet_View_1_Drawing_1
 62
    18
420
        0
 48
25.39999961853027
370
    50
100
AcDbCircle
 10
112.6253133437042
 20
151.7895329072524
 30
0.0
 40
0.2499999999999732
100
AcDbArc
 50
269.9999935113542
 51
359.9996696469331
  0
ARC
  5
256
330
1F
100
AcDbEntity
  8
Sheet_View_1_Drawing_1
 62
    18
420
        0
 48
25.39999961853027
370
    50
100
AcDbCircle
 10
110.1253133437042
 20
151.7895329072524
 30
0.0
 40
0.2499999999999917
100
AcDbArc
 50
180.0003303530669
 51
270.0000064886394
  0
LINE
  5
257
330
1F
100
AcDbEntity
  8
Sheet_View_1_Drawing_1
 62
    18
420
        0
 48
25.39999961853027
370
    50
100
AcDbLine
 10
124.8839875252018
 20
134.8609420214311
 30
0.0
 11
124.8752920364798
 21
134.8681394349778
 31
0.0
  0
SPLINE
  5
258
330
1F
100
AcDbEntity
  8
Sheet_View_1_Drawing_1
 62
    18
420
        0
 48
25.39999961853027
370
    50
100
AcDbSpline
210
0.0
220
0.0
230
1.0
 70
     8
 71
     3
 72
     9
 73
     5
 74
     0
 42
0.000000001
 43
0.0000001
 40
0.0
 40
0.0
 40
0.0
 40
0.0
 40
0.2802190625319027
 40
0.5604381250638054
 40
0.5604381250638054
 40
0.5604381250638054
 40
0.5604381250638054
 10
124.8753285819469
 20
135.3199590459864
 30
0.0
 10
124.9047058654158
 20
135.2312926926347
 30
0.0
 10
124.9861240366922
 20
135.061267379973
 30
0.0
 10
125.1116519845442
 20
134.9200378466621
 30
0.0
 10
125.1839875251959
 20
134.8609420214346
 30
0.0
  0
SPLINE
  5
259
330
1F
100
AcDbEntity
  8
Sheet_View_1_Drawing_1
 62
    18
420
        0
 48
25.39999961853027
370
    50
100
AcDbSpline
210
0.0
220
0.0
230
1.0
 70
     8
 71
     3
 72
     9
 73
     5
 74
     0
 42
0.000000001
 43
0.0000001
 40
0.0
 40
0.0
 40
0.0
 40
0.0
 40
0.1917354059749895
 40
0.383470811949979
 40
0.383470811949979
 40
0.383470811949979
 40
0.383470811949979
 10
121.4341787792039
 20
149.0737280571019
 30
0.0
 10
121.3923386834285
 20
149.1220408382196
 30
0.0
 10
121.3285551876471
 20
149.2354400310339
 30
0.0
 10
121.3073522951596
 20
149.3633696457035
 30
0.0
 10
121.3073522951596
 20
149.4272814476952
 30
0.0
  0
SPLINE
  5
25A
330
1F
100
AcDbEntity
  8
Sheet_View_1_Drawing_1
 62
    18
420
        0
 48
25.39999961853027
370
    50
100
AcDbSpline
210
0.0
220
0.0
230
1.0
 70
     8
 71
     3
 72
     9
 73
     5
 74
     0
 42
0.000000001
 43
0.0000001
 40
0.0
 40
0.0
 40
0.0
 40
0.0
 40
0.1917354059749895
 40
0.383470811949979
 40
0.383470811949979
 40
0.383470811949979
 40
0.383470811949979
 10
121.6073522951596
 20
149.4272814476952
 30
0.0
 10
121.6073522951596
 20
149.3633696457035
 30
0.0
 10
121.6285551876471
 20
149.2354400310339
 30
0.0
 10
121.6923386834285
 20
149.1220408382196
 30
0.0
 10
121.7341787792039
 20
149.0737280571019
 30
0.0
  0
LINE
  5
25B
330
1F
100
AcDbEntity
  8
Sheet_View_1_Drawing_1
 62
    18
420
        0
 48
25.39999961853027
370
    50
100
AcDbLine
 10
121.6073522951596
 20
149.4272814476952
 30
0.0
 11
121.3073522951596
 21
149.4272814476952
 31
0.0
  0
SPLINE
  5
25C
330
1F
100
AcDbEntity
  8
Sheet_View_1_Drawing_1
 62
    18
420
        0
 48
25.39999961853027
370
    50
100
AcDbSpline
210
0.0
220
0.0
230
1.0
 70
     8
 71
     3
 72
     9
 73
     5
 74
     0
 42
0.000000001
 43
0.0000001
 40
0.0
 40
0.0
 40
0.0
 40
0.0
 40
0.2802133126686993
 40
0.5604266253373986
 40
0.5604266253373986
 40
0.5604266253373986
 40
0.5604266253373986
 10
97.56663916221252
 20
134.8609420214346
 30
0.0
 10
97.63897321859876
 20
134.9200366340647
 30
0.0
 10
97.76449899531093
 20
135.0612628006737
 30
0.0
 10
97.84591687824805
 20
135.231283896813
 30
0.0
 10
97.8752944865063
 20
135.3199481234674
 30
0.0
  0
LINE
  5
25D
330
1F
100
AcDbEntity
  8
Sheet_View_1_Drawing_1
 62
    18
420
        0
 48
25.39999961853027
370
    50
100
AcDbLine
 10
97.87533001174516
 20
134.8681355447533
 30
0.0
 11
97.86663916221202
 21
134.8609420214347
 31
0.0
  0
SPLINE
  5
25E
330
1F
100
AcDbEntity
  8
Sheet_View_1_Drawing_1
 62
    18
420
        0
 48
25.39999961853027
370
    50
100
AcDbSpline
210
0.0
220
0.0
230
1.0
 70
     8
 71
     3
 72
     9
 73
     5
 74
     0
 42
0.000000001
 43
0.0000001
 40
0.0
 40
0.0
 40
0.0
 40
0.0
 40
0.1917354059749895
 40
0.383470811949979
 40
0.383470811949979
 40
0.383470811949979
 40
0.383470811949979
 10
101.0164479082045
 20
149.0737280571019
 30
0.0
 10
101.0582880039799
 20
149.1220408382196
 30
0.0
 10
101.1220714997614
 20
149.2354400310339
 30
0.0
 10
101.1432743922489
 20
149.3633696457035
 30
0.0
 10
101.1432743922489
 20
149.4272814476952
 30
0.0
  0
SPLINE
  5
25F
330
1F
100
AcDbEntity
  8
Sheet_View_1_Drawing_1
 62
    18
420
        0
 48
25.39999961853027
370
    50
100
AcDbSpline
210
0.0
220
0.0
230
1.0
 70
     8
 71
     3
 72
     9
 73
     5
 74
     0
 42
0.000000001
 43
0.0000001
 40
0.0
 40
0.0
 40
0.0
 40
0.0
 40
0.1917354059749895
 40
0.383470811949979
 40
0.383470811949979
 40
0.383470811949979
 40
0.383470811949979
 10
101.4432743922489
 20
149.4272814476952
 30
0.0
 10
101.4432743922489
 20
149.3633696457035
 30
0.0
 10
101.4220714997614
 20
149.2354400310339
 30
0.0
 10
101.3582880039799
 20
149.1220408382196
 30
0.0
 10
101.3164479082045
 20
149.0737280571019
 30
0.0
  0
LINE
  5
260
330
1F
100
AcDbEntity
  8
Sheet_View_1_Drawing_1
 62
    18
420
        0
 48
25.39999961853027
370
    50
100
AcDbLine
 10
101.4432743922489
 20
149.4272814476952
 30
0.0
 11
101.1432743922488
 21
149.4272814476952
 31
0.0
  0
LINE
  5
261
330
1F
100
AcDbEntity
  8
Sheet_View_1_Drawing_1
 62
    18
420
        0
 48
25.39999961853027
370
    50
100
AcDbLine
 10
127.5446766269324
 20
149.7805999171098
 30
0.0
 11
129.8753133437029
 21
149.7805999171098
 31
0.0
  0
LINE
  5
262
330
1F
100
AcDbEntity
  8
Sheet_View_1_Drawing_1
 62
    18
420
        0
 48
25.39999961853027
370
    50
100
AcDbLine
 10
127.1367805719463
 20
152.7691840113842
 30
0.0
 11
125.1726715822133
 21
152.7691840113842
 31
0.0
  0
SPLINE
  5
263
330
1F
100
AcDbEntity
  8
Sheet_View_1_Drawing_1
 62
    18
420
        0
 48
25.39999961853027
370
    50
100
AcDbSpline
210
0.0
220
0.0
230
1.0
 70
     8
 71
     3
 72
    16
 73
    12
 74
     0
 42
0.000000001
 43
0.0000001
 40
-0.3285811518526369
 40
-0.3285811518526369
 40
-0.3285811518526369
 40
-0.3285811518526369
 40
-0.2562628615014976
 40
-0.2562628615014976
 40
-0.1863224927853235
 40
-0.1863224927853235
 40
-0.1065765223233081
 40
-0.1065765223233081
 40
-0.035500006809762
 40
-0.035500006809762
 40
0.0
 40
0.0
 40
0.0
 40
0.0
 10
127.5446766269312
 20
149.7805999171087
 30
0.0
 10
127.5446766269312
 20
150.0880208810335
 30
0.0
 10
127.5037482327269
 20
150.3953872568813
 30
-0.0000000000000028
 10
127.3428759954353
 20
150.9781246867071
 30
-0.0000000000000028
 10
127.225665661672
 20
151.2538217785264
 30
0.0000000000000028
 10
126.8947935987095
 20
151.7965217326725
 30
0.0000000000000028
 10
126.6711170793221
 20
152.0548036742978
 30
0.0000000000000028
 10
126.16781905995
 20
152.4489987300185
 30
0.0000000000000028
 10
125.9009780906678
 20
152.5918357452191
 30
0.0000000000000113
 10
125.469586369432
 20
152.7241249937454
 30
0.0000000000000113
 10
125.3221941667708
 20
152.7540815270736
 30
0.0
 10
125.1726715799908
 20
152.7691840098207
 30
0.0
  0
LINE
  5
264
330
1F
100
AcDbEntity
  8
Sheet_View_1_Drawing_1
 62
    18
420
        0
 48
25.39999961853027
370
    50
100
AcDbLine
 10
92.87531334370553
 20
149.7805999171098
 30
0.0
 11
95.20595006047603
 21
149.7805999171098
 31
0.0
  0
LINE
  5
265
330
1F
100
AcDbEntity
  8
Sheet_View_1_Drawing_1
 62
    18
420
        0
 48
25.39999961853027
370
    50
100
AcDbLine
 10
124.8752443279588
 20
131.5395329072529
 30
0.0
 11
129.8753133437029
 21
131.5395329072529
 31
0.0
  0
LINE
  5
266
330
1F
100
AcDbEntity
  8
Sheet_View_1_Drawing_1
 62
    18
420
        0
 48
25.39999961853027
370
    50
100
AcDbLine
 10
92.87531334370553
 20
131.5395329072529
 30
0.0
 11
97.8753824234139
 21
131.5395329072529
 31
0.0
  0
LINE
  5
267
330
1F
100
AcDbEntity
  8
Sheet_View_1_Drawing_1
 62
    18
420
        0
 48
25.39999961853027
370
    50
100
AcDbLine
 10
127.5446766269312
 20
149.7805999171087
 30
0.0
 11
127.5446766269312
 21
134.6772814476952
 31
0.0
  0
LINE
  5
268
330
1F
100
AcDbEntity
  8
Sheet_View_1_Drawing_1
 62
    18
420
        0
 48
25.39999961853027
370
    50
100
AcDbLine
 10
95.20595006047725
 20
134.6772814476952
 30
0.0
 11
95.20595006047725
 21
149.7805999171087
 31
0.0
  0
LINE
  5
269
330
1F
100
AcDbEntity
  8
Sheet_View_1_Drawing_1
 62
    18
420
        0
 48
25.39999961853027
370
    50
100
AcDbLine
 10
97.57795510519514
 20
152.7691840113842
 30
0.0
 11
95.61384611546211
 21
152.7691840113842
 31
0.0
  0
SPLINE
  5
26A
330
1F
100
AcDbEntity
  8
Sheet_View_1_Drawing_1
 62
    18
420
        0
 48
25.39999961853027
370
    50
100
AcDbSpline
210
0.0
220
0.0
230
1.0
 70
     8
 71
     3
 72
    16
 73
    12
 74
     0
 42
0.000000001
 43
0.0000001
 40
-0.3303450211619273
 40
-0.3303450211619273
 40
-0.3303450211619273
 40
-0.3303450211619273
 40
-0.2694002563001108
 40
-0.2694002563001108
 40
-0.2655509991851543
 40
-0.2655509991851543
 40
-0.1984941828639475
 40
-0.1984941828639475
 40
-0.1052978415367044
 40
-0.1052978415367044
 40
0.0
 40
0.0
 40
0.0
 40
0.0
 10
97.57795510741765
 20
152.7691840098207
 30
0.0
 10
97.32263214938637
 20
152.7433951932167
 30
0.0
 10
97.07471657312725
 20
152.6744367474208
 30
-0.0000000000000085
 10
96.82678985091773
 20
152.5602394341715
 30
-0.0000000000000085
 10
96.81213012311976
 20
152.5533065812081
 30
-0.0000000000000423
 10
96.54339410872468
 20
152.4228973874271
 30
-0.0000000000000423
 10
96.31308998523
 20
152.256269786487
 30
-0.0000000000000056
 10
95.83298320098288
 20
151.7805938908356
 30
-0.0000000000000056
 10
95.61516920467172
 20
151.4462744053915
 30
-0.0000000000000056
 10
95.29200218875233
 20
150.6717864571654
 30
-0.0000000000000056
 10
95.20595006047725
 20
150.2263607796141
 30
0.0
 10
95.20595006047725
 20
149.7805999171087
 30
0.0
  0
LINE
  5
26B
330
1F
100
AcDbEntity
  8
Sheet_View_1_Drawing_1
 62
    18
420
        0
 48
25.39999961853027
370
    50
100
AcDbLine
 10
101.4432743922489
 20
149.4272814476952
 30
0.0
 11
101.4432743922489
 21
153.1292756848566
 31
0.0
  0
SPLINE
  5
26C
330
1F
100
AcDbEntity
  8
Sheet_View_1_Drawing_1
 62
    18
420
        0
 48
25.39999961853027
370
    50
100
AcDbSpline
210
0.0
220
0.0
230
1.0
 70
     8
 71
     3
 72
     9
 73
     5
 74
     0
 42
0.000000001
 43
0.0000001
 40
0.0
 40
0.0
 40
0.0
 40
0.0
 40
0.1749828326528373
 40
0.3499656653056746
 40
0.3499656653056746
 40
0.3499656653056746
 40
0.3499656653056746
 10
101.3164479082045
 20
149.0737280571019
 30
0.0
 10
101.2782635236355
 20
149.0296365276824
 30
0.0
 10
101.1850411820759
 20
148.9553841325033
 30
0.0
 10
101.0685893012409
 20
148.9272814476952
 30
0.0
 10
101.0102616903566
 20
148.9272814476952
 30
0.0
  0
SPLINE
  5
26D
330
1F
100
AcDbEntity
  8
Sheet_View_1_Drawing_1
 62
    18
420
        0
 48
25.39999961853027
370
    50
100
AcDbSpline
210
0.0
220
0.0
230
1.0
 70
     8
 71
     3
 72
     9
 73
     5
 74
     0
 42
0.000000001
 43
0.0000001
 40
0.0
 40
0.0
 40
0.0
 40
0.0
 40
0.271665308123642
 40
0.543330616247284
 40
0.543330616247284
 40
0.543330616247284
 40
0.543330616247284
 10
97.86663916221251
 20
134.8609420214346
 30
0.0
 10
97.79651168136998
 20
134.8036501105124
 30
0.0
 10
97.63804900181874
 20
134.7107424284743
 30
0.0
 10
97.45700184609606
 20
134.6772814476952
 30
0.0
 10
97.36644674338818
 20
134.6772814476952
 30
0.0
  0
SPLINE
  5
26E
330
1F
100
AcDbEntity
  8
Sheet_View_1_Drawing_1
 62
    18
420
        0
 48
25.39999961853027
370
    50
100
AcDbSpline
210
0.0
220
0.0
230
1.0
 70
     8
 71
     3
 72
     9
 73
     5
 74
     0
 42
0.000000001
 43
0.0000001
 40
0.0
 40
0.0
 40
0.0
 40
0.0
 40
0.1500005001795409
 40
0.3000010003590817
 40
0.3000010003590817
 40
0.3000010003590817
 40
0.3000010003590817
 10
101.4432743922488
 20
153.1292756848566
 30
0.0
 10
101.3932747336377
 20
153.1295010988131
 30
0.0
 10
101.2932743922489
 20
153.1297265165276
 30
0.0
 10
101.19327405086
 20
153.1295010988131
 30
0.0
 10
101.1432743922488
 20
153.1292756848566
 30
0.0
  0
LINE
  5
26F
330
1F
100
AcDbEntity
  8
Sheet_View_1_Drawing_1
 62
    18
420
        0
 48
25.39999961853027
370
    50
100
AcDbLine
 10
101.1432743922488
 20
153.1292756848566
 30
0.0
 11
101.1432743922488
 21
149.4272814476952
 31
0.0
  0
SPLINE
  5
270
330
1F
100
AcDbEntity
  8
Sheet_View_1_Drawing_1
 62
    18
420
        0
 48
25.39999961853027
370
    50
100
AcDbSpline
210
0.0
220
0.0
230
1.0
 70
     8
 71
     3
 72
     9
 73
     5
 74
     0
 42
0.000000001
 43
0.0000001
 40
0.0
 40
0.0
 40
0.0
 40
0.0
 40
0.1749828326528373
 40
0.3499656653056746
 40
0.3499656653056746
 40
0.3499656653056746
 40
0.3499656653056746
 10
100.7102616903566
 20
148.9272814476952
 30
0.0
 10
100.7685893012409
 20
148.9272814476952
 30
0.0
 10
100.8850411820759
 20
148.9553841325032
 30
0.0
 10
100.9782635236355
 20
149.0296365276824
 30
0.0
 10
101.0164479082045
 20
149.0737280571019
 30
0.0
  0
LINE
  5
271
330
1F
100
AcDbEntity
  8
Sheet_View_1_Drawing_1
 62
    18
420
        0
 48
25.39999961853027
370
    50
100
AcDbLine
 10
95.20595006047725
 20
134.6772814476952
 30
0.0
 11
97.0664467433882
 21
134.6772814476952
 31
0.0
  0
SPLINE
  5
272
330
1F
100
AcDbEntity
  8
Sheet_View_1_Drawing_1
 62
    18
420
        0
 48
25.39999961853027
370
    50
100
AcDbSpline
210
0.0
220
0.0
230
1.0
 70
     8
 71
     3
 72
     9
 73
     5
 74
     0
 42
0.000000001
 43
0.0000001
 40
0.0
 40
0.0
 40
0.0
 40
0.0
 40
0.2716653081236337
 40
0.5433306162472673
 40
0.5433306162472673
 40
0.5433306162472673
 40
0.5433306162472673
 10
97.06644674338821
 20
134.6772814476952
 30
0.0
 10
97.1570018460961
 20
134.6772814476952
 30
0.0
 10
97.33804900181877
 20
134.7107424284742
 30
0.0
 10
97.49651168137
 20
134.8036501105124
 30
0.0
 10
97.56663916221252
 20
134.8609420214346
 30
0.0
  0
SPLINE
  5
273
330
1F
100
AcDbEntity
  8
Sheet_View_1_Drawing_1
 62
    18
420
        0
 48
25.39999961853027
370
    50
100
AcDbSpline
210
-8.040267448919805E-11
220
7.960784078192788E-10
230
1.0
 70
     8
 71
     3
 72
    10
 73
     6
 74
     0
 42
0.000000001
 43
0.0000001
 40
-0.2800631982643856
 40
-0.2800631982643856
 40
-0.2800631982643856
 40
-0.2800631982643856
 40
-0.1603690522793356
 40
-0.1603690522793356
 40
0.0
 40
0.0
 40
0.0
 40
0.0
 10
101.1432743922489
 20
153.1292756848566
 30
0.0
 10
100.6378624343359
 20
153.0782342925247
 30
0.0
 10
100.1248519644898
 20
153.0264229786592
 30
-0.0000000000000057
 10
98.94345646396593
 20
152.9071045123341
 30
-0.0000000000000056
 10
98.25341399034977
 20
152.8374086723625
 30
0.0
 10
97.57795510519398
 20
152.7691840113839
 30
0.0
  0
LINE
  5
274
330
1F
100
AcDbEntity
  8
Sheet_View_1_Drawing_1
 62
    18
420
        0
 48
25.39999961853027
370
    50
100
AcDbLine
 10
97.0664467433882
 20
134.6772814476952
 30
0.0
 11
97.3664467433882
 21
134.6772814476952
 31
0.0
  0
LINE
  5
275
330
1F
100
AcDbEntity
  8
Sheet_View_1_Drawing_1
 62
    18
420
        0
 48
25.39999961853027
370
    50
100
AcDbLine
 10
127.5446766269312
 20
134.6772814476952
 30
0.0
 11
125.6841799440202
 21
134.6772814476952
 31
0.0
  0
SPLINE
  5
276
330
1F
100
AcDbEntity
  8
Sheet_View_1_Drawing_1
 62
    18
420
        0
 48
25.39999961853027
370
    50
100
AcDbSpline
210
-8.115666470871990E-11
220
-8.035437730858319E-10
230
1.0
 70
     8
 71
     3
 72
    10
 73
     6
 74
     0
 42
0.000000001
 43
0.0000001
 40
-0.2807638921722901
 40
-0.2807638921722901
 40
-0.2807638921722901
 40
-0.2807638921722901
 40
-0.1193890128078608
 40
-0.1193890128078608
 40
0.0
 40
0.0
 40
0.0
 40
0.0
 10
125.1726715819502
 20
152.7691840114106
 30
0.0
 10
124.4946888686512
 20
152.8376635914127
 30
0.0
 10
123.8019404157919
 20
152.9076327348242
 30
0.0000000000000056
 10
122.6205510514179
 20
153.026950541353
 30
0.0000000000000056
 10
122.1102079963922
 20
153.078492448071
 30
0.0
 10
121.6073522951594
 20
153.1292756848567
 30
0.0
  0
LINE
  5
277
330
1F
100
AcDbEntity
  8
Sheet_View_1_Drawing_1
 62
    18
420
        0
 48
25.39999961853027
370
    50
100
AcDbLine
 10
121.6073522951596
 20
149.4272814476952
 30
0.0
 11
121.6073522951596
 21
153.1292756848566
 31
0.0
  0
SPLINE
  5
278
330
1F
100
AcDbEntity
  8
Sheet_View_1_Drawing_1
 62
    18
420
        0
 48
25.39999961853027
370
    50
100
AcDbSpline
210
0.0
220
0.0
230
1.0
 70
     8
 71
     3
 72
     9
 73
     5
 74
     0
 42
0.000000001
 43
0.0000001
 40
0.0
 40
0.0
 40
0.0
 40
0.0
 40
0.1749828326528373
 40
0.3499656653056746
 40
0.3499656653056746
 40
0.3499656653056746
 40
0.3499656653056746
 10
121.7341787792039
 20
149.0737280571019
 30
0.0
 10
121.7723631637729
 20
149.0296365276824
 30
0.0
 10
121.8655855053325
 20
148.9553841325033
 30
0.0
 10
121.9820373861675
 20
148.9272814476952
 30
0.0
 10
122.0403649970518
 20
148.9272814476952
 30
0.0
  0
SPLINE
  5
279
330
1F
100
AcDbEntity
  8
Sheet_View_1_Drawing_1
 62
    18
420
        0
 48
25.39999961853027
370
    50
100
AcDbSpline
210
0.0
220
0.0
230
1.0
 70
     8
 71
     3
 72
     9
 73
     5
 74
     0
 42
0.000000001
 43
0.0000001
 40
0.0
 40
0.0
 40
0.0
 40
0.0
 40
0.271665308123642
 40
0.543330616247284
 40
0.543330616247284
 40
0.543330616247284
 40
0.543330616247284
 10
125.1839875251959
 20
134.8609420214346
 30
0.0
 10
125.2541150060384
 20
134.8036501105124
 30
0.0
 10
125.4125776855897
 20
134.7107424284743
 30
0.0
 10
125.5936248413123
 20
134.6772814476952
 30
0.0
 10
125.6841799440202
 20
134.6772814476952
 30
0.0
  0
SPLINE
  5
27A
330
1F
100
AcDbEntity
  8
Sheet_View_1_Drawing_1
 62
    18
420
        0
 48
25.39999961853027
370
    50
100
AcDbSpline
210
0.0
220
0.0
230
1.0
 70
     8
 71
     3
 72
     9
 73
     5
 74
     0
 42
0.000000001
 43
0.0000001
 40
0.0
 40
0.0
 40
0.0
 40
0.0
 40
0.1500005001795622
 40
0.3000010003591243
 40
0.3000010003591243
 40
0.3000010003591243
 40
0.3000010003591243
 10
121.6073522951596
 20
153.1292756848567
 30
0.0
 10
121.5573526365485
 20
153.1295010988131
 30
0.0
 10
121.4573522951595
 20
153.1297265165276
 30
0.0
 10
121.3573519537707
 20
153.1295010988131
 30
0.0
 10
121.3073522951596
 20
153.1292756848566
 30
0.0
  0
LINE
  5
27B
330
1F
100
AcDbEntity
  8
Sheet_View_1_Drawing_1
 62
    18
420
        0
 48
25.39999961853027
370
    50
100
AcDbLine
 10
121.3073522951596
 20
153.1292756848566
 30
0.0
 11
121.3073522951596
 21
149.4272814476952
 31
0.0
  0
SPLINE
  5
27C
330
1F
100
AcDbEntity
  8
Sheet_View_1_Drawing_1
 62
    18
420
        0
 48
25.39999961853027
370
    50
100
AcDbSpline
210
0.0
220
0.0
230
1.0
 70
     8
 71
     3
 72
     9
 73
     5
 74
     0
 42
0.000000001
 43
0.0000001
 40
0.0
 40
0.0
 40
0.0
 40
0.0
 40
0.1749828326528373
 40
0.3499656653056746
 40
0.3499656653056746
 40
0.3499656653056746
 40
0.3499656653056746
 10
121.7403649970518
 20
148.9272814476952
 30
0.0
 10
121.6820373861675
 20
148.9272814476952
 30
0.0
 10
121.5655855053325
 20
148.9553841325032
 30
0.0
 10
121.4723631637729
 20
149.0296365276824
 30
0.0
 10
121.4341787792039
 20
149.0737280571019
 30
0.0
  0
SPLINE
  5
27D
330
1F
100
AcDbEntity
  8
Sheet_View_1_Drawing_1
 62
    18
420
        0
 48
25.39999961853027
370
    50
100
AcDbSpline
210
0.0
220
0.0
230
1.0
 70
     8
 71
     3
 72
     9
 73
     5
 74
     0
 42
0.000000001
 43
0.0000001
 40
0.0
 40
0.0
 40
0.0
 40
0.0
 40
0.2716653081236337
 40
0.5433306162472673
 40
0.5433306162472673
 40
0.5433306162472673
 40
0.5433306162472673
 10
125.3841799440202
 20
134.6772814476952
 30
0.0
 10
125.2936248413123
 20
134.6772814476952
 30
0.0
 10
125.1125776855897
 20
134.7107424284742
 30
0.0
 10
124.9541150060384
 20
134.8036501105124
 30
0.0
 10
124.8839875251959
 20
134.8609420214346
 30
0.0
  0
LINE
  5
27E
330
1F
100
AcDbEntity
  8
Sheet_View_1_Drawing_1
 62
    18
420
        0
 48
25.39999961853027
370
    50
100
AcDbLine
 10
125.3841799440202
 20
134.6772814476952
 30
0.0
 11
125.6841799440202
 21
134.6772814476952
 31
0.0
  0
LINE
  5
27F
330
1F
100
AcDbEntity
  8
Sheet_View_1_Drawing_1
 62
    18
420
        0
 48
25.39999961853027
370
    50
100
AcDbLine
 10
108.3753133437049
 20
154.5395329072535
 30
0.0
 11
114.3753133437035
 21
154.5395329072535
 31
0.0
  0
LINE
  5
280
330
1F
100
AcDbEntity
  8
Sheet_View_1_Drawing_1
 62
    18
420
        0
 48
25.39999961853027
370
    50
100
AcDbLine
 10
114.125313343705
 20
154.2895329072521
 30
0.0
 11
108.6253133437034
 21
154.2895329072521
 31
0.0
  0
LINE
  5
281
330
1F
100
AcDbEntity
  8
Sheet_View_1_Drawing_1
 62
    18
420
        0
 48
25.39999961853027
370
    50
100
AcDbLine
 10
108.6253133437034
 20
153.7895329072522
 30
0.0
 11
114.125313343705
 21
153.7895329072522
 31
0.0
  0
LINE
  5
282
330
1F
100
AcDbEntity
  8
Sheet_View_1_Drawing_1
 62
    18
420
        0
 48
25.39999961853027
370
    50
100
AcDbLine
 10
105.3753133437056
 20
155.027281447694
 30
0.0
 11
103.875313343703
 21
155.027281447694
 31
0.0
  0
LINE
  5
283
330
1F
100
AcDbEntity
  8
Sheet_View_1_Drawing_1
 62
    18
420
        0
 48
25.39999961853027
370
    50
100
AcDbLine
 10
103.8753133437042
 20
154.4957897560356
 30
0.0
 11
103.8753133437042
 21
155.0272814476952
 31
0.0
  0
SPLINE
  5
284
330
1F
100
AcDbEntity
  8
Sheet_View_1_Drawing_1
 62
    18
420
        0
 48
25.39999961853027
370
    50
100
AcDbSpline
210
0.0
220
0.0
230
1.0
 70
     8
 71
     3
 72
    12
 73
     8
 74
     0
 42
0.000000001
 43
0.0000001
 40
0.1877880857425868
 40
0.1877880857425868
 40
0.1877880857425868
 40
0.1877880857425868
 40
0.2387298569151075
 40
0.2642007425013678
 40
0.2896716280876281
 40
0.3151425136738885
 40
0.3660842848464091
 40
0.3660842848464091
 40
0.3660842848464091
 40
0.3660842848464091
 10
131.3753133437054
 20
154.1472814476977
 30
0.0
 10
131.2324582047601
 20
154.1393529736533
 30
0.0
 10
131.0181411629717
 20
154.1273405756243
 30
0.0
 10
130.7324319125303
 20
154.1110762355245
 30
0.0
 10
130.5181587565854
 20
154.0987492971561
 30
0.0
 10
130.2324475073918
 20
154.082134727096
 30
0.0
 10
130.018194392137
 20
154.0694688918561
 30
0.0
 10
129.8753133437087
 20
154.0609241192941
 30
0.0
  0
LINE
  5
285
330
1F
100
AcDbEntity
  8
Sheet_View_1_Drawing_1
 62
    18
420
        0
 48
25.39999961853027
370
    50
100
AcDbLine
 10
131.3753133437054
 20
155.027281447694
 30
0.0
 11
129.8753133437029
 21
155.027281447694
 31
0.0
  0
LINE
  5
286
330
1F
100
AcDbEntity
  8
Sheet_View_1_Drawing_1
 62
    18
420
        0
 48
25.39999961853027
370
    50
100
AcDbLine
 10
129.8753133437042
 20
154.0609241192915
 30
0.0
 11
129.8753133437042
 21
155.0272814476952
 31
0.0
  0
LINE
  5
287
330
1F
100
AcDbEntity
  8
Sheet_View_1_Drawing_1
 62
    18
420
        0
 48
25.39999961853027
370
    50
100
AcDbLine
 10
88.37531334370367
 20
155.1772814476954
 30
0.0
 11
134.3753133437048
 21
155.1772814476954
 31
0.0
  0
LINE
  5
288
330
1F
100
AcDbEntity
  8
Sheet_View_1_Drawing_1
 62
    18
420
        0
 48
25.39999961853027
370
    50
100
AcDbLine
 10
118.8753133437054
 20
155.027281447694
 30
0.0
 11
117.3753133437028
 21
155.027281447694
 31
0.0
  0
LINE
  5
289
330
1F
100
AcDbEntity
  8
Sheet_View_1_Drawing_1
 62
    18
420
        0
 48
25.39999961853027
370
    50
100
AcDbLine
 10
118.8753133437042
 20
155.0272814476952
 30
0.0
 11
129.8753133437042
 21
155.0272814476952
 31
0.0
  0
LINE
  5
28A
330
1F
100
AcDbEntity
  8
Sheet_View_1_Drawing_1
 62
    18
420
        0
 48
25.39999961853027
370
    50
100
AcDbLine
 10
92.87531334370553
 20
155.027281447694
 30
0.0
 11
91.37531334370298
 21
155.027281447694
 31
0.0
  0
LINE
  5
28B
330
1F
100
AcDbEntity
  8
Sheet_View_1_Drawing_1
 62
    18
420
        0
 48
25.39999961853027
370
    50
100
AcDbLine
 10
92.8753133437042
 20
155.0272814476952
 30
0.0
 11
103.8753133437042
 21
155.0272814476952
 31
0.0
  0
SPLINE
  5
28C
330
1F
100
AcDbEntity
  8
Sheet_View_1_Drawing_1
 62
    18
420
        0
 48
25.39999961853027
370
    50
100
AcDbSpline
210
0.0
220
0.0
230
1.0
 70
     8
 71
     3
 72
    12
 73
     8
 74
     0
 42
0.000000001
 43
0.0000001
 40
0.0094918866385854
 40
0.0094918866385854
 40
0.0094918866385854
 40
0.0094918866385854
 40
0.0604336578111572
 40
0.0859045433974431
 40
0.111375428983729
 40
0.1368463145700149
 40
0.1877880857425868
 40
0.1877880857425868
 40
0.1877880857425868
 40
0.1877880857425868
 10
92.87531334370553
 20
154.0609241192941
 30
0.0
 10
92.73247173221068
 20
154.0694665453157
 30
0.0
 10
92.51821415628162
 20
154.0821326780265
 30
0.0
 10
92.23249290834883
 20
154.0987478566473
 30
0.0
 10
92.01819316278333
 20
154.1110763304283
 30
0.0
 10
91.7324806781338
 20
154.1273408528005
 30
0.0
 10
91.51813271169
 20
154.1393549751239
 30
0.0
 10
91.37531334370298
 20
154.1472814476977
 30
0.0
  0
LINE
  5
28D
330
1F
100
AcDbEntity
  8
Sheet_View_1_Drawing_1
 62
    18
420
        0
 48
25.39999961853027
370
    50
100
AcDbLine
 10
129.3127044583598
 20
154.0272814476932
 30
0.0
 11
129.8753133437087
 21
154.0609241192894
 31
0.0
  0
LINE
  5
28E
330
1F
100
AcDbEntity
  8
Sheet_View_1_Drawing_1
 62
    18
420
        0
 48
25.39999961853027
370
    50
100
AcDbLine
 10
92.87531334370841
 20
154.0609241192914
 30
0.0
 11
93.43792222905435
 21
154.0272814476951
 31
0.0
  0
LINE
  5
28F
330
1F
100
AcDbEntity
  8
Sheet_View_1_Drawing_1
 62
    18
420
        0
 48
25.39999961853027
370
    50
100
AcDbLine
 10
92.8753133437042
 20
154.0609241192915
 30
0.0
 11
92.8753133437042
 21
155.0272814476952
 31
0.0
  0
LINE
  5
290
330
1F
100
AcDbEntity
  8
Sheet_View_1_Drawing_1
 62
    18
420
        0
 48
25.39999961853027
370
    50
100
AcDbLine
 10
95.6612812389519
 20
154.0272814476952
 30
0.0
 11
93.43792222905212
 21
154.0272814476952
 31
0.0
  0
LINE
  5
291
330
1F
100
AcDbEntity
  8
Sheet_View_1_Drawing_1
 62
    18
420
        0
 48
25.39999961853027
370
    50
100
AcDbLine
 10
118.8753133437042
 20
154.4957895758037
 30
0.0
 11
118.8753133437042
 21
155.0272814476952
 31
0.0
  0
LINE
  5
292
330
1F
100
AcDbEntity
  8
Sheet_View_1_Drawing_1
 62
    18
420
        0
 48
25.39999961853027
370
    50
100
AcDbLine
 10
129.3127044583563
 20
154.0272814476952
 30
0.0
 11
127.0893433883963
 21
154.0272814476952
 31
0.0
  0
LINE
  5
293
330
1F
100
AcDbEntity
  8
Sheet_View_1_Drawing_1
 62
    18
420
        0
 48
12.69999980926514
100
AcDbLine
 10
92.28342969626235
 20
124.4272814476952
 30
0.0
 11
91.20835148304747
 21
125.5023607017562
 31
0.0
  0
LINE
  5
294
330
1F
100
AcDbEntity
  8
Sheet_View_1_Drawing_1
 62
    18
420
        0
 48
12.69999980926514
100
AcDbLine
 10
88.95039216488645
 20
127.7603189790711
 30
0.0
 11
87.87531395167159
 21
128.8353983277545
 31
0.0
  0
LINE
  5
295
330
1F
100
AcDbEntity
  8
Sheet_View_1_Drawing_1
 62
    18
420
        0
 48
12.69999980926514
100
AcDbLine
 10
94.40475127905653
 20
124.4272814476952
 30
0.0
 11
93.40475024193572
 21
125.4272814439699
 31
0.0
  0
LINE
  5
296
330
1F
100
AcDbEntity
  8
Sheet_View_1_Drawing_1
 62
    18
420
        0
 48
12.69999980926514
100
AcDbLine
 10
88.87531347483443
 20
129.9567188734278
 30
0.0
 11
87.87531395167159
 21
130.9567187750802
 31
0.0
  0
LINE
  5
297
330
1F
100
AcDbEntity
  8
Sheet_View_1_Drawing_1
 62
    18
420
        0
 48
12.69999980926514
100
AcDbLine
 10
96.2736794134979
 20
124.6796726724222
 30
0.0
 11
95.46711981505202
 21
125.4862330751583
 31
0.0
  0
LINE
  5
298
330
1F
100
AcDbEntity
  8
Sheet_View_1_Drawing_1
 62
    18
420
        0
 48
12.69999980926514
100
AcDbLine
 10
88.87531347483443
 20
132.0780393207535
 30
0.0
 11
87.87531395167159
 21
133.0780388439164
 31
0.0
  0
LINE
  5
299
330
1F
100
AcDbEntity
  8
Sheet_View_1_Drawing_1
 62
    18
420
        0
 48
12.69999980926514
100
AcDbLine
 10
97.58748306244658
 20
125.4871900858447
 30
0.0
 11
96.87960930079268
 21
126.1950633743867
 31
0.0
  0
LINE
  5
29A
330
1F
100
AcDbEntity
  8
Sheet_View_1_Drawing_1
 62
    18
420
        0
 48
12.69999980926514
100
AcDbLine
 10
88.87531347483443
 20
134.1993593895897
 30
0.0
 11
87.87531395167159
 21
135.1993596697316
 31
0.0
  0
LINE
  5
29B
330
1F
100
AcDbEntity
  8
Sheet_View_1_Drawing_1
 62
    18
420
        0
 48
12.69999980926514
100
AcDbLine
 10
83.64739099949644
 20
139.4272818649277
 30
0.0
 11
82.87621108502195
 21
140.1984602654442
 31
0.0
  0
LINE
  5
29C
330
1F
100
AcDbEntity
  8
Sheet_View_1_Drawing_1
 62
    18
420
        0
 48
12.69999980926514
100
AcDbLine
 10
98.48730095833587
 20
126.7086925426588
 30
0.0
 11
97.72036920994566
 21
127.4756231555805
 31
0.0
  0
LINE
  5
29D
330
1F
100
AcDbEntity
  8
Sheet_View_1_Drawing_1
 62
    18
420
        0
 48
12.69999980926514
100
AcDbLine
 10
88.87531347483443
 20
136.320679458426
 30
0.0
 11
87.87531395167159
 21
137.3206789815888
 31
0.0
  0
LINE
  5
29E
330
1F
100
AcDbEntity
  8
Sheet_View_1_Drawing_1
 62
    18
420
        0
 48
12.69999980926514
100
AcDbLine
 10
85.76871258229063
 20
139.4272818649277
 30
0.0
 11
84.76871305912779
 21
140.4272813880906
 31
0.0
  0
LINE
  5
29F
330
1F
100
AcDbEntity
  8
Sheet_View_1_Drawing_1
 62
    18
420
        0
 48
12.69999980926514
100
AcDbLine
 10
98.87531324833678
 20
128.4420001322493
 30
0.0
 11
97.87531372517394
 21
129.4420000339016
 31
0.0
  0
LINE
  5
2A0
330
1F
100
AcDbEntity
  8
Sheet_View_1_Drawing_1
 62
    18
420
        0
 48
12.69999980926514
100
AcDbLine
 10
88.87531347483443
 20
138.4419995272622
 30
0.0
 11
86.89003161400602
 21
140.4272813880906
 31
0.0
  0
LINE
  5
2A1
330
1F
100
AcDbEntity
  8
Sheet_View_1_Drawing_1
 62
    18
420
        0
 48
12.69999980926514
100
AcDbLine
 10
98.87531324833678
 20
130.563320579575
 30
0.0
 11
97.87531372517394
 21
131.5633201027379
 31
0.0
  0
LINE
  5
2A2
330
1F
100
AcDbEntity
  8
Sheet_View_1_Drawing_1
 62
    18
420
        0
 48
12.69999980926514
100
AcDbLine
 10
88.87531347483443
 20
140.5633211100564
 30
0.0
 11
87.87531395167159
 21
141.5633206332192
 31
0.0
  0
LINE
  5
2A3
330
1F
100
AcDbEntity
  8
Sheet_View_1_Drawing_1
 62
    18
420
        0
 48
12.69999980926514
100
AcDbLine
 10
98.87531324833678
 20
132.6846406484112
 30
0.0
 11
97.87531372517394
 21
133.6846409285531
 31
0.0
  0
LINE
  5
2A4
330
1F
100
AcDbEntity
  8
Sheet_View_1_Drawing_1
 62
    18
420
        0
 48
12.69999980926514
100
AcDbLine
 10
88.87531347483443
 20
142.6846411788926
 30
0.0
 11
87.87531395167159
 21
143.6846407020554
 31
0.0
  0
LINE
  5
2A5
330
1F
100
AcDbEntity
  8
Sheet_View_1_Drawing_1
 62
    18
420
        0
 48
12.69999980926514
100
AcDbLine
 10
98.87531324833678
 20
134.8059614742264
 30
0.0
 11
97.87531372517394
 21
135.8059609973893
 31
0.0
  0
LINE
  5
2A6
330
1F
100
AcDbEntity
  8
Sheet_View_1_Drawing_1
 62
    18
420
        0
 48
12.69999980926514
100
AcDbLine
 10
88.87531347483443
 20
144.8059612477288
 30
0.0
 11
87.87531395167159
 21
145.8059607708916
 31
0.0
  0
LINE
  5
2A7
330
1F
100
AcDbEntity
  8
Sheet_View_1_Drawing_1
 62
    18
420
        0
 48
12.69999980926514
100
AcDbLine
 10
98.87531324833678
 20
136.9272815430626
 30
0.0
 11
97.87531372517394
 21
137.9272810662255
 31
0.0
  0
LINE
  5
2A8
330
1F
100
AcDbEntity
  8
Sheet_View_1_Drawing_1
 62
    18
420
        0
 48
12.69999980926514
100
AcDbLine
 10
88.87531347483443
 20
146.927281316565
 30
0.0
 11
87.87531395167159
 21
147.9272808397278
 31
0.0
  0
LINE
  5
2A9
330
1F
100
AcDbEntity
  8
Sheet_View_1_Drawing_1
 62
    18
420
        0
 48
12.69999980926514
100
AcDbLine
 10
98.87531324833678
 20
139.0486016118988
 30
0.0
 11
97.87531372517394
 21
140.0486011350617
 31
0.0
  0
LINE
  5
2AA
330
1F
100
AcDbEntity
  8
Sheet_View_1_Drawing_1
 62
    18
420
        0
 48
12.69999980926514
100
AcDbLine
 10
88.87531347483443
 20
149.0486013854012
 30
0.0
 11
87.87531395167159
 21
150.0486009085641
 31
0.0
  0
LINE
  5
2AB
330
1F
100
AcDbEntity
  8
Sheet_View_1_Drawing_1
 62
    18
420
        0
 48
12.69999980926514
100
AcDbLine
 10
98.87531324833678
 20
141.1699216807351
 30
0.0
 11
97.87531372517394
 21
142.1699227178559
 31
0.0
  0
LINE
  5
2AC
330
1F
100
AcDbEntity
  8
Sheet_View_1_Drawing_1
 62
    18
420
        0
 48
12.69999980926514
100
AcDbLine
 10
88.87531347483443
 20
151.1699229681954
 30
0.0
 11
87.87531395167159
 21
152.1699224913582
 31
0.0
  0
LINE
  5
2AD
330
1F
100
AcDbEntity
  8
Sheet_View_1_Drawing_1
 62
    18
420
        0
 48
12.69999980926514
100
AcDbLine
 10
87.11795344561385
 20
152.9272799695
 30
0.0
 11
86.37531315296934
 21
153.6699217761025
 31
0.0
  0
LINE
  5
2AE
330
1F
100
AcDbEntity
  8
Sheet_View_1_Drawing_1
 62
    18
420
        0
 48
12.69999980926514
100
AcDbLine
 10
98.87531324833678
 20
143.2912417495713
 30
0.0
 11
97.87531372517394
 21
144.2912427866921
 31
0.0
  0
LINE
  5
2AF
330
1F
100
AcDbEntity
  8
Sheet_View_1_Drawing_1
 62
    18
420
        0
 48
12.69999980926514
100
AcDbLine
 10
88.87531347483443
 20
153.2912415230736
 30
0.0
 11
87.98927411049651
 21
154.1772824013695
 31
0.0
  0
LINE
  5
2B0
330
1F
100
AcDbEntity
  8
Sheet_View_1_Drawing_1
 62
    18
420
        0
 48
12.69999980926514
100
AcDbLine
 10
87.62531407088088
 20
154.5412439549431
 30
0.0
 11
86.73927470654296
 21
155.4272818053231
 31
0.0
  0
LINE
  5
2B1
330
1F
100
AcDbEntity
  8
Sheet_View_1_Drawing_1
 62
    18
420
        0
 48
12.69999980926514
100
AcDbLine
 10
98.87531324833678
 20
145.4125633323655
 30
0.0
 11
97.87531372517394
 21
146.4125628555283
 31
0.0
  0
LINE
  5
2B2
330
1F
100
AcDbEntity
  8
Sheet_View_1_Drawing_1
 62
    18
420
        0
 48
12.69999980926514
100
AcDbLine
 10
98.87531324833678
 20
147.5338834012017
 30
0.0
 11
97.88482895106124
 21
148.5243676984772
 31
0.0
  0
LINE
  5
2B3
330
1F
100
AcDbEntity
  8
Sheet_View_1_Drawing_1
 62
    18
420
        0
 48
12.69999980926514
100
AcDbLine
 10
100.6032351216679
 20
147.9272808397278
 30
0.0
 11
99.60323559850501
 21
148.9272818768486
 31
0.0
  0
LINE
  5
2B4
330
1F
100
AcDbEntity
  8
Sheet_View_1_Drawing_1
 62
    18
420
        0
 48
12.69999980926514
100
AcDbLine
 10
125.1812157413368
 20
125.4706218028531
 30
0.0
 11
124.9186530372505
 21
125.7331834660933
 31
0.0
  0
LINE
  5
2B5
330
1F
100
AcDbEntity
  8
Sheet_View_1_Drawing_1
 62
    18
420
        0
 48
12.69999980926514
100
AcDbLine
 10
128.3458754083519
 20
124.4272814476952
 30
0.0
 11
127.2877807757263
 21
125.4853762695655
 31
0.0
  0
LINE
  5
2B6
330
1F
100
AcDbEntity
  8
Sheet_View_1_Drawing_1
 62
    18
420
        0
 48
12.69999980926514
100
AcDbLine
 10
124.9334080716972
 20
127.8397495413289
 30
0.0
 11
123.8753134390716
 21
128.8978441739544
 31
0.0
  0
LINE
  5
2B7
330
1F
100
AcDbEntity
  8
Sheet_View_1_Drawing_1
 62
    18
420
        0
 48
12.69999980926514
100
AcDbLine
 10
130.4671969911461
 20
124.4272814476952
 30
0.0
 11
129.4671959540252
 21
125.4272814439699
 31
0.0
  0
LINE
  5
2B8
330
1F
100
AcDbEntity
  8
Sheet_View_1_Drawing_1
 62
    18
420
        0
 48
12.69999980926514
100
AcDbLine
 10
124.8753129622345
 20
130.0191647196278
 30
0.0
 11
123.8753134390716
 21
131.0191642427907
 31
0.0
  0
LINE
  5
2B9
330
1F
100
AcDbEntity
  8
Sheet_View_1_Drawing_1
 62
    18
420
        0
 48
12.69999980926514
100
AcDbLine
 10
132.3189295908813
 20
124.6968693662524
 30
0.0
 11
131.5187104484444
 21
125.497087018387
 31
0.0
  0
LINE
  5
2BA
330
1F
100
AcDbEntity
  8
Sheet_View_1_Drawing_1
 62
    18
420
        0
 48
12.69999980926514
100
AcDbLine
 10
124.8753129622345
 20
132.140484788464
 30
0.0
 11
123.8753134390716
 21
133.1404850686058
 31
0.0
  0
LINE
  5
2BB
330
1F
100
AcDbEntity
  8
Sheet_View_1_Drawing_1
 62
    18
420
        0
 48
12.69999980926514
100
AcDbLine
 10
133.6197919270401
 20
125.5173266494736
 30
0.0
 11
132.9122815153007
 21
126.224837061213
 31
0.0
  0
LINE
  5
2BC
330
1F
100
AcDbEntity
  8
Sheet_View_1_Drawing_1
 62
    18
420
        0
 48
12.69999980926514
100
AcDbLine
 10
124.8753129622345
 20
134.2618048573002
 30
0.0
 11
123.8753134390716
 21
135.2618051374421
 31
0.0
  0
LINE
  5
2BD
330
1F
100
AcDbEntity
  8
Sheet_View_1_Drawing_1
 62
    18
420
        0
 48
12.69999980926514
100
AcDbLine
 10
134.5072271606331
 20
126.7512124309406
 30
0.0
 11
133.7356990358238
 21
127.5227401772604
 31
0.0
  0
LINE
  5
2BE
330
1F
100
AcDbEntity
  8
Sheet_View_1_Drawing_1
 62
    18
420
        0
 48
12.69999980926514
100
AcDbLine
 10
124.8753129622345
 20
136.3831256831154
 30
0.0
 11
123.8753134390716
 21
137.3831252062783
 31
0.0
  0
LINE
  5
2BF
330
1F
100
AcDbEntity
  8
Sheet_View_1_Drawing_1
 62
    18
420
        0
 48
12.69999980926514
100
AcDbLine
 10
134.8753127357368
 20
128.5044459784493
 30
0.0
 11
133.875313212574
 21
129.5044458801016
 31
0.0
  0
LINE
  5
2C0
330
1F
100
AcDbEntity
  8
Sheet_View_1_Drawing_1
 62
    18
420
        0
 48
12.69999980926514
100
AcDbLine
 10
124.8753129622345
 20
138.5044457519516
 30
0.0
 11
123.8753134390716
 21
139.5044452751145
 31
0.0
  0
LINE
  5
2C1
330
1F
100
AcDbEntity
  8
Sheet_View_1_Drawing_1
 62
    18
420
        0
 48
12.69999980926514
100
AcDbLine
 10
134.8753127357368
 20
130.625766425775
 30
0.0
 11
133.875313212574
 21
131.6257663274273
 31
0.0
  0
LINE
  5
2C2
330
1F
100
AcDbEntity
  8
Sheet_View_1_Drawing_1
 62
    18
420
        0
 48
12.69999980926514
100
AcDbLine
 10
124.8753129622345
 20
140.6257658207878
 30
0.0
 11
123.8753134390716
 21
141.6257668579087
 31
0.0
  0
LINE
  5
2C3
330
1F
100
AcDbEntity
  8
Sheet_View_1_Drawing_1
 62
    18
420
        0
 48
12.69999980926514
100
AcDbLine
 10
134.8753127357368
 20
132.7470868731007
 30
0.0
 11
133.875313212574
 21
133.7470863962635
 31
0.0
  0
LINE
  5
2C4
330
1F
100
AcDbEntity
  8
Sheet_View_1_Drawing_1
 62
    18
420
        0
 48
12.69999980926514
100
AcDbLine
 10
124.8753129622345
 20
142.7470858896241
 30
0.0
 11
123.8753134390716
 21
143.7470869267449
 31
0.0
  0
LINE
  5
2C5
330
1F
100
AcDbEntity
  8
Sheet_View_1_Drawing_1
 62
    18
420
        0
 48
12.69999980926514
100
AcDbLine
 10
134.8753127357368
 20
134.8684069419369
 30
0.0
 11
133.875313212574
 21
135.8684072220788
 31
0.0
  0
LINE
  5
2C6
330
1F
100
AcDbEntity
  8
Sheet_View_1_Drawing_1
 62
    18
420
        0
 48
12.69999980926514
100
AcDbLine
 10
124.8753129622345
 20
144.8684074724183
 30
0.0
 11
123.8753134390716
 21
145.8684069955811
 31
0.0
  0
LINE
  5
2C7
330
1F
100
AcDbEntity
  8
Sheet_View_1_Drawing_1
 62
    18
420
        0
 48
12.69999980926514
100
AcDbLine
 10
134.8753127357368
 20
136.9897270107731
 30
0.0
 11
133.875313212574
 21
137.989727290915
 31
0.0
  0
LINE
  5
2C8
330
1F
100
AcDbEntity
  8
Sheet_View_1_Drawing_1
 62
    18
420
        0
 48
12.69999980926514
100
AcDbLine
 10
124.8753129622345
 20
146.9897275412545
 30
0.0
 11
122.9377593836193
 21
148.9272818768486
 31
0.0
  0
LINE
  5
2C9
330
1F
100
AcDbEntity
  8
Sheet_View_1_Drawing_1
 62
    18
420
        0
 48
12.69999980926514
100
AcDbLine
 10
134.8753127357368
 20
139.1110478365883
 30
0.0
 11
133.875313212574
 21
140.1110473597512
 31
0.0
  0
LINE
  5
2CA
330
1F
100
AcDbEntity
  8
Sheet_View_1_Drawing_1
 62
    18
420
        0
 48
12.69999980926514
100
AcDbLine
 10
136.6804002901916
 20
139.4272818649277
 30
0.0
 11
135.6803992530708
 21
140.4272813880906
 31
0.0
  0
LINE
  5
2CB
330
1F
100
AcDbEntity
  8
Sheet_View_1_Drawing_1
 62
    18
420
        0
 48
12.69999980926514
100
AcDbLine
 10
134.8753127357368
 20
141.2323679054246
 30
0.0
 11
133.875313212574
 21
142.2323674285874
 31
0.0
  0
LINE
  5
2CC
330
1F
100
AcDbEntity
  8
Sheet_View_1_Drawing_1
 62
    18
420
        0
 48
12.69999980926514
100
AcDbLine
 10
138.8017188450699
 20
139.4272818649277
 30
0.0
 11
137.801719321907
 21
140.4272813880906
 31
0.0
  0
LINE
  5
2CD
330
1F
100
AcDbEntity
  8
Sheet_View_1_Drawing_1
 62
    18
420
        0
 48
12.69999980926514
100
AcDbLine
 10
134.8753127357368
 20
143.3536879742608
 30
0.0
 11
133.875313212574
 21
144.3536890113816
 31
0.0
  0
LINE
  5
2CE
330
1F
100
AcDbEntity
  8
Sheet_View_1_Drawing_1
 62
    18
420
        0
 48
12.69999980926514
100
AcDbLine
 10
134.8753127357368
 20
145.475008043097
 30
0.0
 11
133.875313212574
 21
146.4750090802178
 31
0.0
  0
LINE
  5
2CF
330
1F
100
AcDbEntity
  8
Sheet_View_1_Drawing_1
 62
    18
420
        0
 48
12.69999980926514
100
AcDbLine
 10
134.8753127357368
 20
147.5963296258912
 30
0.0
 11
133.875313212574
 21
148.596329149054
 31
0.0
  0
LINE
  5
2D0
330
1F
100
AcDbEntity
  8
Sheet_View_1_Drawing_1
 62
    18
420
        0
 48
12.69999980926514
100
AcDbLine
 10
134.8753127357368
 20
149.7176496947274
 30
0.0
 11
133.875313212574
 21
150.7176492178902
 31
0.0
  0
LINE
  5
2D1
330
1F
100
AcDbEntity
  8
Sheet_View_1_Drawing_1
 62
    18
420
        0
 48
12.69999980926514
100
AcDbLine
 10
134.8753127357368
 20
151.8389682496056
 30
0.0
 11
133.875313212574
 21
152.8389708006844
 31
0.0
  0
LINE
  5
2D2
330
1F
100
AcDbEntity
  8
Sheet_View_1_Drawing_1
 62
    18
420
        0
 48
12.69999980926514
100
AcDbLine
 10
135.9083225986366
 20
152.9272799695
 30
0.0
 11
134.6583216807251
 21
154.1772824013695
 31
0.0
  0
LINE
  5
2D3
330
1F
100
AcDbEntity
  8
Sheet_View_1_Drawing_1
 62
    18
420
        0
 48
12.69999980926514
100
AcDbLine
 10
136.3753135344391
 20
154.5816091025338
 30
0.0
 11
135.5296423456077
 21
155.4272818053231
 31
0.0
  0
LINE
  5
2D4
330
1F
100
AcDbEntity
  8
Sheet_View_1_Drawing_1
 62
    18
420
        0
 48
12.69999980926514
100
AcDbLine
 10
91.87531355828092
 20
149.4750091636643
 30
0.0
 11
92.98511591166304
 21
150.5848115170464
 31
0.0
  0
LINE
  5
2D5
330
1F
100
AcDbEntity
  8
Sheet_View_1_Drawing_1
 62
    18
420
        0
 48
12.69999980926514
100
AcDbLine
 10
95.07110322922514
 20
152.6707973206505
 30
0.0
 11
97.06486779660032
 21
154.6645618880257
 31
0.0
  0
LINE
  5
2D6
330
1F
100
AcDbEntity
  8
Sheet_View_1_Drawing_1
 62
    18
420
        0
 48
12.69999980926514
100
AcDbLine
 10
91.87531355828092
 20
147.3536875808701
 30
0.0
 11
92.87531308144376
 21
148.3536886179909
 31
0.0
  0
LINE
  5
2D7
330
1F
100
AcDbEntity
  8
Sheet_View_1_Drawing_1
 62
    18
420
        0
 48
12.69999980926514
100
AcDbLine
 10
97.45159019440459
 20
152.9299657309517
 30
0.0
 11
99.18618786543654
 21
154.6645618880257
 31
0.0
  0
LINE
  5
2D8
330
1F
100
AcDbEntity
  8
Sheet_View_1_Drawing_1
 62
    18
420
        0
 48
12.69999980926514
100
AcDbLine
 10
91.87531355828092
 20
145.2323675120339
 30
0.0
 11
92.87531308144376
 21
146.2323685491547
 31
0.0
  0
LINE
  5
2D9
330
1F
100
AcDbEntity
  8
Sheet_View_1_Drawing_1
 62
    18
420
        0
 48
12.69999980926514
100
AcDbLine
 10
99.77629689186857
 20
153.1333508456215
 30
0.0
 11
101.3075079342727
 21
154.6645618880257
 31
0.0
  0
LINE
  5
2DA
330
1F
100
AcDbEntity
  8
Sheet_View_1_Drawing_1
 62
    18
420
        0
 48
12.69999980926514
100
AcDbLine
 10
91.87531355828092
 20
143.1110474431977
 30
0.0
 11
92.87531308144376
 21
144.1110469663605
 31
0.0
  0
LINE
  5
2DB
330
1F
100
AcDbEntity
  8
Sheet_View_1_Drawing_1
 62
    18
420
        0
 48
12.69999980926514
100
AcDbLine
 10
102.1010020753746
 20
153.3367359602913
 30
0.0
 11
103.2010651370888
 21
154.4367990220055
 31
0.0
  0
LINE
  5
2DC
330
1F
100
AcDbEntity
  8
Sheet_View_1_Drawing_1
 62
    18
420
        0
 48
12.69999980926514
100
AcDbLine
 10
91.87531355828092
 20
140.9897273743615
 30
0.0
 11
92.87531308144376
 21
141.9897268975243
 31
0.0
  0
LINE
  5
2DD
330
1F
100
AcDbEntity
  8
Sheet_View_1_Drawing_1
 62
    18
420
        0
 48
12.69999980926514
100
AcDbLine
 10
104.4251190862064
 20
153.5395336592659
 30
0.0
 11
105.4251189878588
 21
154.5395331824288
 31
0.0
  0
LINE
  5
2DE
330
1F
100
AcDbEntity
  8
Sheet_View_1_Drawing_1
 62
    18
420
        0
 48
12.69999980926514
100
AcDbLine
 10
91.87531355828092
 20
138.8684073055253
 30
0.0
 11
92.87531308144376
 21
139.8684068286881
 31
0.0
  0
LINE
  5
2DF
330
1F
100
AcDbEntity
  8
Sheet_View_1_Drawing_1
 62
    18
420
        0
 48
12.69999980926514
100
AcDbLine
 10
106.5464391550426
 20
153.5395336592659
 30
0.0
 11
107.5464394351845
 21
154.5395331824288
 31
0.0
  0
LINE
  5
2E0
330
1F
100
AcDbEntity
  8
Sheet_View_1_Drawing_1
 62
    18
420
        0
 48
12.69999980926514
100
AcDbLine
 10
91.87531355828092
 20
136.74708647971
 30
0.0
 11
92.87531308144376
 21
137.7470867598519
 31
0.0
  0
LINE
  5
2E1
330
1F
100
AcDbEntity
  8
Sheet_View_1_Drawing_1
 62
    18
420
        0
 48
12.69999980926514
100
AcDbLine
 10
108.0129076769953
 20
152.8846802199349
 30
0.0
 11
108.7210384330158
 21
153.5928128684029
 31
0.0
  0
LINE
  5
2E2
330
1F
100
AcDbEntity
  8
Sheet_View_1_Drawing_1
 62
    18
420
        0
 48
12.69999980926514
100
AcDbLine
 10
91.87531355828092
 20
134.6257664108738
 30
0.0
 11
92.87531308144376
 21
135.6257659340367
 31
0.0
  0
LINE
  5
2E3
330
1F
100
AcDbEntity
  8
Sheet_View_1_Drawing_1
 62
    18
420
        0
 48
12.69999980926514
100
AcDbLine
 10
109.789079958797
 20
152.5395341361031
 30
0.0
 11
110.7890800023829
 21
153.5395336592659
 31
0.0
  0
LINE
  5
2E4
330
1F
100
AcDbEntity
  8
Sheet_View_1_Drawing_1
 62
    18
420
        0
 48
12.69999980926514
100
AcDbLine
 10
91.87531355828092
 20
132.5044455850586
 30
0.0
 11
92.87531308144376
 21
133.5044458652005
 31
0.0
  0
LINE
  5
2E5
330
1F
100
AcDbEntity
  8
Sheet_View_1_Drawing_1
 62
    18
420
        0
 48
12.69999980926514
100
AcDbLine
 10
111.9104003588115
 20
152.5395341361031
 30
0.0
 11
112.910400307775
 21
153.5395336592659
 31
0.0
  0
LINE
  5
2E6
330
1F
100
AcDbEntity
  8
Sheet_View_1_Drawing_1
 62
    18
420
        0
 48
12.69999980926514
100
AcDbLine
 10
114.0430223605041
 20
152.5508343184456
 30
0.0
 11
116.0317208459978
 21
154.5395331824288
 31
0.0
  0
LINE
  5
2E7
330
1F
100
AcDbEntity
  8
Sheet_View_1_Drawing_1
 62
    18
420
        0
 48
12.69999980926514
100
AcDbLine
 10
117.1530410131817
 20
153.5395336592659
 30
0.0
 11
118.1530412933235
 21
154.5395331824288
 31
0.0
  0
LINE
  5
2E8
330
1F
100
AcDbEntity
  8
Sheet_View_1_Drawing_1
 62
    18
420
        0
 48
12.69999980926514
100
AcDbLine
 10
119.1985201141243
 20
153.4636904204354
 30
0.0
 11
120.3993908247356
 21
154.6645618880257
 31
0.0
  0
LINE
  5
2E9
330
1F
100
AcDbEntity
  8
Sheet_View_1_Drawing_1
 62
    18
420
        0
 48
12.69999980926514
100
AcDbLine
 10
121.1491800269489
 20
153.2930310214028
 30
0.0
 11
122.5207116505508
 21
154.6645618880257
 31
0.0
  0
LINE
  5
2EA
330
1F
100
AcDbEntity
  8
Sheet_View_1_Drawing_1
 62
    18
420
        0
 48
12.69999980926514
100
AcDbLine
 10
123.0998399397735
 20
153.1223716223702
 30
0.0
 11
124.642031719387
 21
154.6645618880257
 31
0.0
  0
LINE
  5
2EB
330
1F
100
AcDbEntity
  8
Sheet_View_1_Drawing_1
 62
    18
420
        0
 48
12.69999980926514
100
AcDbLine
 10
125.0504990956192
 20
152.9517091954216
 30
0.0
 11
126.7633517882232
 21
154.6645618880257
 31
0.0
  0
LINE
  5
2EC
330
1F
100
AcDbEntity
  8
Sheet_View_1_Drawing_1
 62
    18
420
        0
 48
12.69999980926514
100
AcDbLine
 10
127.0011597654228
 20
152.7810497963891
 30
0.0
 11
127.8740246674423
 21
153.6539162123665
 31
0.0
  0
LINE
  5
2ED
330
1F
100
AcDbEntity
  8
Sheet_View_1_Drawing_1
 62
    18
420
        0
 48
12.69999980926514
100
AcDbLine
 10
128.5862873932724
 20
152.2448573554024
 30
0.0
 11
129.3019095918541
 21
152.9604780400261
 31
0.0
  0
LINE
  5
2EE
330
1F
100
AcDbEntity
  8
Sheet_View_1_Drawing_1
 62
    18
420
        0
 48
12.69999980926514
100
AcDbLine
 10
129.5673457881813
 20
151.1045956814751
 30
0.0
 11
130.3038030764465
 21
151.8410514557824
 31
0.0
  0
LINE
  5
2EF
330
1F
100
AcDbEntity
  8
Sheet_View_1_Drawing_1
 62
    18
420
        0
 48
12.69999980926514
100
AcDbLine
 10
129.8753136059646
 20
149.2912419164643
 30
0.0
 11
130.8462209126358
 21
150.2621507370934
 31
0.0
  0
LINE
  5
2F0
330
1F
100
AcDbEntity
  8
Sheet_View_1_Drawing_1
 62
    18
420
        0
 48
12.69999980926514
100
AcDbLine
 10
129.8753136059646
 20
147.1699218476281
 30
0.0
 11
130.8753131291275
 21
148.1699228847489
 31
0.0
  0
LINE
  5
2F1
330
1F
100
AcDbEntity
  8
Sheet_View_1_Drawing_1
 62
    18
420
        0
 48
12.69999980926514
100
AcDbLine
 10
129.8753136059646
 20
145.0486017787919
 30
0.0
 11
130.8753131291275
 21
146.0486013019547
 31
0.0
  0
LINE
  5
2F2
330
1F
100
AcDbEntity
  8
Sheet_View_1_Drawing_1
 62
    18
420
        0
 48
12.69999980926514
100
AcDbLine
 10
129.8753136059646
 20
142.9272817099557
 30
0.0
 11
130.8753131291275
 21
143.9272812331185
 31
0.0
  0
LINE
  5
2F3
330
1F
100
AcDbEntity
  8
Sheet_View_1_Drawing_1
 62
    18
420
        0
 48
12.69999980926514
100
AcDbLine
 10
129.8753136059646
 20
140.8059616411194
 30
0.0
 11
130.8753131291275
 21
141.8059611642823
 31
0.0
  0
LINE
  5
2F4
330
1F
100
AcDbEntity
  8
Sheet_View_1_Drawing_1
 62
    18
420
        0
 48
12.69999980926514
100
AcDbLine
 10
129.8753136059646
 20
138.6846400583252
 30
0.0
 11
130.8753131291275
 21
139.6846410954461
 31
0.0
  0
LINE
  5
2F5
330
1F
100
AcDbEntity
  8
Sheet_View_1_Drawing_1
 62
    18
420
        0
 48
12.69999980926514
100
AcDbLine
 10
129.8753136059646
 20
136.563320746468
 30
0.0
 11
130.8753131291275
 21
137.5633210266099
 31
0.0
  0
LINE
  5
2F6
330
1F
100
AcDbEntity
  8
Sheet_View_1_Drawing_1
 62
    18
420
        0
 48
12.69999980926514
100
AcDbLine
 10
129.8753136059646
 20
134.4419999206528
 30
0.0
 11
130.8753131291275
 21
135.4420002007946
 31
0.0
  0
LINE
  5
2F7
330
1F
100
AcDbEntity
  8
Sheet_View_1_Drawing_1
 62
    18
420
        0
 48
12.69999980926514
100
AcDbLine
 10
129.8753136059646
 20
132.3206798518166
 30
0.0
 11
130.8753131291275
 21
133.3206793749794
 31
0.0
  0
LINE
  5
2F8
330
1F
100
AcDbEntity
  8
Sheet_View_1_Drawing_1
 62
    18
420
        0
 48
12.69999980926514
100
AcDbLine
 10
116.1306523224716
 20
155.027281996058
 30
0.0
 11
117.1306522241239
 21
154.0272824728951
 31
0.0
  0
LINE
  5
2F9
330
1F
100
AcDbEntity
  8
Sheet_View_1_Drawing_1
 62
    18
420
        0
 48
12.69999980926514
100
AcDbLine
 10
109.0595846062903
 20
155.027281996058
 30
0.0
 11
110.059584602565
 21
154.0272824728951
 31
0.0
  0
LINE
  5
2FA
330
1F
100
AcDbEntity
  8
Sheet_View_1_Drawing_1
 62
    18
420
        0
 48
12.69999980926514
100
AcDbLine
 10
87.87531395167159
 20
154.9983502591118
 30
0.0
 11
88.6963818094139
 21
154.1772824013695
 31
0.0
  0
DIMENSION
  5
2FC
330
1F
100
AcDbEntity
  8
Sheet_View_1_Drawing_1
 62
    18
420
        0
 48
12.69999980926514
100
AcDbDimension
280
     0
  2
*D2
 10
136.3753133437041
 20
165.4272814476952
 30
0.0000000000000902
 11
111.3753133437041
 21
165.4272814476952
 31
0.0000000000000902
 70
   160
  1
100
 71
     5
 42
49.99999999999999
 73
     0
 74
     0
 75
     0
  3
RotatedDim34
100
AcDbAlignedDimension
 13
86.37531334370412
 23
155.4272814476952
 33
0.0000000000000902
 14
136.3753133437041
 24
155.4272814476952
 34
0.0000000000000902
100
AcDbRotatedDimension
  0
DIMENSION
  5
30B
330
1F
100
AcDbEntity
  8
Sheet_View_1_Drawing_1
 62
    18
420
        0
 48
12.69999980926514
100
AcDbDimension
280
     0
  2
*D3
 10
60.95768167506866
 20
124.4272814476952
 30
0.0000000000000902
 11
60.95768167506866
 21
139.9272814476952
 31
0.0000000000000902
 70
   160
  1
63
 71
     5
 42
31.0
 73
     0
 74
     0
 75
     0
  3
RotatedDim35
100
AcDbAlignedDimension
 13
86.37531334370412
 23
155.4272814476952
 33
0.0000000000000902
 14
91.87531334370412
 24
124.4272814476952
 34
0.0000000000000902
 50
90.0
100
AcDbRotatedDimension
  0
LINE
  5
319
330
1F
100
AcDbEntity
  8
Sheet_View_1_Drawing_1
  6
CENTER
 62
    18
420
        0
 48
5.079999923706055
100
AcDbLine
 10
111.3753133437042
 20
157.423951227198
 30
0.0
 11
111.3753133437042
 21
121.5308818798706
 31
0.0
  0
LINE
  5
31A
330
1F
100
AcDbEntity
  8
Sheet_View_1_Drawing_1
  6
CENTER
 62
    18
420
        0
 48
5.079999923706055
100
AcDbLine
 10
111.3753133437042
 20
157.423951227198
 30
0.0
 11
111.3753133437042
 21
144.723951227198
 31
0.0
  0
LINE
  5
31B
330
1F
100
AcDbEntity
  8
Sheet_View_1_Drawing_1
  6
CENTER
 62
    18
420
        0
 48
5.079999923706055
100
AcDbLine
 10
111.3753133437042
 20
121.5308818798706
 30
0.0
 11
111.3753133437042
 21
134.2308818798706
 31
0.0
  0
DIMENSION
  5
31D
330
1F
100
AcDbEntity
  8
Sheet_View_1_Drawing_1
 62
    18
420
        0
 48
12.69999980926514
100
AcDbDimension
280
     0
  2
*D4
 10
69.70302489470264
 20
140.4272814476952
 30
0.0000000000000902
 11
69.70302489470264
 21
147.9272814476952
 31
0.0000000000000902
 70
   160
  1
30
 71
     5
 42
14.99999999999997
 73
     0
 74
     0
 75
     0
  3
RotatedDim36
100
AcDbAlignedDimension
 13
86.37531334370412
 23
155.4272814476952
 33
0.0000000000000902
 14
83.12531334370411
 24
140.4272814476952
 34
0.0000000000000902
 50
90.0
100
AcDbRotatedDimension
  0
DIMENSION
  5
32C
330
1F
100
AcDbEntity
  8
Sheet_View_1_Drawing_1
 62
    18
420
        0
 48
12.69999980926514
100
AcDbDimension
280
     0
  2
*D5
 10
139.8753133437041
 20
100.820721876428
 30
0.0000000000000902
 11
111.738192740738
 21
100.820721876428
 31
0.0000000000000902
 70
   160
  1
%%c115
 71
     5
 42
56.99999999999999
 73
     0
 74
     0
 75
     0
  3
RotatedDim37
100
AcDbAlignedDimension
 13
82.87531334370412
 23
139.9272814476952
 33
0.0000000000000902
 14
139.8753133437041
 24
139.9272814476952
 34
0.0000000000000902
100
AcDbRotatedDimension
  0
DIMENSION
  5
33B
330
1F
100
AcDbEntity
  8
Sheet_View_1_Drawing_1
 62
    18
420
        0
 48
12.69999980926514
100
AcDbDimension
280
     0
  2
*D6
 10
134.8753133437041
 20
107.9250711898371
 30
0.0000000000000902
 11
111.3753133437041
 21
107.9250711898371
 31
0.0000000000000902
 70
   160
  1
%%c95
 71
     5
 42
47.0
 73
     0
 74
     0
 75
     0
  3
RotatedDim38
100
AcDbAlignedDimension
 13
87.87531334370411
 23
128.4272814476952
 33
0.0000000000000902
 14
134.8753133437041
 24
128.4272814476952
 34
0.0000000000000902
100
AcDbRotatedDimension
  0
DIMENSION
  5
34A
330
1F
100
AcDbEntity
  8
Sheet_View_1_Drawing_1
 62
    18
420
        0
 48
12.69999980926514
100
AcDbDimension
280
     0
  2
*D7
 10
123.8753133437041
 20
115.1003554025502
 30
0.0000000000000902
 11
111.3753133437041
 21
115.1003554025502
 31
0.0000000000000902
 70
   160
  1
%%c50
 71
     5
 42
25.0
 73
     0
 74
     0
 75
     0
  3
RotatedDim39
100
AcDbAlignedDimension
 13
98.87531334370406
 23
128.4272814476952
 33
0.0000000000000902
 14
123.8753133437041
 24
128.4272814476952
 34
0.0000000000000902
100
AcDbRotatedDimension
  0
DIMENSION
  5
359
330
1F
100
AcDbEntity
  8
Sheet_View_1_Drawing_1
 62
    18
420
        0
 48
12.69999980926514
100
AcDbDimension
280
     0
  2
*D8
 10
77.23243525630124
 20
131.5395329072524
 30
0.0000000000000902
 11
77.23243525630124
 21
138.1772814476952
 31
0.0000000000000902
 70
   160
  1
37
 71
     5
 42
17.38774854044274
 73
     0
 74
     0
 75
     0
  3
RotatedDim40
100
AcDbAlignedDimension
 13
98.37531334370408
 23
148.9272814476952
 33
0.0000000000000902
 14
91.8753133437042
 24
131.5395329072524
 34
0.0000000000000902
 50
90.0
100
AcDbRotatedDimension
  0
DIMENSION
  5
368
330
1F
100
AcDbEntity
  8
Sheet_View_1_Drawing_1
 62
    18
420
        0
 48
12.69999980926514
100
AcDbDimension
280
     0
  2
*D9
 10
144.3096473430998
 20
152.9272814476952
 30
0.0000000000000902
 11
144.3096473430998
 21
162.5684010199139
 31
0.0000000000000902
 70
   160
  1
5
 71
     5
 42
2.499999999999972
 73
     0
 74
     0
 75
     0
  3
RotatedDim41
100
AcDbAlignedDimension
 13
136.3753133437041
 23
155.4272814476952
 33
0.0000000000000902
 14
136.1253133437041
 24
152.9272814476952
 34
0.0000000000000902
 50
90.0
100
AcDbRotatedDimension
  0
TEXT
  5
379
330
1F
100
AcDbEntity
  8
Sheet_View_1_Title_Block_1
 62
    18
420
        0
 48
25.39999961853027
100
AcDbText
 10
119.5941938579754
 20
29.22556977828098
 30
0.0
 40
3.579999923706055
  1
R.V.S. Rooster
  7
text81163
100
AcDbText
  0
ENDSEC
  0
SECTION
  2
OBJECTS
  0
DICTIONARY
  5
C
330
0
100
AcDbDictionary
281
     1
  3
ACAD_DETAILVIEWSTYLE
350
381
  3
ACAD_GROUP
350
D
  3
ACAD_LAYOUT
350
1A
  3
ACAD_MATERIAL
350
43
  3
ACAD_MLEADERSTYLE
350
6B
  3
ACAD_MLINESTYLE
350
17
  3
ACAD_PLOTSETTINGS
350
19
  3
ACAD_PLOTSTYLENAME
350
E
  3
ACAD_SCALELIST
350
47
  3
ACAD_SECTIONVIEWSTYLE
350
382
  3
ACAD_TABLESTYLE
350
69
  3
ACAD_VISUALSTYLE
350
2A
  3
ACDB_RECOMPOSE_DATA
350
37E
  3
AcDbVariableDictionary
350
37A
  0
SUN
  5
6D
330
29
100
AcDbSun
 90
        1
290
     0
 63
     7
421
 16777215
 40
1.0
291
     1
 91
  2455826
 92
 54000000
292
     0
 70
     2
 71
   256
280
     1
  0
DICTIONARY
  5
381
102
{ACAD_REACTORS
330
C
102
}
330
C
100
AcDbDictionary
281
     1
  0
DICTIONARY
  5
D
102
{ACAD_REACTORS
330
C
102
}
330
C
100
AcDbDictionary
281
     1
  0
DICTIONARY
  5
1A
102
{ACAD_REACTORS
330
C
102
}
330
C
100
AcDbDictionary
281
     1
  3
Layout1
350
1E
  3
Layout2
350
26
  3
Model
350
22
  0
DICTIONARY
  5
43
102
{ACAD_REACTORS
330
C
102
}
330
C
100
AcDbDictionary
281
     1
  3
ByBlock
350
45
  3
ByLayer
350
44
  3
Global
350
46
  0
DICTIONARY
  5
6B
102
{ACAD_REACTORS
330
C
102
}
330
C
100
AcDbDictionary
281
     1
  3
Standard
350
6C
  0
DICTIONARY
  5
17
102
{ACAD_REACTORS
330
C
102
}
330
C
100
AcDbDictionary
281
     1
  3
Standard
350
18
  0
DICTIONARY
  5
19
102
{ACAD_REACTORS
330
C
102
}
330
C
100
AcDbDictionary
281
     1
  0
ACDBDICTIONARYWDFLT
  5
E
102
{ACAD_REACTORS
330
C
102
}
330
C
100
AcDbDictionary
281
     1
  3
Normal
350
F
100
AcDbDictionaryWithDefault
340
F
  0
DICTIONARY
  5
47
102
{ACAD_REACTORS
330
C
102
}
330
C
100
AcDbDictionary
281
     1
  3
A0
350
48
  3
A1
350
49
  3
A2
350
4A
  3
A3
350
4B
  3
A4
350
4C
  3
A5
350
4D
  3
A6
350
4E
  3
A7
350
4F
  3
A8
350
50
  3
A9
350
51
  3
B0
350
52
  3
B1
350
53
  3
B2
350
54
  3
B3
350
55
  3
B4
350
56
  3
B5
350
57
  3
B6
350
58
  3
B7
350
59
  3
B8
350
5A
  3
B9
350
5B
  3
C0
350
5C
  3
C1
350
5D
  3
C2
350
5E
  3
C3
350
5F
  3
C4
350
60
  3
C5
350
61
  3
C6
350
62
  3
C7
350
63
  3
C8
350
64
  3
C9
350
65
  3
D0
350
66
  3
D1
350
67
  3
D2
350
68
  0
DICTIONARY
  5
382
102
{ACAD_REACTORS
330
C
102
}
330
C
100
AcDbDictionary
281
     1
  0
DICTIONARY
  5
69
102
{ACAD_REACTORS
330
C
102
}
330
C
100
AcDbDictionary
281
     1
  3
Standard
350
6A
  0
DICTIONARY
  5
2A
102
{ACAD_REACTORS
330
C
102
}
330
C
100
AcDbDictionary
281
     1
  3
2dWireframe
350
2F
  3
Basic
350
32
  3
Brighten
350
36
  3
ColorChange
350
3A
  3
Conceptual
350
34
  3
Dim
350
35
  3
EdgeColorOff
350
3D
  3
Facepattern
350
39
  3
Flat
350
2B
  3
FlatWithEdges
350
2C
  3
Gouraud
350
2D
  3
GouraudWithEdges
350
2E
  3
Hidden
350
31
  3
JitterOff
350
3B
  3
Linepattern
350
38
  3
OverhangOff
350
3C
  3
Realistic
350
33
  3
Shaded
350
42
  3
Shaded with edges
350
41
  3
Shades of Gray
350
3E
  3
Sketchy
350
3F
  3
Thicken
350
37
  3
Wireframe
350
30
  3
X-Ray
350
40
  0
XRECORD
  5
37E
102
{ACAD_REACTORS
330
C
102
}
330
C
100
AcDbXrecord
280
     1
 90
        1
330
6A
  0
DICTIONARY
  5
37A
102
{ACAD_REACTORS
330
C
102
}
330
C
100
AcDbDictionary
281
     1
  3
CANNOSCALE
350
37B
  3
CENTEREXE
350
383
  3
CENTERLTYPEFILE
350
384
  3
CMLEADERSTYLE
350
380
  3
CTABLESTYLE
350
37F
  0
LAYOUT
  5
1E
102
{ACAD_REACTORS
330
1A
102
}
330
1A
100
AcDbPlotSettings
  1

  2
none_device
  4

  6

 40
0.0
 41
0.0
 42
0.0
 43
0.0
 44
0.0
 45
0.0
 46
0.0
 47
0.0
 48
0.0
 49
0.0
140
0.0
141
0.0
142
1.0
143
1.0
 70
   688
 72
     1
 73
     0
 74
     5
  7

 75
    16
 76
     0
 77
     2
 78
   300
147
1.0
148
0.0
149
0.0
100
AcDbLayout
  1
Layout1
 70
     1
 71
     1
 10
0.0
 20
0.0
 11
420.0
 21
297.0
 12
0.0
 22
0.0
 32
0.0
 14
1.000000000000000E+20
 24
1.000000000000000E+20
 34
1.000000000000000E+20
 15
-1.000000000000000E+20
 25
-1.000000000000000E+20
 35
-1.000000000000000E+20
146
0.0
 13
0.0
 23
0.0
 33
0.0
 16
1.0
 26
0.0
 36
0.0
 17
0.0
 27
1.0
 37
0.0
 76
     0
330
1B
  0
LAYOUT
  5
26
102
{ACAD_REACTORS
330
1A
102
}
330
1A
100
AcDbPlotSettings
  1

  2
none_device
  4

  6

 40
0.0
 41
0.0
 42
0.0
 43
0.0
 44
0.0
 45
0.0
 46
0.0
 47
0.0
 48
0.0
 49
0.0
140
0.0
141
0.0
142
1.0
143
1.0
 70
   688
 72
     1
 73
     0
 74
     5
  7

 75
    16
 76
     0
 77
     2
 78
   300
147
1.0
148
0.0
149
0.0
100
AcDbLayout
  1
Layout2
 70
     1
 71
     2
 10
0.0
 20
0.0
 11
0.0
 21
0.0
 12
0.0
 22
0.0
 32
0.0
 14
0.0
 24
0.0
 34
0.0
 15
0.0
 25
0.0
 35
0.0
146
0.0
 13
0.0
 23
0.0
 33
0.0
 16
1.0
 26
0.0
 36
0.0
 17
0.0
 27
1.0
 37
0.0
 76
     0
330
23
  0
LAYOUT
  5
22
102
{ACAD_REACTORS
330
1A
102
}
330
1A
100
AcDbPlotSettings
  1

  2
none_device
  4
Letter_(8.50_x_11.00_Inches)
  6

 40
6.35
 41
6.35
 42
6.35000508
 43
6.35000508
 44
215.9
 45
279.4
 46
0.0
 47
0.0
 48
0.0
 49
0.0
140
0.0
141
0.0
142
1.0
143
1.0
 70
  1712
 72
     1
 73
     0
 74
     0
  7

 75
     0
 76
     0
 77
     2
 78
   300
147
1.0
148
0.0
149
0.0
100
AcDbLayout
  1
Model
 70
     1
 71
     0
 10
0.0
 20
0.0
 11
420.0
 21
297.0
 12
0.0
 22
0.0
 32
0.0
 14
-57.00000000000018
 24
-37.29988270759056
 34
-53.56311914253449
 15
205.1728336909396
 25
296.99999999932
 35
72.24337293503562
146
0.0
 13
0.0
 23
0.0
 33
0.0
 16
1.0
 26
0.0
 36
0.0
 17
0.0
 27
1.0
 37
0.0
 76
     0
330
1F
331
29
  0
MATERIAL
  5
45
102
{ACAD_REACTORS
330
43
102
}
330
43
100
AcDbMaterial
  1
ByBlock
 72
     1
 94
      127
  0
MATERIAL
  5
44
102
{ACAD_REACTORS
330
43
102
}
330
43
100
AcDbMaterial
  1
ByLayer
 72
     1
 94
      127
  0
MATERIAL
  5
46
102
{ACAD_REACTORS
330
43
102
}
330
43
100
AcDbMaterial
  1
Global
 72
     1
 94
      127
  0
MLEADERSTYLE
  5
6C
102
{ACAD_REACTORS
330
6B
102
}
330
6B
100
AcDbMLeaderStyle
179
     2
170
     2
171
     1
172
     0
 90
        2
 40
0.0
 41
0.0
173
     1
 91
-1056964608
340
14
 92
       -2
290
     1
 42
2.0
291
     1
 43
8.0
  3
Standard
341
0
 44
4.0
300

342
11
174
     1
178
     6
175
     1
176
     0
 93
-1056964608
 45
4.0
292
     0
297
     0
 46
4.0
343
0
 94
-1056964608
 47
1.0
 49
1.0
140
1.0
293
     1
141
0.0
294
     1
177
     0
142
1.0
295
     0
296
     0
143
3.75
271
     0
272
     9
273
     9
298
     0
  0
MLINESTYLE
  5
18
102
{ACAD_REACTORS
330
17
102
}
330
17
100
AcDbMlineStyle
  2
Standard
 70
     0
  3

 62
   256
 51
90.0
 52
90.0
 71
     2
 49
0.5
 62
   256
  6
BYLAYER
 49
-0.5
 62
   256
  6
BYLAYER
  0
ACDBPLACEHOLDER
  5
F
102
{ACAD_REACTORS
330
E
102
}
330
E
  0
SCALE
  5
48
102
{ACAD_REACTORS
330
47
102
}
330
47
100
AcDbScale
 70
     0
300
1:1
140
1.0
141
1.0
290
     1
  0
SCALE
  5
49
102
{ACAD_REACTORS
330
47
102
}
330
47
100
AcDbScale
 70
     0
300
1:2
140
1.0
141
2.0
290
     0
  0
SCALE
  5
4A
102
{ACAD_REACTORS
330
47
102
}
330
47
100
AcDbScale
 70
     0
300
1:4
140
1.0
141
4.0
290
     0
  0
SCALE
  5
4B
102
{ACAD_REACTORS
330
47
102
}
330
47
100
AcDbScale
 70
     0
300
1:5
140
1.0
141
5.0
290
     0
  0
SCALE
  5
4C
102
{ACAD_REACTORS
330
47
102
}
330
47
100
AcDbScale
 70
     0
300
1:8
140
1.0
141
8.0
290
     0
  0
SCALE
  5
4D
102
{ACAD_REACTORS
330
47
102
}
330
47
100
AcDbScale
 70
     0
300
1:10
140
1.0
141
10.0
290
     0
  0
SCALE
  5
4E
102
{ACAD_REACTORS
330
47
102
}
330
47
100
AcDbScale
 70
     0
300
1:16
140
1.0
141
16.0
290
     0
  0
SCALE
  5
4F
102
{ACAD_REACTORS
330
47
102
}
330
47
100
AcDbScale
 70
     0
300
1:20
140
1.0
141
20.0
290
     0
  0
SCALE
  5
50
102
{ACAD_REACTORS
330
47
102
}
330
47
100
AcDbScale
 70
     0
300
1:30
140
1.0
141
30.0
290
     0
  0
SCALE
  5
51
102
{ACAD_REACTORS
330
47
102
}
330
47
100
AcDbScale
 70
     0
300
1:40
140
1.0
141
40.0
290
     0
  0
SCALE
  5
52
102
{ACAD_REACTORS
330
47
102
}
330
47
100
AcDbScale
 70
     0
300
1:50
140
1.0
141
50.0
290
     0
  0
SCALE
  5
53
102
{ACAD_REACTORS
330
47
102
}
330
47
100
AcDbScale
 70
     0
300
1:100
140
1.0
141
100.0
290
     0
  0
SCALE
  5
54
102
{ACAD_REACTORS
330
47
102
}
330
47
100
AcDbScale
 70
     0
300
2:1
140
2.0
141
1.0
290
     0
  0
SCALE
  5
55
102
{ACAD_REACTORS
330
47
102
}
330
47
100
AcDbScale
 70
     0
300
4:1
140
4.0
141
1.0
290
     0
  0
SCALE
  5
56
102
{ACAD_REACTORS
330
47
102
}
330
47
100
AcDbScale
 70
     0
300
8:1
140
8.0
141
1.0
290
     0
  0
SCALE
  5
57
102
{ACAD_REACTORS
330
47
102
}
330
47
100
AcDbScale
 70
     0
300
10:1
140
10.0
141
1.0
290
     0
  0
SCALE
  5
58
102
{ACAD_REACTORS
330
47
102
}
330
47
100
AcDbScale
 70
     0
300
100:1
140
100.0
141
1.0
290
     0
  0
SCALE
  5
59
102
{ACAD_REACTORS
330
47
102
}
330
47
100
AcDbScale
 70
     0
300
1/128" = 1'-0"
140
0.0078125
141
12.0
290
     0
  0
SCALE
  5
5A
102
{ACAD_REACTORS
330
47
102
}
330
47
100
AcDbScale
 70
     0
300
1/64" = 1'-0"
140
0.015625
141
12.0
290
     0
  0
SCALE
  5
5B
102
{ACAD_REACTORS
330
47
102
}
330
47
100
AcDbScale
 70
     0
300
1/32" = 1'-0"
140
0.03125
141
12.0
290
     0
  0
SCALE
  5
5C
102
{ACAD_REACTORS
330
47
102
}
330
47
100
AcDbScale
 70
     0
300
1/16" = 1'-0"
140
0.0625
141
12.0
290
     0
  0
SCALE
  5
5D
102
{ACAD_REACTORS
330
47
102
}
330
47
100
AcDbScale
 70
     0
300
3/32" = 1'-0"
140
0.09375
141
12.0
290
     0
  0
SCALE
  5
5E
102
{ACAD_REACTORS
330
47
102
}
330
47
100
AcDbScale
 70
     0
300
1/8" = 1'-0"
140
0.125
141
12.0
290
     0
  0
SCALE
  5
5F
102
{ACAD_REACTORS
330
47
102
}
330
47
100
AcDbScale
 70
     0
300
3/16" = 1'-0"
140
0.1875
141
12.0
290
     0
  0
SCALE
  5
60
102
{ACAD_REACTORS
330
47
102
}
330
47
100
AcDbScale
 70
     0
300
1/4" = 1'-0"
140
0.25
141
12.0
290
     0
  0
SCALE
  5
61
102
{ACAD_REACTORS
330
47
102
}
330
47
100
AcDbScale
 70
     0
300
3/8" = 1'-0"
140
0.375
141
12.0
290
     0
  0
SCALE
  5
62
102
{ACAD_REACTORS
330
47
102
}
330
47
100
AcDbScale
 70
     0
300
1/2" = 1'-0"
140
0.5
141
12.0
290
     0
  0
SCALE
  5
63
102
{ACAD_REACTORS
330
47
102
}
330
47
100
AcDbScale
 70
     0
300
3/4" = 1'-0"
140
0.75
141
12.0
290
     0
  0
SCALE
  5
64
102
{ACAD_REACTORS
330
47
102
}
330
47
100
AcDbScale
 70
     0
300
1" = 1'-0"
140
1.0
141
12.0
290
     0
  0
SCALE
  5
65
102
{ACAD_REACTORS
330
47
102
}
330
47
100
AcDbScale
 70
     0
300
1-1/2" = 1'-0"
140
1.5
141
12.0
290
     0
  0
SCALE
  5
66
102
{ACAD_REACTORS
330
47
102
}
330
47
100
AcDbScale
 70
     0
300
3" = 1'-0"
140
3.0
141
12.0
290
     0
  0
SCALE
  5
67
102
{ACAD_REACTORS
330
47
102
}
330
47
100
AcDbScale
 70
     0
300
6" = 1'-0"
140
6.0
141
12.0
290
     0
  0
SCALE
  5
68
102
{ACAD_REACTORS
330
47
102
}
330
47
100
AcDbScale
 70
     0
300
1'-0" = 1'-0"
140
12.0
141
12.0
290
     0
  0
TABLESTYLE
  5
6A
102
{ACAD_REACTORS
330
69
102
}
102
{ACAD_XDICTIONARY
360
37C
102
}
330
69
100
AcDbTableStyle
  3
Standard
 70
     0
 71
     0
 40
0.06
 41
0.06
280
     0
281
     0
  7
Standard
140
4.5
170
     2
 62
     0
 63
   257
283
     0
 90
        4
 91
        0
  1

274
    -2
284
     1
 64
     0
275
    -2
285
     1
 65
     0
276
    -2
286
     1
 66
     0
277
    -2
287
     1
 67
     0
278
    -2
288
     1
 68
     0
279
    -2
289
     1
 69
     0
  7
Standard
140
6.0
170
     5
 62
     0
 63
   257
283
     0
 90
        4
 91
        0
  1

274
    -2
284
     1
 64
     0
275
    -2
285
     1
 65
     0
276
    -2
286
     1
 66
     0
277
    -2
287
     1
 67
     0
278
    -2
288
     1
 68
     0
279
    -2
289
     1
 69
     0
  7
Standard
140
4.5
170
     5
 62
     0
 63
   257
283
     0
 90
        4
 91
        0
  1

274
    -2
284
     1
 64
     0
275
    -2
285
     1
 65
     0
276
    -2
286
     1
 66
     0
277
    -2
287
     1
 67
     0
278
    -2
288
     1
 68
     0
279
    -2
289
     1
 69
     0
  0
VISUALSTYLE
  5
2F
102
{ACAD_REACTORS
330
2A
102
}
330
2A
100
AcDbVisualStyle
  2
2dWireframe
 70
     4
177
     3
291
     0
 70
    58
 90
        0
176
     1
 90
        2
176
     1
 90
        0
176
     1
 90
        0
176
     1
 40
0.6
176
     1
 40
30.0
176
     1
 62
     7
420
 16777215
176
     1
 90
        1
176
     1
 90
        4
176
     1
 62
     7
176
     1
 62
   257
176
     1
 90
        1
176
     1
 90
        1
176
     1
 40
1.0
176
     1
 90
        0
176
     1
 62
   257
176
     1
 40
1.0
176
     1
 90
        1
176
     1
 90
        6
176
     1
 90
        2
176
     1
 62
     7
176
     1
 90
        5
176
     1
 90
        0
176
     1
 90
        0
176
     1
290
     0
176
     1
 90
        1
176
     1
 40
0.0
176
     1
 90
        0
176
     1
290
     1
176
     1
290
     1
176
     1
290
     0
176
     1
290
     0
176
     1
290
     0
176
     1
290
     0
176
     1
290
     0
176
     1
290
     0
176
     1
290
     0
176
     1
 90
       50
176
     1
 40
0.0
176
     1
 40
1.0
176
     1
 90
        0
176
     1
 62
    18
420
        0
176
     1
 90
       50
176
     1
 90
        3
176
     1
 62
     5
420
      255
176
     1
290
     0
176
     1
 90
       50
176
     1
 90
       50
176
     1
 90
       50
176
     1
290
     0
176
     1
 90
       50
176
     1
 62
   256
176
     0
 40
1.0
176
     0
 90
        2
176
     1
  1
strokes_ogs.tif
176
     1
290
     0
176
     1
 40
1.0
176
     1
 40
1.0
176
     1
  0
VISUALSTYLE
  5
32
102
{ACAD_REACTORS
330
2A
102
}
330
2A
100
AcDbVisualStyle
  2
Basic
 70
     7
177
     3
291
     1
 70
    58
 90
        1
176
     1
 90
        0
176
     1
 90
        1
176
     1
 90
        0
176
     1
 40
0.6
176
     1
 40
30.0
176
     1
 62
     7
420
 16777215
176
     1
 90
        0
176
     1
 90
        4
176
     1
 62
     7
176
     1
 62
   257
176
     1
 90
        1
176
     1
 90
        1
176
     1
 40
1.0
176
     1
 90
        8
176
     1
 62
     7
176
     1
 40
1.0
176
     1
 90
        1
176
     1
 90
        6
176
     1
 90
        2
176
     1
 62
     7
176
     1
 90
        5
176
     1
 90
        0
176
     1
 90
        0
176
     1
290
     0
176
     1
 90
        1
176
     1
 40
0.0
176
     1
 90
        0
176
     1
290
     0
176
     1
290
     1
176
     1
290
     1
176
     1
290
     0
176
     1
290
     0
176
     1
290
     0
176
     1
290
     0
176
     1
290
     0
176
     1
290
     0
176
     1
 90
       50
176
     1
 40
0.0
176
     1
 40
1.0
176
     1
 90
        0
176
     1
 62
    18
420
        0
176
     1
 90
       50
176
     1
 90
        3
176
     1
 62
     5
420
      255
176
     1
290
     0
176
     1
 90
       50
176
     1
 90
       50
176
     1
 90
       50
176
     1
290
     0
176
     1
 90
       50
176
     1
 62
   256
176
     0
 40
1.0
176
     0
 90
        2
176
     1
  1
strokes_ogs.tif
176
     1
290
     0
176
     1
 40
1.0
176
     1
 40
1.0
176
     1
  0
VISUALSTYLE
  5
36
102
{ACAD_REACTORS
330
2A
102
}
330
2A
100
AcDbVisualStyle
  2
Brighten
 70
    12
177
     3
291
     1
 70
    58
 90
        2
176
     1
 90
        2
176
     1
 90
        0
176
     1
 90
        0
176
     1
 40
0.6
176
     1
 40
30.0
176
     1
 62
     7
420
 16777215
176
     1
 90
        1
176
     1
 90
        4
176
     1
 62
     7
176
     1
 62
   257
176
     1
 90
        1
176
     1
 90
        1
176
     1
 40
1.0
176
     1
 90
        8
176
     1
 62
     7
176
     1
 40
1.0
176
     1
 90
        1
176
     1
 90
        6
176
     1
 90
        2
176
     1
 62
     7
176
     1
 90
        5
176
     1
 90
        0
176
     1
 90
        0
176
     1
290
     0
176
     1
 90
        1
176
     1
 40
50.0
176
     1
 90
        0
176
     1
290
     0
176
     1
290
     1
176
     1
290
     1
176
     1
290
     0
176
     1
290
     0
176
     1
290
     0
176
     1
290
     0
176
     1
290
     0
176
     1
290
     0
176
     1
 90
       50
176
     1
 40
0.0
176
     1
 40
1.0
176
     1
 90
        0
176
     1
 62
    18
420
        0
176
     1
 90
       50
176
     1
 90
        3
176
     1
 62
     5
420
      255
176
     1
290
     0
176
     1
 90
       50
176
     1
 90
       50
176
     1
 90
       50
176
     1
290
     0
176
     1
 90
       50
176
     1
 62
   256
176
     0
 40
1.0
176
     0
 90
        2
176
     1
  1
strokes_ogs.tif
176
     1
290
     0
176
     1
 40
1.0
176
     1
 40
1.0
176
     1
  0
VISUALSTYLE
  5
3A
102
{ACAD_REACTORS
330
2A
102
}
330
2A
100
AcDbVisualStyle
  2
ColorChange
 70
    16
177
     3
291
     1
 70
    58
 90
        2
176
     1
 90
        2
176
     1
 90
        3
176
     1
 90
        0
176
     1
 40
0.6
176
     1
 40
30.0
176
     1
 62
     8
420
  8421504
176
     1
 90
        1
176
     1
 90
        4
176
     1
 62
     7
176
     1
 62
   257
176
     1
 90
        1
176
     1
 90
        1
176
     1
 40
1.0
176
     1
 90
        8
176
     1
 62
     8
420
  8421504
176
     1
 40
1.0
176
     1
 90
        1
176
     1
 90
        6
176
     1
 90
        2
176
     1
 62
     7
176
     1
 90
        5
176
     1
 90
        0
176
     1
 90
        0
176
     1
290
     0
176
     1
 90
        1
176
     1
 40
0.0
176
     1
 90
        0
176
     1
290
     0
176
     1
290
     1
176
     1
290
     1
176
     1
290
     0
176
     1
290
     0
176
     1
290
     0
176
     1
290
     0
176
     1
290
     0
176
     1
290
     0
176
     1
 90
       50
176
     1
 40
0.0
176
     1
 40
1.0
176
     1
 90
        0
176
     1
 62
    18
420
        0
176
     1
 90
       50
176
     1
 90
        3
176
     1
 62
     5
420
      255
176
     1
290
     0
176
     1
 90
       50
176
     1
 90
       50
176
     1
 90
       50
176
     1
290
     0
176
     1
 90
       50
176
     1
 62
   256
176
     0
 40
1.0
176
     0
 90
        2
176
     1
  1
strokes_ogs.tif
176
     1
290
     0
176
     1
 40
1.0
176
     1
 40
1.0
176
     1
  0
VISUALSTYLE
  5
34
102
{ACAD_REACTORS
330
2A
102
}
330
2A
100
AcDbVisualStyle
  2
Conceptual
 70
     9
177
     3
291
     0
 70
    58
 90
        3
176
     1
 90
        2
176
     1
 90
        0
176
     1
 90
        0
176
     1
 40
0.6
176
     1
 40
30.0
176
     1
 62
     7
420
 16777215
176
     1
 90
        2
176
     1
 90
        2
176
     1
 62
     7
176
     1
 62
   257
176
     1
 90
        1
176
     1
 90
        1
176
     1
 40
179.0
176
     1
 90
        8
176
     1
 62
     7
176
     1
 40
1.0
176
     1
 90
        1
176
     1
 90
        6
176
     1
 90
        2
176
     1
 62
     7
176
     1
 90
        3
176
     1
 90
        0
176
     1
 90
        0
176
     1
290
     0
176
     1
 90
        1
176
     1
 40
0.0
176
     1
 90
        0
176
     1
290
     0
176
     1
290
     1
176
     1
290
     1
176
     1
290
     0
176
     1
290
     0
176
     1
290
     0
176
     1
290
     0
176
     1
290
     0
176
     1
290
     0
176
     1
 90
       50
176
     1
 40
0.0
176
     1
 40
1.0
176
     1
 90
        0
176
     1
 62
    18
420
        0
176
     1
 90
       50
176
     1
 90
        3
176
     1
 62
     5
420
      255
176
     1
290
     0
176
     1
 90
       50
176
     1
 90
       50
176
     1
 90
       50
176
     1
290
     0
176
     1
 90
       50
176
     1
 62
   256
176
     0
 40
1.0
176
     0
 90
        2
176
     1
  1
strokes_ogs.tif
176
     1
290
     0
176
     1
 40
1.0
176
     1
 40
1.0
176
     1
  0
VISUALSTYLE
  5
35
102
{ACAD_REACTORS
330
2A
102
}
330
2A
100
AcDbVisualStyle
  2
Dim
 70
    11
177
     3
291
     1
 70
    58
 90
        2
176
     1
 90
        2
176
     1
 90
        0
176
     1
 90
        0
176
     1
 40
0.6
176
     1
 40
30.0
176
     1
 62
     7
420
 16777215
176
     1
 90
        1
176
     1
 90
        4
176
     1
 62
     7
176
     1
 62
   257
176
     1
 90
        1
176
     1
 90
        1
176
     1
 40
1.0
176
     1
 90
        8
176
     1
 62
     7
176
     1
 40
1.0
176
     1
 90
        1
176
     1
 90
        6
176
     1
 90
        2
176
     1
 62
     7
176
     1
 90
        5
176
     1
 90
        0
176
     1
 90
        0
176
     1
290
     0
176
     1
 90
        1
176
     1
 40
-50.0
176
     1
 90
        0
176
     1
290
     0
176
     1
290
     1
176
     1
290
     1
176
     1
290
     0
176
     1
290
     0
176
     1
290
     0
176
     1
290
     0
176
     1
290
     0
176
     1
290
     0
176
     1
 90
       50
176
     1
 40
0.0
176
     1
 40
1.0
176
     1
 90
        0
176
     1
 62
    18
420
        0
176
     1
 90
       50
176
     1
 90
        3
176
     1
 62
     5
420
      255
176
     1
290
     0
176
     1
 90
       50
176
     1
 90
       50
176
     1
 90
       50
176
     1
290
     0
176
     1
 90
       50
176
     1
 62
   256
176
     0
 40
1.0
176
     0
 90
        2
176
     1
  1
strokes_ogs.tif
176
     1
290
     0
176
     1
 40
1.0
176
     1
 40
1.0
176
     1
  0
VISUALSTYLE
  5
3D
102
{ACAD_REACTORS
330
2A
102
}
330
2A
100
AcDbVisualStyle
  2
EdgeColorOff
 70
    22
177
     3
291
     1
 70
    58
 90
        2
176
     0
 90
        2
176
     0
 90
        0
176
     0
 90
        0
176
     0
 40
0.6
176
     0
 40
30.0
176
     0
 62
     7
420
 16777215
176
     0
 90
        1
176
     0
 90
        4
176
     0
 62
     7
176
     0
 62
   257
176
     0
 90
        1
176
     0
 90
        1
176
     0
 40
1.0
176
     0
 90
        8
176
     2
 62
     7
176
     0
 40
1.0
176
     0
 90
        1
176
     0
 90
        6
176
     0
 90
        2
176
     0
 62
     7
176
     0
 90
        5
176
     0
 90
        0
176
     0
 90
        0
176
     0
290
     0
176
     0
 90
        1
176
     0
 40
0.0
176
     0
 90
        0
176
     0
290
     0
176
     0
290
     1
176
     0
290
     1
176
     0
290
     0
176
     0
290
     0
176
     0
290
     0
176
     0
290
     0
176
     0
290
     0
176
     0
290
     0
176
     0
 90
       50
176
     0
 40
0.0
176
     0
 40
1.0
176
     0
 90
        0
176
     0
 62
    18
420
        0
176
     0
 90
       50
176
     0
 90
        3
176
     0
 62
     5
420
      255
176
     0
290
     0
176
     0
 90
       50
176
     0
 90
       50
176
     0
 90
       50
176
     0
290
     0
176
     0
 90
       50
176
     0
 62
   256
176
     0
 40
1.0
176
     0
 90
        2
176
     0
  1
strokes_ogs.tif
176
     0
290
     0
176
     0
 40
1.0
176
     0
 40
1.0
176
     0
  0
VISUALSTYLE
  5
39
102
{ACAD_REACTORS
330
2A
102
}
330
2A
100
AcDbVisualStyle
  2
Facepattern
 70
    15
177
     3
291
     1
 70
    58
 90
        2
176
     1
 90
        2
176
     1
 90
        0
176
     1
 90
        0
176
     1
 40
0.6
176
     1
 40
30.0
176
     1
 62
     7
420
 16777215
176
     1
 90
        1
176
     1
 90
        4
176
     1
 62
     7
176
     1
 62
   257
176
     1
 90
        1
176
     1
 90
        1
176
     1
 40
1.0
176
     1
 90
        8
176
     1
 62
     7
176
     1
 40
1.0
176
     1
 90
        1
176
     1
 90
        6
176
     1
 90
        2
176
     1
 62
     7
176
     1
 90
        5
176
     1
 90
        0
176
     1
 90
        0
176
     1
290
     0
176
     1
 90
        1
176
     1
 40
0.0
176
     1
 90
        0
176
     1
290
     0
176
     1
290
     1
176
     1
290
     1
176
     1
290
     0
176
     1
290
     0
176
     1
290
     0
176
     1
290
     0
176
     1
290
     0
176
     1
290
     0
176
     1
 90
       50
176
     1
 40
0.0
176
     1
 40
1.0
176
     1
 90
        0
176
     1
 62
    18
420
        0
176
     1
 90
       50
176
     1
 90
        3
176
     1
 62
     5
420
      255
176
     1
290
     0
176
     1
 90
       50
176
     1
 90
       50
176
     1
 90
       50
176
     1
290
     0
176
     1
 90
       50
176
     1
 62
   256
176
     0
 40
1.0
176
     0
 90
        2
176
     1
  1
strokes_ogs.tif
176
     1
290
     0
176
     1
 40
1.0
176
     1
 40
1.0
176
     1
  0
VISUALSTYLE
  5
2B
102
{ACAD_REACTORS
330
2A
102
}
330
2A
100
AcDbVisualStyle
  2
Flat
 70
     0
177
     3
291
     1
 70
    58
 90
        2
176
     1
 90
        1
176
     1
 90
        1
176
     1
 90
        2
176
     1
 40
0.6
176
     1
 40
30.0
176
     1
 62
     7
420
 16777215
176
     1
 90
        0
176
     1
 90
        0
176
     1
 62
     7
176
     1
 62
   257
176
     1
 90
        1
176
     1
 90
        1
176
     1
 40
1.0
176
     1
 90
        8
176
     1
 62
     7
176
     1
 40
1.0
176
     1
 90
        1
176
     1
 90
        6
176
     1
 90
        2
176
     1
 62
     7
176
     1
 90
        5
176
     1
 90
        0
176
     1
 90
        0
176
     1
290
     0
176
     1
 90
       13
176
     1
 40
0.0
176
     1
 90
        0
176
     1
290
     0
176
     1
290
     1
176
     1
290
     1
176
     1
290
     0
176
     1
290
     0
176
     1
290
     0
176
     1
290
     0
176
     1
290
     0
176
     1
290
     0
176
     1
 90
       50
176
     1
 40
0.0
176
     1
 40
1.0
176
     1
 90
        0
176
     1
 62
    18
420
        0
176
     1
 90
       50
176
     1
 90
        3
176
     1
 62
     5
420
      255
176
     1
290
     0
176
     1
 90
       50
176
     1
 90
       50
176
     1
 90
       50
176
     1
290
     0
176
     1
 90
       50
176
     1
 62
   256
176
     0
 40
1.0
176
     0
 90
        2
176
     1
  1
strokes_ogs.tif
176
     1
290
     0
176
     1
 40
1.0
176
     1
 40
1.0
176
     1
  0
VISUALSTYLE
  5
2C
102
{ACAD_REACTORS
330
2A
102
}
330
2A
100
AcDbVisualStyle
  2
FlatWithEdges
 70
     1
177
     3
291
     1
 70
    58
 90
        2
176
     1
 90
        1
176
     1
 90
        1
176
     1
 90
        2
176
     1
 40
0.6
176
     1
 40
30.0
176
     1
 62
     7
420
 16777215
176
     1
 90
        1
176
     1
 90
        0
176
     1
 62
     7
176
     1
 62
   257
176
     1
 90
        1
176
     1
 90
        1
176
     1
 40
1.0
176
     1
 90
        0
176
     1
 62
   257
176
     1
 40
1.0
176
     1
 90
        1
176
     1
 90
        6
176
     1
 90
        2
176
     1
 62
     7
176
     1
 90
        5
176
     1
 90
        0
176
     1
 90
        0
176
     1
290
     0
176
     1
 90
       13
176
     1
 40
0.0
176
     1
 90
        0
176
     1
290
     0
176
     1
290
     1
176
     1
290
     1
176
     1
290
     0
176
     1
290
     0
176
     1
290
     0
176
     1
290
     0
176
     1
290
     0
176
     1
290
     0
176
     1
 90
       50
176
     1
 40
0.0
176
     1
 40
1.0
176
     1
 90
        0
176
     1
 62
    18
420
        0
176
     1
 90
       50
176
     1
 90
        3
176
     1
 62
     5
420
      255
176
     1
290
     0
176
     1
 90
       50
176
     1
 90
       50
176
     1
 90
       50
176
     1
290
     0
176
     1
 90
       50
176
     1
 62
   256
176
     0
 40
1.0
176
     0
 90
        2
176
     1
  1
strokes_ogs.tif
176
     1
290
     0
176
     1
 40
1.0
176
     1
 40
1.0
176
     1
  0
VISUALSTYLE
  5
2D
102
{ACAD_REACTORS
330
2A
102
}
330
2A
100
AcDbVisualStyle
  2
Gouraud
 70
     2
177
     3
291
     1
 70
    58
 90
        2
176
     1
 90
        2
176
     1
 90
        1
176
     1
 90
        2
176
     1
 40
0.6
176
     1
 40
30.0
176
     1
 62
     7
420
 16777215
176
     1
 90
        0
176
     1
 90
        0
176
     1
 62
     7
176
     1
 62
   257
176
     1
 90
        1
176
     1
 90
        1
176
     1
 40
1.0
176
     1
 90
        0
176
     1
 62
     7
176
     1
 40
1.0
176
     1
 90
        1
176
     1
 90
        6
176
     1
 90
        2
176
     1
 62
     7
176
     1
 90
        5
176
     1
 90
        0
176
     1
 90
        0
176
     1
290
     0
176
     1
 90
       13
176
     1
 40
0.0
176
     1
 90
        0
176
     1
290
     0
176
     1
290
     1
176
     1
290
     1
176
     1
290
     0
176
     1
290
     0
176
     1
290
     0
176
     1
290
     0
176
     1
290
     0
176
     1
290
     0
176
     1
 90
       50
176
     1
 40
0.0
176
     1
 40
1.0
176
     1
 90
        0
176
     1
 62
    18
420
        0
176
     1
 90
       50
176
     1
 90
        3
176
     1
 62
     5
420
      255
176
     1
290
     0
176
     1
 90
       50
176
     1
 90
       50
176
     1
 90
       50
176
     1
290
     0
176
     1
 90
       50
176
     1
 62
   256
176
     0
 40
1.0
176
     0
 90
        2
176
     1
  1
strokes_ogs.tif
176
     1
290
     0
176
     1
 40
1.0
176
     1
 40
1.0
176
     1
  0
VISUALSTYLE
  5
2E
102
{ACAD_REACTORS
330
2A
102
}
330
2A
100
AcDbVisualStyle
  2
GouraudWithEdges
 70
     3
177
     3
291
     1
 70
    58
 90
        2
176
     1
 90
        2
176
     1
 90
        1
176
     1
 90
        2
176
     1
 40
0.6
176
     1
 40
30.0
176
     1
 62
     7
420
 16777215
176
     1
 90
        1
176
     1
 90
        0
176
     1
 62
     7
176
     1
 62
   257
176
     1
 90
        1
176
     1
 90
        1
176
     1
 40
1.0
176
     1
 90
        0
176
     1
 62
   257
176
     1
 40
1.0
176
     1
 90
        1
176
     1
 90
        6
176
     1
 90
        2
176
     1
 62
     7
176
     1
 90
        5
176
     1
 90
        0
176
     1
 90
        0
176
     1
290
     0
176
     1
 90
       13
176
     1
 40
0.0
176
     1
 90
        0
176
     1
290
     0
176
     1
290
     1
176
     1
290
     1
176
     1
290
     0
176
     1
290
     0
176
     1
290
     0
176
     1
290
     0
176
     1
290
     0
176
     1
290
     0
176
     1
 90
       50
176
     1
 40
0.0
176
     1
 40
1.0
176
     1
 90
        0
176
     1
 62
    18
420
        0
176
     1
 90
       50
176
     1
 90
        3
176
     1
 62
     5
420
      255
176
     1
290
     0
176
     1
 90
       50
176
     1
 90
       50
176
     1
 90
       50
176
     1
290
     0
176
     1
 90
       50
176
     1
 62
   256
176
     0
 40
1.0
176
     0
 90
        2
176
     1
  1
strokes_ogs.tif
176
     1
290
     0
176
     1
 40
1.0
176
     1
 40
1.0
176
     1
  0
VISUALSTYLE
  5
31
102
{ACAD_REACTORS
330
2A
102
}
330
2A
100
AcDbVisualStyle
  2
Hidden
 70
     6
177
     3
291
     0
 70
    58
 90
        1
176
     1
 90
        2
176
     1
 90
        2
176
     1
 90
        0
176
     1
 40
0.6
176
     1
 40
30.0
176
     1
 62
     7
420
 16777215
176
     1
 90
        2
176
     1
 90
        2
176
     1
 62
     7
176
     1
 62
   257
176
     1
 90
        2
176
     1
 90
        1
176
     1
 40
40.0
176
     1
 90
        0
176
     1
 62
   257
176
     1
 40
1.0
176
     1
 90
        1
176
     1
 90
        6
176
     1
 90
        2
176
     1
 62
     7
176
     1
 90
        3
176
     1
 90
        0
176
     1
 90
        0
176
     1
290
     0
176
     1
 90
        1
176
     1
 40
0.0
176
     1
 90
        0
176
     1
290
     0
176
     1
290
     1
176
     1
290
     1
176
     1
290
     0
176
     1
290
     0
176
     1
290
     0
176
     1
290
     0
176
     1
290
     0
176
     1
290
     0
176
     1
 90
       50
176
     1
 40
0.0
176
     1
 40
1.0
176
     1
 90
        0
176
     1
 62
    18
420
        0
176
     1
 90
       50
176
     1
 90
        3
176
     1
 62
     5
420
      255
176
     1
290
     0
176
     1
 90
       50
176
     1
 90
       50
176
     1
 90
       50
176
     1
290
     0
176
     1
 90
       50
176
     1
 62
   256
176
     0
 40
1.0
176
     0
 90
        2
176
     1
  1
strokes_ogs.tif
176
     1
290
     0
176
     1
 40
1.0
176
     1
 40
1.0
176
     1
  0
VISUALSTYLE
  5
3B
102
{ACAD_REACTORS
330
2A
102
}
330
2A
100
AcDbVisualStyle
  2
JitterOff
 70
    20
177
     3
291
     1
 70
    58
 90
        2
176
     0
 90
        2
176
     0
 90
        0
176
     0
 90
        0
176
     0
 40
0.6
176
     0
 40
30.0
176
     0
 62
     7
420
 16777215
176
     0
 90
        1
176
     0
 90
        4
176
     0
 62
     7
176
     0
 62
   257
176
     0
 90
        1
176
     0
 90
        1
176
     0
 40
1.0
176
     0
 90
       10
176
     2
 62
     7
176
     0
 40
1.0
176
     0
 90
        1
176
     0
 90
        6
176
     0
 90
        2
176
     0
 62
     7
176
     0
 90
        5
176
     0
 90
        0
176
     0
 90
        0
176
     0
290
     0
176
     0
 90
        1
176
     0
 40
0.0
176
     0
 90
        0
176
     0
290
     0
176
     0
290
     1
176
     0
290
     1
176
     0
290
     0
176
     0
290
     0
176
     0
290
     0
176
     0
290
     0
176
     0
290
     0
176
     0
290
     0
176
     0
 90
       50
176
     0
 40
0.0
176
     0
 40
1.0
176
     0
 90
        0
176
     0
 62
    18
420
        0
176
     0
 90
       50
176
     0
 90
        3
176
     0
 62
     5
420
      255
176
     0
290
     0
176
     0
 90
       50
176
     0
 90
       50
176
     0
 90
       50
176
     0
290
     0
176
     0
 90
       50
176
     0
 62
   256
176
     0
 40
1.0
176
     0
 90
        2
176
     0
  1
strokes_ogs.tif
176
     0
290
     0
176
     0
 40
1.0
176
     0
 40
1.0
176
     0
  0
VISUALSTYLE
  5
38
102
{ACAD_REACTORS
330
2A
102
}
330
2A
100
AcDbVisualStyle
  2
Linepattern
 70
    14
177
     3
291
     1
 70
    58
 90
        2
176
     1
 90
        2
176
     1
 90
        0
176
     1
 90
        0
176
     1
 40
0.6
176
     1
 40
30.0
176
     1
 62
     7
420
 16777215
176
     1
 90
        1
176
     1
 90
        4
176
     1
 62
     7
176
     1
 62
   257
176
     1
 90
        7
176
     1
 90
        7
176
     1
 40
1.0
176
     1
 90
        8
176
     1
 62
     7
176
     1
 40
1.0
176
     1
 90
        1
176
     1
 90
        6
176
     1
 90
        2
176
     1
 62
     7
176
     1
 90
        5
176
     1
 90
        0
176
     1
 90
        0
176
     1
290
     0
176
     1
 90
        1
176
     1
 40
0.0
176
     1
 90
        0
176
     1
290
     0
176
     1
290
     1
176
     1
290
     1
176
     1
290
     0
176
     1
290
     0
176
     1
290
     0
176
     1
290
     0
176
     1
290
     0
176
     1
290
     0
176
     1
 90
       50
176
     1
 40
0.0
176
     1
 40
1.0
176
     1
 90
        0
176
     1
 62
    18
420
        0
176
     1
 90
       50
176
     1
 90
        3
176
     1
 62
     5
420
      255
176
     1
290
     0
176
     1
 90
       50
176
     1
 90
       50
176
     1
 90
       50
176
     1
290
     0
176
     1
 90
       50
176
     1
 62
   256
176
     0
 40
1.0
176
     0
 90
        2
176
     1
  1
strokes_ogs.tif
176
     1
290
     0
176
     1
 40
1.0
176
     1
 40
1.0
176
     1
  0
VISUALSTYLE
  5
3C
102
{ACAD_REACTORS
330
2A
102
}
330
2A
100
AcDbVisualStyle
  2
OverhangOff
 70
    21
177
     3
291
     1
 70
    58
 90
        2
176
     0
 90
        2
176
     0
 90
        0
176
     0
 90
        0
176
     0
 40
0.6
176
     0
 40
30.0
176
     0
 62
     7
420
 16777215
176
     0
 90
        1
176
     0
 90
        4
176
     0
 62
     7
176
     0
 62
   257
176
     0
 90
        1
176
     0
 90
        1
176
     0
 40
1.0
176
     0
 90
        9
176
     2
 62
     7
176
     0
 40
1.0
176
     0
 90
        1
176
     0
 90
        6
176
     0
 90
        2
176
     0
 62
     7
176
     0
 90
        5
176
     0
 90
        0
176
     0
 90
        0
176
     0
290
     0
176
     0
 90
        1
176
     0
 40
0.0
176
     0
 90
        0
176
     0
290
     0
176
     0
290
     1
176
     0
290
     1
176
     0
290
     0
176
     0
290
     0
176
     0
290
     0
176
     0
290
     0
176
     0
290
     0
176
     0
290
     0
176
     0
 90
       50
176
     0
 40
0.0
176
     0
 40
1.0
176
     0
 90
        0
176
     0
 62
    18
420
        0
176
     0
 90
       50
176
     0
 90
        3
176
     0
 62
     5
420
      255
176
     0
290
     0
176
     0
 90
       50
176
     0
 90
       50
176
     0
 90
       50
176
     0
290
     0
176
     0
 90
       50
176
     0
 62
   256
176
     0
 40
1.0
176
     0
 90
        2
176
     0
  1
strokes_ogs.tif
176
     0
290
     0
176
     0
 40
1.0
176
     0
 40
1.0
176
     0
  0
VISUALSTYLE
  5
33
102
{ACAD_REACTORS
330
2A
102
}
330
2A
100
AcDbVisualStyle
  2
Realistic
 70
     8
177
     3
291
     0
 70
    58
 90
        2
176
     1
 90
        3
176
     1
 90
        0
176
     1
 90
        2
176
     1
 40
0.6
176
     1
 40
30.0
176
     1
 62
     7
420
 16777215
176
     1
 90
        0
176
     1
 90
        0
176
     1
 62
     7
176
     1
 62
   257
176
     1
 90
        1
176
     1
 90
        1
176
     1
 40
1.0
176
     1
 90
        8
176
     1
 62
   257
176
     1
 40
1.0
176
     1
 90
        1
176
     1
 90
        6
176
     1
 90
        2
176
     1
 62
     7
176
     1
 90
        3
176
     1
 90
        0
176
     1
 90
        0
176
     1
290
     0
176
     1
 90
       13
176
     1
 40
0.0
176
     1
 90
        0
176
     1
290
     0
176
     1
290
     1
176
     1
290
     1
176
     1
290
     0
176
     1
290
     0
176
     1
290
     0
176
     1
290
     0
176
     1
290
     0
176
     1
290
     0
176
     1
 90
       50
176
     1
 40
0.0
176
     1
 40
1.0
176
     1
 90
        0
176
     1
 62
    18
420
        0
176
     1
 90
       50
176
     1
 90
        3
176
     1
 62
     5
420
      255
176
     1
290
     0
176
     1
 90
       50
176
     1
 90
       50
176
     1
 90
       50
176
     1
290
     0
176
     1
 90
       50
176
     1
 62
   256
176
     0
 40
1.0
176
     0
 90
        2
176
     1
  1
strokes_ogs.tif
176
     1
290
     0
176
     1
 40
1.0
176
     1
 40
1.0
176
     1
  0
VISUALSTYLE
  5
42
102
{ACAD_REACTORS
330
2A
102
}
330
2A
100
AcDbVisualStyle
  2
Shaded
 70
    27
177
     3
291
     0
 70
    58
 90
        2
176
     1
 90
        2
176
     1
 90
        1
176
     1
 90
        2
176
     1
 40
0.6
176
     1
 40
30.0
176
     1
 62
     7
420
 16777215
176
     1
 90
        0
176
     1
 90
        4
176
     1
 62
     7
176
     1
 62
   257
176
     1
 90
        1
176
     1
 90
        1
176
     1
 40
1.0
176
     1
 90
        8
176
     1
 62
   257
176
     1
 40
1.0
176
     1
 90
        1
176
     1
 90
        6
176
     1
 90
        2
176
     1
 62
     8
420
  7895160
176
     1
 90
        3
176
     1
 90
        0
176
     1
 90
        0
176
     1
290
     0
176
     1
 90
        5
176
     1
 40
0.0
176
     1
 90
        0
176
     1
290
     0
176
     1
290
     1
176
     1
290
     1
176
     1
290
     0
176
     1
290
     0
176
     1
290
     0
176
     1
290
     0
176
     1
290
     0
176
     1
290
     0
176
     1
 90
       50
176
     1
 40
0.0
176
     1
 40
1.0
176
     1
 90
        0
176
     1
 62
    18
420
        0
176
     1
 90
       50
176
     1
 90
        3
176
     1
 62
     5
420
      255
176
     1
290
     0
176
     1
 90
       50
176
     1
 90
       50
176
     1
 90
       50
176
     1
290
     0
176
     1
 90
       50
176
     1
 62
   256
176
     0
 40
1.0
176
     0
 90
        2
176
     1
  1
strokes_ogs.tif
176
     1
290
     0
176
     1
 40
1.0
176
     1
 40
1.0
176
     1
  0
VISUALSTYLE
  5
41
102
{ACAD_REACTORS
330
2A
102
}
330
2A
100
AcDbVisualStyle
  2
Shaded with edges
 70
    26
177
     3
291
     0
 70
    58
 90
        2
176
     1
 90
        2
176
     1
 90
        1
176
     1
 90
        2
176
     1
 40
0.6
176
     1
 40
30.0
176
     1
 62
     7
420
 16777215
176
     1
 90
        1
176
     1
 90
       10
176
     1
 62
     7
176
     1
 62
   257
176
     1
 90
        2
176
     1
 90
        1
176
     1
 40
1.0
176
     1
 90
        8
176
     1
 62
   257
176
     1
 40
1.0
176
     1
 90
        1
176
     1
 90
        6
176
     1
 90
        2
176
     1
 62
     7
176
     1
 90
        3
176
     1
 90
        0
176
     1
 90
        0
176
     1
290
     0
176
     1
 90
        5
176
     1
 40
0.0
176
     1
 90
        0
176
     1
290
     0
176
     1
290
     1
176
     1
290
     1
176
     1
290
     0
176
     1
290
     0
176
     1
290
     0
176
     1
290
     0
176
     1
290
     0
176
     1
290
     0
176
     1
 90
       50
176
     1
 40
0.0
176
     1
 40
1.0
176
     1
 90
        0
176
     1
 62
    18
420
        0
176
     1
 90
       50
176
     1
 90
        3
176
     1
 62
     5
420
      255
176
     1
290
     0
176
     1
 90
       50
176
     1
 90
       50
176
     1
 90
       50
176
     1
290
     0
176
     1
 90
       50
176
     1
 62
   256
176
     0
 40
1.0
176
     0
 90
        2
176
     1
  1
strokes_ogs.tif
176
     1
290
     0
176
     1
 40
1.0
176
     1
 40
1.0
176
     1
  0
VISUALSTYLE
  5
3E
102
{ACAD_REACTORS
330
2A
102
}
330
2A
100
AcDbVisualStyle
  2
Shades of Gray
 70
    23
177
     3
291
     0
 70
    58
 90
        2
176
     1
 90
        2
176
     1
 90
        3
176
     1
 90
        0
176
     1
 40
0.6
176
     1
 40
30.0
176
     1
 62
     7
420
 16777215
176
     1
 90
        2
176
     1
 90
        2
176
     1
 62
     7
176
     1
 62
     7
176
     1
 90
        1
176
     1
 90
        1
176
     1
 40
40.0
176
     1
 90
        8
176
     1
 62
     7
176
     1
 40
1.0
176
     1
 90
        1
176
     1
 90
        6
176
     1
 90
        2
176
     1
 62
     7
176
     1
 90
        3
176
     1
 90
        0
176
     1
 90
        0
176
     1
290
     0
176
     1
 90
        1
176
     1
 40
0.0
176
     1
 90
        0
176
     1
290
     0
176
     1
290
     1
176
     1
290
     1
176
     1
290
     0
176
     1
290
     0
176
     1
290
     0
176
     1
290
     0
176
     1
290
     0
176
     1
290
     0
176
     1
 90
       50
176
     1
 40
0.0
176
     1
 40
1.0
176
     1
 90
        0
176
     1
 62
    18
420
        0
176
     1
 90
       50
176
     1
 90
        3
176
     1
 62
     5
420
      255
176
     1
290
     0
176
     1
 90
       50
176
     1
 90
       50
176
     1
 90
       50
176
     1
290
     0
176
     1
 90
       50
176
     1
 62
   256
176
     0
 40
1.0
176
     0
 90
        2
176
     1
  1
strokes_ogs.tif
176
     1
290
     0
176
     1
 40
1.0
176
     1
 40
1.0
176
     1
  0
VISUALSTYLE
  5
3F
102
{ACAD_REACTORS
330
2A
102
}
330
2A
100
AcDbVisualStyle
  2
Sketchy
 70
    24
177
     3
291
     0
 70
    58
 90
        1
176
     1
 90
        2
176
     1
 90
        2
176
     1
 90
        0
176
     1
 40
0.6
176
     1
 40
30.0
176
     1
 62
     7
420
 16777215
176
     1
 90
        2
176
     1
 90
        2
176
     1
 62
     7
176
     1
 62
     7
176
     1
 90
        1
176
     1
 90
        1
176
     1
 40
40.0
176
     1
 90
       11
176
     1
 62
     7
176
     1
 40
1.0
176
     1
 90
        1
176
     1
 90
        6
176
     1
 90
        2
176
     1
 62
     7
176
     1
 90
        6
176
     1
 90
        0
176
     1
 90
        0
176
     1
290
     0
176
     1
 90
        1
176
     1
 40
0.0
176
     1
 90
        0
176
     1
290
     0
176
     1
290
     1
176
     1
290
     1
176
     1
290
     0
176
     1
290
     0
176
     1
290
     0
176
     1
290
     0
176
     1
290
     0
176
     1
290
     0
176
     1
 90
       50
176
     1
 40
0.0
176
     1
 40
1.0
176
     1
 90
        0
176
     1
 62
    18
420
        0
176
     1
 90
       50
176
     1
 90
        3
176
     1
 62
     5
420
      255
176
     1
290
     0
176
     1
 90
       50
176
     1
 90
       50
176
     1
 90
       50
176
     1
290
     0
176
     1
 90
       50
176
     1
 62
   256
176
     0
 40
1.0
176
     0
 90
        2
176
     1
  1
strokes_ogs.tif
176
     1
290
     0
176
     1
 40
1.0
176
     1
 40
1.0
176
     1
  0
VISUALSTYLE
  5
37
102
{ACAD_REACTORS
330
2A
102
}
330
2A
100
AcDbVisualStyle
  2
Thicken
 70
    13
177
     3
291
     1
 70
    58
 90
        2
176
     1
 90
        2
176
     1
 90
        0
176
     1
 90
        0
176
     1
 40
0.6
176
     1
 40
30.0
176
     1
 62
     7
420
 16777215
176
     1
 90
        1
176
     1
 90
        4
176
     1
 62
     7
176
     1
 62
   257
176
     1
 90
        1
176
     1
 90
        1
176
     1
 40
1.0
176
     1
 90
       12
176
     1
 62
     7
176
     1
 40
1.0
176
     1
 90
        1
176
     1
 90
        6
176
     1
 90
        2
176
     1
 62
     7
176
     1
 90
        5
176
     1
 90
        0
176
     1
 90
        0
176
     1
290
     0
176
     1
 90
        1
176
     1
 40
0.0
176
     1
 90
        0
176
     1
290
     0
176
     1
290
     1
176
     1
290
     1
176
     1
290
     0
176
     1
290
     0
176
     1
290
     0
176
     1
290
     0
176
     1
290
     0
176
     1
290
     0
176
     1
 90
       50
176
     1
 40
0.0
176
     1
 40
1.0
176
     1
 90
        0
176
     1
 62
    18
420
        0
176
     1
 90
       50
176
     1
 90
        3
176
     1
 62
     5
420
      255
176
     1
290
     0
176
     1
 90
       50
176
     1
 90
       50
176
     1
 90
       50
176
     1
290
     0
176
     1
 90
       50
176
     1
 62
   256
176
     0
 40
1.0
176
     0
 90
        2
176
     1
  1
strokes_ogs.tif
176
     1
290
     0
176
     1
 40
1.0
176
     1
 40
1.0
176
     1
  0
VISUALSTYLE
  5
30
102
{ACAD_REACTORS
330
2A
102
}
330
2A
100
AcDbVisualStyle
  2
Wireframe
 70
     5
177
     3
291
     0
 70
    58
 90
        0
176
     1
 90
        2
176
     1
 90
        0
176
     1
 90
        0
176
     1
 40
0.6
176
     1
 40
30.0
176
     1
 62
     7
420
 16777215
176
     1
 90
        1
176
     1
 90
        4
176
     1
 62
     7
176
     1
 62
   257
176
     1
 90
        1
176
     1
 90
        1
176
     1
 40
1.0
176
     1
 90
        0
176
     1
 62
   257
176
     1
 40
1.0
176
     1
 90
        1
176
     1
 90
        6
176
     1
 90
        2
176
     1
 62
     7
176
     1
 90
        3
176
     1
 90
        0
176
     1
 90
        0
176
     1
290
     0
176
     1
 90
        1
176
     1
 40
0.0
176
     1
 90
        0
176
     1
290
     0
176
     1
290
     1
176
     1
290
     1
176
     1
290
     0
176
     1
290
     0
176
     1
290
     0
176
     1
290
     0
176
     1
290
     0
176
     1
290
     0
176
     1
 90
       50
176
     1
 40
0.0
176
     1
 40
1.0
176
     1
 90
        0
176
     1
 62
    18
420
        0
176
     1
 90
       50
176
     1
 90
        3
176
     1
 62
     5
420
      255
176
     1
290
     0
176
     1
 90
       50
176
     1
 90
       50
176
     1
 90
       50
176
     1
290
     0
176
     1
 90
       50
176
     1
 62
   256
176
     0
 40
1.0
176
     0
 90
        2
176
     1
  1
strokes_ogs.tif
176
     1
290
     0
176
     1
 40
1.0
176
     1
 40
1.0
176
     1
  0
VISUALSTYLE
  5
40
102
{ACAD_REACTORS
330
2A
102
}
330
2A
100
AcDbVisualStyle
  2
X-Ray
 70
    25
177
     3
291
     0
 70
    58
 90
        2
176
     1
 90
        2
176
     1
 90
        1
176
     1
 90
        1
176
     1
 40
0.5
176
     1
 40
30.0
176
     1
 62
     7
420
 16777215
176
     1
 90
        1
176
     1
 90
        0
176
     1
 62
     7
176
     1
 62
   257
176
     1
 90
        1
176
     1
 90
        1
176
     1
 40
1.0
176
     1
 90
        8
176
     1
 62
     7
176
     1
 40
1.0
176
     1
 90
        1
176
     1
 90
        6
176
     1
 90
        2
176
     1
 62
     7
176
     1
 90
        3
176
     1
 90
        0
176
     1
 90
        0
176
     1
290
     0
176
     1
 90
       13
176
     1
 40
0.0
176
     1
 90
        0
176
     1
290
     0
176
     1
290
     1
176
     1
290
     1
176
     1
290
     0
176
     1
290
     0
176
     1
290
     0
176
     1
290
     0
176
     1
290
     0
176
     1
290
     0
176
     1
 90
       50
176
     1
 40
0.0
176
     1
 40
1.0
176
     1
 90
        0
176
     1
 62
    18
420
        0
176
     1
 90
       50
176
     1
 90
        3
176
     1
 62
     5
420
      255
176
     1
290
     0
176
     1
 90
       50
176
     1
 90
       50
176
     1
 90
       50
176
     1
290
     0
176
     1
 90
       50
176
     1
 62
   256
176
     0
 40
1.0
176
     0
 90
        2
176
     1
  1
strokes_ogs.tif
176
     1
290
     0
176
     1
 40
1.0
176
     1
 40
1.0
176
     1
  0
DICTIONARYVAR
  5
37B
102
{ACAD_REACTORS
330
37A
102
}
330
37A
100
DictionaryVariables
280
     0
  1
1:1
  0
DICTIONARYVAR
  5
383
102
{ACAD_REACTORS
330
37A
102
}
330
37A
100
DictionaryVariables
280
     0
  1
3.500000
  0
DICTIONARYVAR
  5
384
102
{ACAD_REACTORS
330
37A
102
}
330
37A
100
DictionaryVariables
280
     0
  1
acadiso.lin
  0
DICTIONARYVAR
  5
380
102
{ACAD_REACTORS
330
37A
102
}
330
37A
100
DictionaryVariables
280
     0
  1
Standard
  0
DICTIONARYVAR
  5
37F
102
{ACAD_REACTORS
330
37A
102
}
330
37A
100
DictionaryVariables
280
     0
  1
Standard
  0
DICTIONARY
  5
37C
330
6A
100
AcDbDictionary
280
     1
281
     1
  3
ACAD_ROUNDTRIP_2008_TABLESTYLE_CELLSTYLEMAP
360
37D
  0
CELLSTYLEMAP
  5
37D
102
{ACAD_REACTORS
330
37C
102
}
330
37C
100
AcDbCellStyleMap
 90
        3
300
CELLSTYLE
  1
TABLEFORMAT_BEGIN
 90
        5
170
     1
 91
        0
 92
    32768
 62
   257
 93
        1
300
CONTENTFORMAT
  1
CONTENTFORMAT_BEGIN
 90
        0
 91
        0
 92
        4
 93
        0
300

 40
0.0
140
1.0
 94
        5
 62
     0
340
11
144
6.0
309
CONTENTFORMAT_END
171
     1
301
MARGIN
  1
CELLMARGIN_BEGIN
 40
1.5
 40
1.5
 40
1.5
 40
1.5
 40
1.5
 40
1.5
309
CELLMARGIN_END
 94
        6
 95
        1
302
GRIDFORMAT
  1
GRIDFORMAT_BEGIN
 90
        0
 91
        1
 62
     0
 92
       -2
340
14
 93
        0
 40
0.045
309
GRIDFORMAT_END
 95
        2
302
GRIDFORMAT
  1
GRIDFORMAT_BEGIN
 90
        0
 91
        1
 62
     0
 92
       -2
340
14
 93
        0
 40
0.045
309
GRIDFORMAT_END
 95
        4
302
GRIDFORMAT
  1
GRIDFORMAT_BEGIN
 90
        0
 91
        1
 62
     0
 92
       -2
340
14
 93
        0
 40
0.045
309
GRIDFORMAT_END
 95
        8
302
GRIDFORMAT
  1
GRIDFORMAT_BEGIN
 90
        0
 91
        1
 62
     0
 92
       -2
340
14
 93
        0
 40
0.045
309
GRIDFORMAT_END
 95
       16
302
GRIDFORMAT
  1
GRIDFORMAT_BEGIN
 90
        0
 91
        1
 62
     0
 92
       -2
340
14
 93
        0
 40
0.045
309
GRIDFORMAT_END
 95
       32
302
GRIDFORMAT
  1
GRIDFORMAT_BEGIN
 90
        0
 91
        1
 62
     0
 92
       -2
340
14
 93
        0
 40
0.045
309
GRIDFORMAT_END
309
TABLEFORMAT_END
  1
CELLSTYLE_BEGIN
 90
        1
 91
        1
300
_TITLE
309
CELLSTYLE_END
300
CELLSTYLE
  1
TABLEFORMAT_BEGIN
 90
        5
170
     1
 91
        0
 92
        0
 62
   257
 93
        1
300
CONTENTFORMAT
  1
CONTENTFORMAT_BEGIN
 90
        0
 91
        0
 92
        4
 93
        0
300

 40
0.0
140
1.0
 94
        5
 62
     0
340
11
144
4.5
309
CONTENTFORMAT_END
171
     1
301
MARGIN
  1
CELLMARGIN_BEGIN
 40
1.5
 40
1.5
 40
1.5
 40
1.5
 40
1.5
 40
1.5
309
CELLMARGIN_END
 94
        6
 95
        1
302
GRIDFORMAT
  1
GRIDFORMAT_BEGIN
 90
        0
 91
        1
 62
     0
 92
       -2
340
14
 93
        0
 40
0.045
309
GRIDFORMAT_END
 95
        2
302
GRIDFORMAT
  1
GRIDFORMAT_BEGIN
 90
        0
 91
        1
 62
     0
 92
       -2
340
14
 93
        0
 40
0.045
309
GRIDFORMAT_END
 95
        4
302
GRIDFORMAT
  1
GRIDFORMAT_BEGIN
 90
        0
 91
        1
 62
     0
 92
       -2
340
14
 93
        0
 40
0.045
309
GRIDFORMAT_END
 95
        8
302
GRIDFORMAT
  1
GRIDFORMAT_BEGIN
 90
        0
 91
        1
 62
     0
 92
       -2
340
14
 93
        0
 40
0.045
309
GRIDFORMAT_END
 95
       16
302
GRIDFORMAT
  1
GRIDFORMAT_BEGIN
 90
        0
 91
        1
 62
     0
 92
       -2
340
14
 93
        0
 40
0.045
309
GRIDFORMAT_END
 95
       32
302
GRIDFORMAT
  1
GRIDFORMAT_BEGIN
 90
        0
 91
        1
 62
     0
 92
       -2
340
14
 93
        0
 40
0.045
309
GRIDFORMAT_END
309
TABLEFORMAT_END
  1
CELLSTYLE_BEGIN
 90
        2
 91
        1
300
_HEADER
309
CELLSTYLE_END
300
CELLSTYLE
  1
TABLEFORMAT_BEGIN
 90
        5
170
     1
 91
        0
 92
        0
 62
   257
 93
        1
300
CONTENTFORMAT
  1
CONTENTFORMAT_BEGIN
 90
        0
 91
        0
 92
        4
 93
        0
300

 40
0.0
140
1.0
 94
        2
 62
     0
340
11
144
4.5
309
CONTENTFORMAT_END
171
     1
301
MARGIN
  1
CELLMARGIN_BEGIN
 40
1.5
 40
1.5
 40
1.5
 40
1.5
 40
1.5
 40
1.5
309
CELLMARGIN_END
 94
        6
 95
        1
302
GRIDFORMAT
  1
GRIDFORMAT_BEGIN
 90
        0
 91
        1
 62
     0
 92
       -2
340
14
 93
        0
 40
0.045
309
GRIDFORMAT_END
 95
        2
302
GRIDFORMAT
  1
GRIDFORMAT_BEGIN
 90
        0
 91
        1
 62
     0
 92
       -2
340
14
 93
        0
 40
0.045
309
GRIDFORMAT_END
 95
        4
302
GRIDFORMAT
  1
GRIDFORMAT_BEGIN
 90
        0
 91
        1
 62
     0
 92
       -2
340
14
 93
        0
 40
0.045
309
GRIDFORMAT_END
 95
        8
302
GRIDFORMAT
  1
GRIDFORMAT_BEGIN
 90
        0
 91
        1
 62
     0
 92
       -2
340
14
 93
        0
 40
0.045
309
GRIDFORMAT_END
 95
       16
302
GRIDFORMAT
  1
GRIDFORMAT_BEGIN
 90
        0
 91
        1
 62
     0
 92
       -2
340
14
 93
        0
 40
0.045
309
GRIDFORMAT_END
 95
       32
302
GRIDFORMAT
  1
GRIDFORMAT_BEGIN
 90
        0
 91
        1
 62
     0
 92
       -2
340
14
 93
        0
 40
0.045
309
GRIDFORMAT_END
309
TABLEFORMAT_END
  1
CELLSTYLE_BEGIN
 90
        3
 91
        2
300
_DATA
309
CELLSTYLE_END
  0
ENDSEC
  0
EOF
